  0
SECTION
  2
HEADER
  9
$ACADVER
  1
AC1015
  9
$ACADMAINTVER
 70
    20
  9
$DWGCODEPAGE
  3
ANSI_1252
  9
$INSBASE
 10
0.0
 20
0.0
 30
0.0
  9
$EXTMIN
 10
0.9999999999998863
 20
1.0
 30
0.0
  9
$EXTMAX
 10
840.0
 20
593.0000000000002
 30
0.0
  9
$LIMMIN
 10
0.0
 20
0.0
  9
$LIMMAX
 10
841.0
 20
594.0
  9
$ORTHOMODE
 70
     1
  9
$REGENMODE
 70
     1
  9
$FILLMODE
 70
     1
  9
$QTEXTMODE
 70
     0
  9
$MIRRTEXT
 70
     1
  9
$LTSCALE
 40
1.0
  9
$ATTMODE
 70
     1
  9
$TEXTSIZE
 40
3.5
  9
$TRACEWID
 40
1.0
  9
$TEXTSTYLE
  7
Standard
  9
$CLAYER
  8
0
  9
$CELTYPE
  6
Continuous
  9
$CECOLOR
 62
     5
  9
$CELTSCALE
 40
1.0
  9
$DISPSILH
 70
     0
  9
$DIMSCALE
 40
1.0
  9
$DIMASZ
 40
3.72
  9
$DIMEXO
 40
0.0
  9
$DIMDLI
 40
5.0
  9
$DIMRND
 40
0.0
  9
$DIMDLE
 40
0.0
  9
$DIMEXE
 40
1.5
  9
$DIMTP
 40
0.0
  9
$DIMTM
 40
0.0
  9
$DIMTXT
 40
3.5
  9
$DIMCEN
 40
0.0
  9
$DIMTSZ
 40
0.0
  9
$DIMTOL
 70
     0
  9
$DIMLIM
 70
     0
  9
$DIMTIH
 70
     0
  9
$DIMTOH
 70
     0
  9
$DIMSE1
 70
     0
  9
$DIMSE2
 70
     0
  9
$DIMTAD
 70
     1
  9
$DIMZIN
 70
     8
  9
$DIMBLK
  1
_OPEN15
  9
$DIMASO
 70
     1
  9
$DIMSHO
 70
     1
  9
$DIMPOST
  1
M<>
  9
$DIMAPOST
  1
"
  9
$DIMALT
 70
     0
  9
$DIMALTD
 70
     2
  9
$DIMALTF
 40
0.0393700787401575
  9
$DIMLFAC
 40
1.0
  9
$DIMTOFL
 70
     1
  9
$DIMTVP
 40
0.0
  9
$DIMTIX
 70
     0
  9
$DIMSOXD
 70
     0
  9
$DIMSAH
 70
     0
  9
$DIMBLK1
  1

  9
$DIMBLK2
  1

  9
$DIMSTYLE
  2
phoenix
  9
$DIMCLRD
 70
     1
  9
$DIMCLRE
 70
     1
  9
$DIMCLRT
 70
     5
  9
$DIMTFAC
 40
0.6666666666666666
  9
$DIMGAP
 40
0.7
  9
$DIMJUST
 70
     0
  9
$DIMSD1
 70
     0
  9
$DIMSD2
 70
     0
  9
$DIMTOLJ
 70
     1
  9
$DIMTZIN
 70
     8
  9
$DIMALTZ
 70
     0
  9
$DIMALTTZ
 70
     0
  9
$DIMUPT
 70
     0
  9
$DIMDEC
 70
     6
  9
$DIMTDEC
 70
     6
  9
$DIMALTU
 70
     2
  9
$DIMALTTD
 70
     2
  9
$DIMTXSTY
  7
Standard
  9
$DIMAUNIT
 70
     0
  9
$DIMADEC
 70
     6
  9
$DIMALTRND
 40
0.0
  9
$DIMAZIN
 70
     2
  9
$DIMDSEP
 70
    46
  9
$DIMATFIT
 70
     0
  9
$DIMFRAC
 70
     0
  9
$DIMLDRBLK
  1
_OPEN15
  9
$DIMLUNIT
 70
     2
  9
$DIMLWD
 70
    25
  9
$DIMLWE
 70
    25
  9
$DIMTMOVE
 70
     0
  9
$LUNITS
 70
     2
  9
$LUPREC
 70
     4
  9
$SKETCHINC
 40
1.0
  9
$FILLETRAD
 40
10.0
  9
$AUNITS
 70
     0
  9
$AUPREC
 70
     0
  9
$MENU
  1
.
  9
$ELEVATION
 40
0.0
  9
$PELEVATION
 40
0.0
  9
$THICKNESS
 40
0.0
  9
$LIMCHECK
 70
     0
  9
$CHAMFERA
 40
10.0
  9
$CHAMFERB
 40
10.0
  9
$CHAMFERC
 40
20.0
  9
$CHAMFERD
 40
0.0
  9
$SKPOLY
 70
     0
  9
$TDCREATE
 40
2452842.567244873
  9
$TDUCREATE
 40
2452842.525578206
  9
$TDUPDATE
 40
2455905.374909074
  9
$TDUUPDATE
 40
2455905.333242408
  9
$TDINDWG
 40
0.8369399190
  9
$TDUSRTIMER
 40
0.8369399190
  9
$USRTIMER
 70
     1
  9
$ANGBASE
 50
0.0
  9
$ANGDIR
 70
     0
  9
$PDMODE
 70
    35
  9
$PDSIZE
 40
-2.0
  9
$PLINEWID
 40
0.0
  9
$SPLFRAME
 70
     0
  9
$SPLINETYPE
 70
     6
  9
$SPLINESEGS
 70
     8
  9
$HANDSEED
  5
D63D
  9
$SURFTAB1
 70
     6
  9
$SURFTAB2
 70
     6
  9
$SURFTYPE
 70
     6
  9
$SURFU
 70
     6
  9
$SURFV
 70
     6
  9
$UCSBASE
  2

  9
$UCSNAME
  2

  9
$UCSORG
 10
0.0
 20
0.0
 30
0.0
  9
$UCSXDIR
 10
1.0
 20
0.0
 30
0.0
  9
$UCSYDIR
 10
0.0
 20
1.0
 30
0.0
  9
$UCSORTHOREF
  2

  9
$UCSORTHOVIEW
 70
     0
  9
$UCSORGTOP
 10
0.0
 20
0.0
 30
0.0
  9
$UCSORGBOTTOM
 10
0.0
 20
0.0
 30
0.0
  9
$UCSORGLEFT
 10
0.0
 20
0.0
 30
0.0
  9
$UCSORGRIGHT
 10
0.0
 20
0.0
 30
0.0
  9
$UCSORGFRONT
 10
0.0
 20
0.0
 30
0.0
  9
$UCSORGBACK
 10
0.0
 20
0.0
 30
0.0
  9
$PUCSBASE
  2

  9
$PUCSNAME
  2

  9
$PUCSORG
 10
0.0
 20
0.0
 30
0.0
  9
$PUCSXDIR
 10
1.0
 20
0.0
 30
0.0
  9
$PUCSYDIR
 10
0.0
 20
1.0
 30
0.0
  9
$PUCSORTHOREF
  2

  9
$PUCSORTHOVIEW
 70
     0
  9
$PUCSORGTOP
 10
0.0
 20
0.0
 30
0.0
  9
$PUCSORGBOTTOM
 10
0.0
 20
0.0
 30
0.0
  9
$PUCSORGLEFT
 10
0.0
 20
0.0
 30
0.0
  9
$PUCSORGRIGHT
 10
0.0
 20
0.0
 30
0.0
  9
$PUCSORGFRONT
 10
0.0
 20
0.0
 30
0.0
  9
$PUCSORGBACK
 10
0.0
 20
0.0
 30
0.0
  9
$USERI1
 70
     0
  9
$USERI2
 70
     0
  9
$USERI3
 70
     0
  9
$USERI4
 70
     0
  9
$USERI5
 70
     0
  9
$USERR1
 40
0.0
  9
$USERR2
 40
0.0
  9
$USERR3
 40
0.0
  9
$USERR4
 40
0.0
  9
$USERR5
 40
0.0
  9
$WORLDVIEW
 70
     1
  9
$SHADEDGE
 70
     3
  9
$SHADEDIF
 70
    70
  9
$TILEMODE
 70
     1
  9
$MAXACTVP
 70
    64
  9
$PINSBASE
 10
0.0
 20
0.0
 30
0.0
  9
$PLIMCHECK
 70
     0
  9
$PEXTMIN
 10
1.000000000000000E+20
 20
1.000000000000000E+20
 30
1.000000000000000E+20
  9
$PEXTMAX
 10
-1.000000000000000E+20
 20
-1.000000000000000E+20
 30
-1.000000000000000E+20
  9
$PLIMMIN
 10
0.0
 20
0.0
  9
$PLIMMAX
 10
420.0
 20
297.0
  9
$UNITMODE
 70
     0
  9
$VISRETAIN
 70
     1
  9
$PLINEGEN
 70
     0
  9
$PSLTSCALE
 70
     1
  9
$TREEDEPTH
 70
  3020
  9
$CMLSTYLE
  2
Standard
  9
$CMLJUST
 70
     0
  9
$CMLSCALE
 40
20.0
  9
$PROXYGRAPHICS
 70
     1
  9
$MEASUREMENT
 70
     1
  9
$CELWEIGHT
370
    35
  9
$ENDCAPS
280
     0
  9
$JOINSTYLE
280
     0
  9
$LWDISPLAY
290
     0
  9
$INSUNITS
 70
     4
  9
$HYPERLINKBASE
  1

  9
$STYLESHEET
  1
HP_SW_Dünn.ctb
  9
$XEDIT
290
     1
  9
$CEPSNTYPE
380
     0
  9
$PSTYLEMODE
290
     1
  9
$FINGERPRINTGUID
  2
{FDEAD578-A652-11D2-9A35-0060089B3A3F}
  9
$VERSIONGUID
  2
{1E02E81D-FDCD-4EE7-8D32-B90E79173DC0}
  9
$EXTNAMES
290
     1
  9
$PSVPSCALE
 40
0.0
  9
$OLESTARTUP
290
     0
  0
ENDSEC
  0
SECTION
  2
CLASSES
  0
CLASS
  1
ACDBDICTIONARYWDFLT
  2
AcDbDictionaryWithDefault
  3
ObjectDBX Classes
 90
        0
280
     0
281
     0
  0
CLASS
  1
ACDBPLACEHOLDER
  2
AcDbPlaceHolder
  3
ObjectDBX Classes
 90
        0
280
     0
281
     0
  0
CLASS
  1
LAYOUT
  2
AcDbLayout
  3
ObjectDBX Classes
 90
        0
280
     0
281
     0
  0
CLASS
  1
PH_VARS
  2
PhoenixVars
  3
PHOENIX7010
 90
        0
280
     0
281
     0
  0
CLASS
  1
PH_GROUP
  2
PhGroup
  3
PHOENIX7010
 90
        0
280
     0
281
     0
  0
CLASS
  1
DICTIONARYVAR
  2
AcDbDictionaryVar
  3
ObjectDBX Classes
 90
        0
280
     0
281
     0
  0
CLASS
  1
PH_ENTDIMREACTOR
  2
EntDimReactor
  3
PHOENIX7010
 90
        0
280
     0
281
     0
  0
CLASS
  1
PH_DIMENTREACTOR
  2
DimEntReactor
  3
PHOENIX7010
 90
        0
280
     0
281
     0
  0
CLASS
  1
TABLESTYLE
  2
AcDbTableStyle
  3
ObjectDBX Classes
 90
     4095
280
     0
281
     0
  0
CLASS
  1
SORTENTSTABLE
  2
AcDbSortentsTable
  3
ObjectDBX Classes
 90
        0
280
     0
281
     0
  0
CLASS
  1
MATERIAL
  2
AcDbMaterial
  3
ObjectDBX Classes
 90
     1153
280
     0
281
     0
  0
CLASS
  1
VISUALSTYLE
  2
AcDbVisualStyle
  3
ObjectDBX Classes
 90
     4095
280
     0
281
     0
  0
CLASS
  1
SCALE
  2
AcDbScale
  3
ObjectDBX Classes
 90
     1153
280
     0
281
     0
  0
CLASS
  1
MLEADERSTYLE
  2
AcDbMLeaderStyle
  3
ACDB_MLEADERSTYLE_CLASS
 90
     4095
280
     0
281
     0
  0
CLASS
  1
CELLSTYLEMAP
  2
AcDbCellStyleMap
  3
ObjectDBX Classes
 90
     1152
280
     0
281
     0
  0
ENDSEC
  0
SECTION
  2
TABLES
  0
TABLE
  2
VPORT
  5
8
330
0
100
AcDbSymbolTable
 70
     1
  0
VPORT
  5
D35C
330
8
100
AcDbSymbolTableRecord
100
AcDbViewportTableRecord
  2
*Active
 70
     0
 10
0.0
 20
0.0
 11
1.0
 21
1.0
 12
423.5202440767103
 22
297.014011858862
 13
0.0
 23
0.0
 14
10.0
 24
10.0
 15
10.0
 25
10.0
 16
0.0
 26
0.0
 36
1.0
 17
0.0
 27
0.0
 37
0.0
 40
596.3244533735432
 41
2.174566473988439
 42
50.0
 43
0.0
 44
0.0
 50
0.0
 51
0.0
 71
     0
 72
   100
 73
     1
 74
     3
 75
     0
 76
     0
 77
     0
 78
     0
281
     0
 65
     1
110
0.0
120
0.0
130
0.0
111
1.0
121
0.0
131
0.0
112
0.0
122
1.0
132
0.0
 79
     0
146
0.0
  0
ENDTAB
  0
TABLE
  2
LTYPE
  5
5
330
0
100
AcDbSymbolTable
 70
     3
  0
LTYPE
  5
14
330
5
100
AcDbSymbolTableRecord
100
AcDbLinetypeTableRecord
  2
ByBlock
 70
     0
  3

 72
    65
 73
     0
 40
0.0
  0
LTYPE
  5
15
330
5
100
AcDbSymbolTableRecord
100
AcDbLinetypeTableRecord
  2
ByLayer
 70
     0
  3

 72
    65
 73
     0
 40
0.0
  0
LTYPE
  5
16
330
5
100
AcDbSymbolTableRecord
100
AcDbLinetypeTableRecord
  2
Continuous
 70
     0
  3
Solid line
 72
    65
 73
     0
 40
0.0
  0
LTYPE
  5
381B
330
5
100
AcDbSymbolTableRecord
100
AcDbLinetypeTableRecord
  2
ACAD_ISO04W100
 70
     0
  3
____ . ____ . ____ . ____ . ____ . ____ . ____ 
 72
    65
 73
     4
 40
30.5
 49
24.0
 74
     0
 49
-3.0
 74
     0
 49
0.5
 74
     0
 49
-3.0
 74
     0
  0
LTYPE
  5
3B63
330
5
100
AcDbSymbolTableRecord
100
AcDbLinetypeTableRecord
  2
ACAD_ISO02W100
 70
     0
  3
ISO Strichlinie __ __ __ __ __ __ __ __ __ __ _
 72
    65
 73
     2
 40
15.0
 49
12.0
 74
     0
 49
-3.0
 74
     0
  0
ENDTAB
  0
TABLE
  2
LAYER
  5
2
102
{ACAD_XDICTIONARY
360
D33A
102
}
330
0
100
AcDbSymbolTable
 70
     4
  0
LAYER
  5
10
102
{ACAD_XDICTIONARY
360
D583
102
}
330
2
100
AcDbSymbolTableRecord
100
AcDbLayerTableRecord
  2
0
 70
     0
 62
     7
  6
Continuous
370
    -3
390
F
  0
LAYER
  5
69
330
2
100
AcDbSymbolTableRecord
100
AcDbLayerTableRecord
  2
Defpoints
 70
     0
 62
    -7
  6
Continuous
290
     0
370
    -3
390
F
  0
LAYER
  5
D338
102
{ACAD_XDICTIONARY
360
D585
102
}
330
2
100
AcDbSymbolTableRecord
100
AcDbLayerTableRecord
  2
Bearbeitung
 70
     0
 62
     7
  6
Continuous
370
    -3
390
F
1001
AcAecLayerStandard
1000

1000

  0
LAYER
  5
D391
102
{ACAD_XDICTIONARY
360
D587
102
}
330
2
100
AcDbSymbolTableRecord
100
AcDbLayerTableRecord
  2
PH_HILFSELEMENTE
 70
     0
 62
    -7
  6
Continuous
370
    -3
390
F
  0
ENDTAB
  0
TABLE
  2
STYLE
  5
3
330
0
100
AcDbSymbolTable
 70
     1
  0
STYLE
  5
11
330
3
100
AcDbSymbolTableRecord
100
AcDbTextStyleTableRecord
  2
Standard
 70
     0
 40
0.0
 41
1.199999999999999
 50
0.0
 71
     0
 42
3.5
  3
isocp.shx
  4

  0
ENDTAB
  0
TABLE
  2
VIEW
  5
6
330
0
100
AcDbSymbolTable
 70
     0
  0
ENDTAB
  0
TABLE
  2
UCS
  5
7
330
0
100
AcDbSymbolTable
 70
     0
  0
ENDTAB
  0
TABLE
  2
APPID
  5
9
330
0
100
AcDbSymbolTable
 70
     6
  0
APPID
  5
12
330
9
100
AcDbSymbolTableRecord
100
AcDbRegAppTableRecord
  2
ACAD
 70
     0
  0
APPID
  5
40
330
9
100
AcDbSymbolTableRecord
100
AcDbRegAppTableRecord
  2
PHOENIX7010
 70
     0
  0
APPID
  5
BC6E
330
9
100
AcDbSymbolTableRecord
100
AcDbRegAppTableRecord
  2
ACAD_PSEXT
 70
     0
  0
APPID
  5
D339
330
9
100
AcDbSymbolTableRecord
100
AcDbRegAppTableRecord
  2
AcAecLayerStandard
 70
     0
  0
APPID
  5
D581
330
9
100
AcDbSymbolTableRecord
100
AcDbRegAppTableRecord
  2
ACAD_EXEMPT_FROM_CAD_STANDARDS
 70
     0
  0
APPID
  5
D5F6
330
9
100
AcDbSymbolTableRecord
100
AcDbRegAppTableRecord
  2
ACAD_MLEADERVER
 70
     0
  0
ENDTAB
  0
TABLE
  2
DIMSTYLE
  5
A
330
0
100
AcDbSymbolTable
 70
     3
100
AcDbDimStyleTable
 71
     1
340
47
  0
DIMSTYLE
105
47
102
{ACAD_REACTORS
330
9F79
330
AE8C
330
B23E
330
8CAC
330
BD36
102
}
330
A
100
AcDbSymbolTableRecord
100
AcDbDimStyleTableRecord
  2
phoenix
 70
     0
  4
"
 41
3.72
 42
0.0
 43
5.0
 44
1.5
 73
     0
 74
     0
 77
     1
 78
     8
 79
     2
140
2.5
141
0.0
143
0.0393700787401575
146
0.6666666666666666
147
0.5
172
     1
176
     1
177
     1
178
     5
179
     4
271
     6
272
     6
284
     8
288
     1
289
     0
340
11
341
41
342
41
371
    25
372
    25
  0
DIMSTYLE
105
D343
330
A
100
AcDbSymbolTableRecord
100
AcDbDimStyleTableRecord
  2
phoenix$4
 70
     0
  4
"
 41
3.5
 42
0.0
 43
7.0
 44
1.5
 73
     0
 74
     0
 77
     1
 78
     8
 79
     2
140
3.5
141
0.0
143
0.0393700787401575
146
0.6666666666666666
147
2.0
176
     1
177
     1
178
     5
179
     2
271
     2
272
     2
278
    44
284
     8
288
     1
289
     0
340
11
371
    25
372
    25
  0
DIMSTYLE
105
D375
330
A
100
AcDbSymbolTableRecord
100
AcDbDimStyleTableRecord
  2
ISO-25
 70
     0
 41
2.5
 42
0.625
 43
3.75
 44
1.25
 73
     0
 74
     0
 77
     1
 78
     8
140
2.5
141
2.5
143
0.03937007874016
147
0.625
171
     3
172
     1
271
     2
272
     2
274
     3
278
    44
283
     0
284
     8
340
11
  0
ENDTAB
  0
TABLE
  2
BLOCK_RECORD
  5
1
330
0
100
AcDbSymbolTable
 70
    15
  0
BLOCK_RECORD
  5
1F
102
{ACAD_XDICTIONARY
360
D2FA
102
}
330
1
100
AcDbSymbolTableRecord
100
AcDbBlockTableRecord
  2
*Model_Space
340
22
  0
BLOCK_RECORD
  5
1B
330
1
100
AcDbSymbolTableRecord
100
AcDbBlockTableRecord
  2
*Paper_Space
340
1E
  0
BLOCK_RECORD
  5
23
330
1
100
AcDbSymbolTableRecord
100
AcDbBlockTableRecord
  2
*Paper_Space0
340
26
  0
BLOCK_RECORD
  5
41
330
1
100
AcDbSymbolTableRecord
100
AcDbBlockTableRecord
  2
_OPEN15
340
0
102
{BLKREFS
331
D26C
331
D26D
331
D2D8
331
D2D9
331
D2E1
331
D2E2
331
D2EA
331
D2EB
331
D2F3
331
D2F4
102
}
  0
BLOCK_RECORD
  5
3B5F
330
1
100
AcDbSymbolTableRecord
100
AcDbBlockTableRecord
  2
PH_GRPBLK
340
0
102
{BLKREFS
331
D464
331
D514
331
D51C
331
D572
102
}
  0
BLOCK_RECORD
  5
8CAD
330
1
100
AcDbSymbolTableRecord
100
AcDbBlockTableRecord
  2
*D3
340
0
  0
BLOCK_RECORD
  5
9F7A
330
1
100
AcDbSymbolTableRecord
100
AcDbBlockTableRecord
  2
*D4
340
0
  0
BLOCK_RECORD
  5
AE8D
330
1
100
AcDbSymbolTableRecord
100
AcDbBlockTableRecord
  2
*D5
340
0
  0
BLOCK_RECORD
  5
B23F
330
1
100
AcDbSymbolTableRecord
100
AcDbBlockTableRecord
  2
*D6
340
0
  0
BLOCK_RECORD
  5
BD37
330
1
100
AcDbSymbolTableRecord
100
AcDbBlockTableRecord
  2
*D14
340
0
  0
ENDTAB
  0
ENDSEC
  0
SECTION
  2
BLOCKS
  0
BLOCK
  5
20
330
1F
100
AcDbEntity
  8
0
100
AcDbBlockBegin
  2
*Model_Space
 70
     0
 10
0.0
 20
0.0
 30
0.0
  3
*Model_Space
  1

  0
ENDBLK
  5
21
330
1F
100
AcDbEntity
  8
0
100
AcDbBlockEnd
  0
BLOCK
  5
1C
330
1B
100
AcDbEntity
 67
     1
  8
0
100
AcDbBlockBegin
  2
*Paper_Space
 70
     0
 10
0.0
 20
0.0
 30
0.0
  3
*Paper_Space
  1

  0
ENDBLK
  5
1D
330
1B
100
AcDbEntity
 67
     1
  8
0
100
AcDbBlockEnd
  0
BLOCK
  5
24
330
23
100
AcDbEntity
 67
     1
  8
0
100
AcDbBlockBegin
  2
*Paper_Space0
 70
     0
 10
0.0
 20
0.0
 30
0.0
  3
*Paper_Space0
  1

  0
ENDBLK
  5
25
330
23
100
AcDbEntity
 67
     1
  8
0
100
AcDbBlockEnd
  0
BLOCK
  5
45
330
41
100
AcDbEntity
  8
0
100
AcDbBlockBegin
  2
_OPEN15
 70
     0
 10
1.0
 20
0.0
 30
0.0
  3
_OPEN15
  1

  0
LINE
  5
42
330
41
100
AcDbEntity
  8
0
  6
ByBlock
 62
     0
100
AcDbLine
 10
0.0
 20
0.0
 30
0.0
 11
1.0
 21
0.0
 31
0.0
  0
LINE
  5
43
330
41
100
AcDbEntity
  8
0
  6
ByBlock
 62
     0
100
AcDbLine
 10
1.0
 20
0.0
 30
0.0
 11
0.0
 21
0.1316524975873958
 31
0.0
  0
LINE
  5
44
330
41
100
AcDbEntity
  8
0
  6
ByBlock
 62
     0
100
AcDbLine
 10
1.0
 20
0.0
 30
0.0
 11
0.0
 21
-0.1316524975873958
 31
0.0
  0
ENDBLK
  5
46
330
41
100
AcDbEntity
  8
0
100
AcDbBlockEnd
  0
BLOCK
  5
3B61
330
3B5F
100
AcDbEntity
  8
0
 62
     7
370
    50
100
AcDbBlockBegin
  2
PH_GRPBLK
 70
     0
 10
0.0
 20
0.0
 30
0.0
  3
PH_GRPBLK
  1

  0
POINT
  5
3B60
330
3B5F
100
AcDbEntity
  8
Defpoints
  6
Continuous
 62
     0
370
    50
100
AcDbPoint
 10
0.0
 20
0.0
 30
0.0
  0
ENDBLK
  5
3B62
330
3B5F
100
AcDbEntity
  8
0
 62
     7
370
    50
100
AcDbBlockEnd
  0
BLOCK
  5
8CB7
330
8CAD
100
AcDbEntity
  8
0
 62
     5
370
    35
100
AcDbBlockBegin
  2
*D3
 70
     1
 10
0.0
 20
0.0
 30
0.0
  3
*D3
  1

  0
LINE
  5
D2F0
330
8CAD
100
AcDbEntity
  8
0
  6
Continuous
 62
     1
370
    25
100
AcDbLine
 10
179.7805322715867
 20
212.3675939102247
 30
0.0
 11
179.7805322715867
 21
186.8675939102247
 31
0.0
  0
LINE
  5
D2F1
330
8CAD
100
AcDbEntity
  8
0
  6
Continuous
 62
     1
370
    25
100
AcDbLine
 10
411.7805322715867
 20
212.3675939102247
 30
0.0
 11
411.7805322715867
 21
186.8675939102247
 31
0.0
  0
LINE
  5
D2F2
330
8CAD
100
AcDbEntity
  8
0
  6
Continuous
 62
     1
370
    25
100
AcDbLine
 10
183.5005322715867
 20
188.3675939102247
 30
0.0
 11
408.0605322715867
 21
188.3675939102247
 31
0.0
  0
INSERT
  5
D2F3
330
8CAD
100
AcDbEntity
  8
0
  6
Continuous
 62
     1
370
    25
100
AcDbBlockReference
  2
_OPEN15
 10
179.7805322715867
 20
188.3675939102247
 30
0.0
 41
3.72
 42
3.72
 43
3.72
 50
180.0
  0
INSERT
  5
D2F4
330
8CAD
100
AcDbEntity
  8
0
  6
Continuous
 62
     1
370
    25
100
AcDbBlockReference
  2
_OPEN15
 10
411.7805322715867
 20
188.3675939102247
 30
0.0
 41
3.72
 42
3.72
 43
3.72
  0
MTEXT
  5
D2F5
330
8CAD
100
AcDbEntity
  8
0
  6
Continuous
 62
     5
370
    35
100
AcDbMText
 10
295.7805322715868
 20
191.8680860362089
 30
0.0
 40
5.0
 41
0.0
 71
     5
 72
     1
  1
\A1;232
 73
     1
 44
1.0
1001
ACAD
1000
MTEXTBEGIN
1070
    73
1070
     1
1070
    44
1040
1.0
1070
    74
1070
     0
1000
MTEXTEND
  0
POINT
  5
D2F6
330
8CAD
100
AcDbEntity
  8
Defpoints
  6
Continuous
 62
     0
370
    35
100
AcDbPoint
 10
179.7805322715867
 20
212.3675939102247
 30
0.0
  0
POINT
  5
D2F7
330
8CAD
100
AcDbEntity
  8
Defpoints
  6
Continuous
 62
     0
370
    35
100
AcDbPoint
 10
411.7805322715867
 20
212.3675939102247
 30
0.0
  0
POINT
  5
D2F8
330
8CAD
100
AcDbEntity
  8
Defpoints
  6
Continuous
 62
     0
370
    35
100
AcDbPoint
 10
411.7805322715867
 20
188.3675939102247
 30
0.0
  0
ENDBLK
  5
8CB8
330
8CAD
100
AcDbEntity
  8
0
 62
     5
370
    35
100
AcDbBlockEnd
  0
BLOCK
  5
9F84
330
9F7A
100
AcDbEntity
  8
0
 62
     5
370
    35
100
AcDbBlockBegin
  2
*D4
 70
     1
 10
0.0
 20
0.0
 30
0.0
  3
*D4
  1

  0
LINE
  5
D2E7
330
9F7A
100
AcDbEntity
  8
0
  6
Continuous
 62
     1
370
    25
100
AcDbLine
 10
401.7805322715867
 20
404.3675939102246
 30
0.0
 11
427.2805322715867
 21
404.3675939102246
 31
0.0
  0
LINE
  5
D2E8
330
9F7A
100
AcDbEntity
  8
0
  6
Continuous
 62
     1
370
    25
100
AcDbLine
 10
401.7805322715867
 20
202.3675939102247
 30
0.0
 11
427.2805322715866
 21
202.3675939102247
 31
0.0
  0
LINE
  5
D2E9
330
9F7A
100
AcDbEntity
  8
0
  6
Continuous
 62
     1
370
    25
100
AcDbLine
 10
425.7805322715866
 20
400.6475939102246
 30
0.0
 11
425.7805322715866
 21
206.0875939102247
 31
0.0
  0
INSERT
  5
D2EA
330
9F7A
100
AcDbEntity
  8
0
  6
Continuous
 62
     1
370
    25
100
AcDbBlockReference
  2
_OPEN15
 10
425.7805322715866
 20
404.3675939102246
 30
0.0
 41
3.72
 42
3.72
 43
3.72
 50
90.0
  0
INSERT
  5
D2EB
330
9F7A
100
AcDbEntity
  8
0
  6
Continuous
 62
     1
370
    25
100
AcDbBlockReference
  2
_OPEN15
 10
425.7805322715866
 20
202.3675939102247
 30
0.0
 41
3.72
 42
3.72
 43
3.72
 50
270.0
  0
MTEXT
  5
D2EC
330
9F7A
100
AcDbEntity
  8
0
  6
Continuous
 62
     5
370
    35
100
AcDbMText
 10
422.2800401456023
 20
303.3675939102248
 30
0.0
 40
5.0
 41
0.0
 71
     5
 72
     1
  1
\A1;202
 11
0.0000000000000001
 21
1.0
 31
0.0
 73
     1
 44
1.0
1001
ACAD
1000
MTEXTBEGIN
1070
    73
1070
     1
1070
    44
1040
1.0
1070
    74
1070
     0
1000
MTEXTEND
  0
POINT
  5
D2ED
330
9F7A
100
AcDbEntity
  8
Defpoints
  6
Continuous
 62
     0
370
    35
100
AcDbPoint
 10
401.7805322715867
 20
404.3675939102246
 30
0.0
  0
POINT
  5
D2EE
330
9F7A
100
AcDbEntity
  8
Defpoints
  6
Continuous
 62
     0
370
    35
100
AcDbPoint
 10
401.7805322715867
 20
202.3675939102247
 30
0.0
  0
POINT
  5
D2EF
330
9F7A
100
AcDbEntity
  8
Defpoints
  6
Continuous
 62
     0
370
    35
100
AcDbPoint
 10
425.7805322715866
 20
202.3675939102247
 30
0.0
  0
ENDBLK
  5
9F85
330
9F7A
100
AcDbEntity
  8
0
 62
     5
370
    35
100
AcDbBlockEnd
  0
BLOCK
  5
AE97
330
AE8D
100
AcDbEntity
  8
0
 62
     5
370
    35
100
AcDbBlockBegin
  2
*D5
 70
     1
 10
0.0
 20
0.0
 30
0.0
  3
*D5
  1

  0
LINE
  5
D2DE
330
AE8D
100
AcDbEntity
  8
0
  6
Continuous
 62
     1
370
    25
100
AcDbLine
 10
409.4660362715867
 20
52.36759391022463
 30
0.0
 11
427.2805322715866
 21
52.36759391022463
 31
0.0
  0
LINE
  5
D2DF
330
AE8D
100
AcDbEntity
  8
0
  6
Continuous
 62
     1
370
    25
100
AcDbLine
 10
411.7805322715866
 20
72.36759391022463
 30
0.0
 11
427.2805322715866
 21
72.36759391022461
 31
0.0
  0
LINE
  5
D2E0
330
AE8D
100
AcDbEntity
  8
0
  6
Continuous
 62
     1
370
    25
100
AcDbLine
 10
425.7805322715866
 20
56.08759391022463
 30
0.0
 11
425.7805322715866
 21
68.64759391022461
 31
0.0
  0
INSERT
  5
D2E1
330
AE8D
100
AcDbEntity
  8
0
  6
Continuous
 62
     1
370
    25
100
AcDbBlockReference
  2
_OPEN15
 10
425.7805322715866
 20
52.36759391022463
 30
0.0
 41
3.72
 42
3.72
 43
3.72
 50
270.0
  0
INSERT
  5
D2E2
330
AE8D
100
AcDbEntity
  8
0
  6
Continuous
 62
     1
370
    25
100
AcDbBlockReference
  2
_OPEN15
 10
425.7805322715866
 20
72.36759391022461
 30
0.0
 41
3.72
 42
3.72
 43
3.72
 50
90.0
  0
MTEXT
  5
D2E3
330
AE8D
100
AcDbEntity
  8
0
  6
Continuous
 62
     5
370
    35
100
AcDbMText
 10
422.2800401456024
 20
62.36759391022468
 30
0.0
 40
5.0
 41
0.0
 71
     5
 72
     1
  1
\A1;20
 11
0.0000000000000001
 21
1.0
 31
0.0
 73
     1
 44
1.0
1001
ACAD
1000
MTEXTBEGIN
1070
    73
1070
     1
1070
    44
1040
1.0
1070
    74
1070
     0
1000
MTEXTEND
  0
POINT
  5
D2E4
330
AE8D
100
AcDbEntity
  8
Defpoints
  6
Continuous
 62
     0
370
    35
100
AcDbPoint
 10
409.4660362715867
 20
52.36759391022463
 30
0.0
  0
POINT
  5
D2E5
330
AE8D
100
AcDbEntity
  8
Defpoints
  6
Continuous
 62
     0
370
    35
100
AcDbPoint
 10
411.7805322715866
 20
72.36759391022463
 30
0.0
  0
POINT
  5
D2E6
330
AE8D
100
AcDbEntity
  8
Defpoints
  6
Continuous
 62
     0
370
    35
100
AcDbPoint
 10
425.7805322715866
 20
72.36759391022461
 30
0.0
  0
ENDBLK
  5
AE98
330
AE8D
100
AcDbEntity
  8
0
 62
     5
370
    35
100
AcDbBlockEnd
  0
BLOCK
  5
B249
330
B23F
100
AcDbEntity
  8
0
 62
     5
370
    35
100
AcDbBlockBegin
  2
*D6
 70
     1
 10
0.0
 20
0.0
 30
0.0
  3
*D6
  1

  0
LINE
  5
D2D5
330
B23F
100
AcDbEntity
  8
0
  6
Continuous
 62
     1
370
    25
100
AcDbLine
 10
407.2384262715868
 20
162.3675939102247
 30
0.0
 11
437.2805322715867
 21
162.3675939102247
 31
0.0
  0
LINE
  5
D2D6
330
B23F
100
AcDbEntity
  8
0
  6
Continuous
 62
     1
370
    25
100
AcDbLine
 10
409.4660360621473
 20
52.36759391022464
 30
0.0
 11
437.2805322715866
 21
52.36759391022463
 31
0.0
  0
LINE
  5
D2D7
330
B23F
100
AcDbEntity
  8
0
  6
Continuous
 62
     1
370
    25
100
AcDbLine
 10
435.7805322715868
 20
158.6475939102247
 30
0.0
 11
435.7805322715867
 21
56.08759391022463
 31
0.0
  0
INSERT
  5
D2D8
330
B23F
100
AcDbEntity
  8
0
  6
Continuous
 62
     1
370
    25
100
AcDbBlockReference
  2
_OPEN15
 10
435.7805322715868
 20
162.3675939102247
 30
0.0
 41
3.72
 42
3.72
 43
3.72
 50
90.0
  0
INSERT
  5
D2D9
330
B23F
100
AcDbEntity
  8
0
  6
Continuous
 62
     1
370
    25
100
AcDbBlockReference
  2
_OPEN15
 10
435.7805322715867
 20
52.36759391022463
 30
0.0
 41
3.72
 42
3.72
 43
3.72
 50
270.0
  0
MTEXT
  5
D2DA
330
B23F
100
AcDbEntity
  8
0
  6
Continuous
 62
     5
370
    35
100
AcDbMText
 10
432.2805322715867
 20
107.3675939102247
 30
0.0
 40
5.0
 41
0.0
 71
     5
 72
     1
  1
\A1;110
 11
0.0000000000000001
 21
1.0
 31
0.0
 73
     1
 44
1.0
1001
ACAD
1000
MTEXTBEGIN
1070
    73
1070
     1
1070
    44
1040
1.0
1070
    74
1070
     0
1000
MTEXTEND
  0
POINT
  5
D2DB
330
B23F
100
AcDbEntity
  8
Defpoints
  6
Continuous
 62
     0
370
    35
100
AcDbPoint
 10
407.2384262715868
 20
162.3675939102247
 30
0.0
  0
POINT
  5
D2DC
330
B23F
100
AcDbEntity
  8
Defpoints
  6
Continuous
 62
     0
370
    35
100
AcDbPoint
 10
409.4660360621473
 20
52.36759391022464
 30
0.0
  0
POINT
  5
D2DD
330
B23F
100
AcDbEntity
  8
Defpoints
  6
Continuous
 62
     0
370
    35
100
AcDbPoint
 10
435.7805322715867
 20
52.36759391022463
 30
0.0
  0
ENDBLK
  5
B24A
330
B23F
100
AcDbEntity
  8
0
 62
     5
370
    35
100
AcDbBlockEnd
  0
BLOCK
  5
BD43
330
BD37
100
AcDbEntity
  8
0
 62
     5
370
    35
100
AcDbBlockBegin
  2
*D14
 70
     1
 10
0.0
 20
0.0
 30
0.0
  3
*D14
  1

  0
LINE
  5
D267
330
BD37
100
AcDbEntity
  8
0
  6
Continuous
 62
     1
370
    25
100
AcDbLine
 10
628.7805322715867
 20
218.3675939102247
 30
0.0
 11
628.7805322715867
 21
186.8675939102247
 31
0.0
  0
LINE
  5
D268
330
BD37
100
AcDbEntity
  8
0
  6
Continuous
 62
     1
370
    25
100
AcDbLine
 10
622.7805322715867
 20
218.3675939102247
 30
0.0
 11
622.7805322715867
 21
186.8675939102247
 31
0.0
  0
LINE
  5
D269
330
BD37
100
AcDbEntity
  8
0
  6
Continuous
 62
     1
370
    25
100
AcDbLine
 10
632.5005322715867
 20
188.3675939102247
 30
0.0
 11
636.2205322715867
 21
188.3675939102247
 31
0.0
  0
LINE
  5
D26A
330
BD37
100
AcDbEntity
  8
0
  6
Continuous
 62
     1
370
    25
100
AcDbLine
 10
619.0605322715867
 20
188.3675939102247
 30
0.0
 11
596.4838393582008
 21
188.3675939102247
 31
0.0
  0
LINE
  5
D26B
330
BD37
100
AcDbEntity
  8
0
  6
Continuous
 62
     1
370
    25
100
AcDbLine
 10
628.7805322715867
 20
188.3675939102247
 30
0.0
 11
622.7805322715867
 21
188.3675939102247
 31
0.0
  0
INSERT
  5
D26C
330
BD37
100
AcDbEntity
  8
0
  6
Continuous
 62
     1
370
    25
100
AcDbBlockReference
  2
_OPEN15
 10
628.7805322715867
 20
188.3675939102247
 30
0.0
 41
3.72
 42
3.72
 43
3.72
 50
180.0
  0
INSERT
  5
D26D
330
BD37
100
AcDbEntity
  8
0
  6
Continuous
 62
     1
370
    25
100
AcDbBlockReference
  2
_OPEN15
 10
622.7805322715867
 20
188.3675939102247
 30
0.0
 41
3.72
 42
3.72
 43
3.72
  0
MTEXT
  5
D26E
330
BD37
100
AcDbEntity
  8
0
  6
Continuous
 62
     5
370
    35
100
AcDbMText
 10
605.9121858148937
 20
191.8675939102247
 30
0.0
 40
5.0
 41
0.0
 71
     5
 72
     1
  1
\A1;6xM6
 73
     1
 44
1.0
1001
ACAD
1000
MTEXTBEGIN
1070
    73
1070
     1
1070
    44
1040
1.0
1070
    74
1070
     0
1000
MTEXTEND
  0
POINT
  5
D26F
330
BD37
100
AcDbEntity
  8
Defpoints
  6
Continuous
 62
     0
370
    35
100
AcDbPoint
 10
628.7805322715867
 20
218.3675939102247
 30
0.0
  0
POINT
  5
D270
330
BD37
100
AcDbEntity
  8
Defpoints
  6
Continuous
 62
     0
370
    35
100
AcDbPoint
 10
622.7805322715867
 20
218.3675939102247
 30
0.0
  0
POINT
  5
D271
330
BD37
100
AcDbEntity
  8
Defpoints
  6
Continuous
 62
     0
370
    35
100
AcDbPoint
 10
622.7805322715867
 20
188.3675939102247
 30
0.0
  0
ENDBLK
  5
BD44
330
BD37
100
AcDbEntity
  8
0
 62
     5
370
    35
100
AcDbBlockEnd
  0
ENDSEC
  0
SECTION
  2
ENTITIES
  0
LINE
  5
7CC6
102
{ACAD_REACTORS
330
7CCA
102
}
330
1F
100
AcDbEntity
  8
0
  6
Continuous
 62
     1
370
    35
100
AcDbLine
 10
836.0
 20
418.0000000000002
 30
0.0
 11
840.0
 21
418.0000000000002
 31
0.0
1001
PHOENIX7010
1002
{
1070
    62
1070
     1
1070
    41
1040
1.0
1002
}
  0
LINE
  5
7CC7
102
{ACAD_REACTORS
330
7CCA
102
}
330
1F
100
AcDbEntity
  8
0
  6
Continuous
 62
     1
370
    35
100
AcDbLine
 10
571.9999999999997
 20
5.0
 30
0.0
 11
571.9999999999997
 21
1.0
 31
0.0
1001
PHOENIX7010
1002
{
1070
    62
1070
     1
1070
    41
1040
1.0
1002
}
  0
ARC
  5
7D5C
102
{ACAD_REACTORS
330
394C
102
}
330
1F
100
AcDbEntity
  8
0
  6
Continuous
 62
     7
100
AcDbCircle
 10
401.7805322715867
 20
212.3675939102247
 30
0.0
 40
9.999999999999998
100
AcDbArc
 50
270.0
 51
0.0
1001
PHOENIX7010
1002
{
1070
    41
1040
1.0
1002
}
  0
LINE
  5
7D5D
102
{ACAD_REACTORS
330
394C
330
8F81
102
}
330
1F
100
AcDbEntity
  8
0
  6
Continuous
 62
     7
100
AcDbLine
 10
411.7805322715867
 20
212.3675939102247
 30
0.0
 11
411.7805322715867
 21
394.3675939102247
 31
0.0
1001
PHOENIX7010
1002
{
1070
    41
1040
1.0
1002
}
  0
LINE
  5
7D5E
102
{ACAD_REACTORS
330
394C
330
A2BA
102
}
330
1F
100
AcDbEntity
  8
0
  6
Continuous
 62
     7
100
AcDbLine
 10
189.7805322715868
 20
202.3675939102248
 30
0.0
 11
401.7805322715867
 21
202.3675939102247
 31
0.0
1001
PHOENIX7010
1002
{
1070
    41
1040
1.0
1002
}
  0
ARC
  5
7D61
102
{ACAD_REACTORS
330
394C
102
}
330
1F
100
AcDbEntity
  8
0
  6
ACAD_ISO02W100
 62
     5
 48
0.1013416985028965
100
AcDbCircle
 10
402.2805322715867
 20
227.8675939102247
 30
0.0
 40
1.999999999999999
100
AcDbArc
 50
270.0
 51
0.0
1001
PHOENIX7010
1002
{
1070
    41
1040
1.0
1002
}
  0
LINE
  5
7D62
102
{ACAD_REACTORS
330
394C
102
}
330
1F
100
AcDbEntity
  8
0
  6
ACAD_ISO02W100
 62
     5
100
AcDbLine
 10
404.2805322715867
 20
378.8675939102247
 30
0.0
 11
404.2805322715867
 21
227.8675939102247
 31
0.0
1001
PHOENIX7010
1002
{
1070
    41
1040
1.0
1002
}
  0
LINE
  5
7D63
102
{ACAD_REACTORS
330
394C
102
}
330
1F
100
AcDbEntity
  8
0
  6
ACAD_ISO02W100
 62
     5
 48
0.4838709677419355
100
AcDbLine
 10
385.7805322715868
 20
225.8675939102247
 30
0.0
 11
400.7805322715867
 21
225.8675939102247
 31
0.0
1001
PHOENIX7010
1002
{
1070
    41
1040
1.0
1002
}
  0
ARC
  5
7D64
102
{ACAD_REACTORS
330
394C
102
}
330
1F
100
AcDbEntity
  8
0
  6
ACAD_ISO02W100
 62
     5
 48
0.6333856156431034
100
AcDbCircle
 10
385.7805322715868
 20
213.3675939102247
 30
0.0
 40
12.5
100
AcDbArc
 50
90.0
 51
180.0
1001
PHOENIX7010
1002
{
1070
    41
1040
1.0
1002
}
  0
ARC
  5
7D65
102
{ACAD_REACTORS
330
394C
102
}
330
1F
100
AcDbEntity
  8
0
  6
ACAD_ISO02W100
 62
     5
 48
0.1013416985028965
100
AcDbCircle
 10
371.2805322715868
 20
211.8675939102247
 30
0.0
 40
1.999999999999999
100
AcDbArc
 50
270.0
 51
0.0
1001
PHOENIX7010
1002
{
1070
    41
1040
1.0
1002
}
  0
LINE
  5
7D66
102
{ACAD_REACTORS
330
394C
102
}
330
1F
100
AcDbEntity
  8
0
  6
ACAD_ISO02W100
 62
     5
 48
0.0483870967741936
100
AcDbLine
 10
373.2805322715868
 20
213.3675939102247
 30
0.0
 11
373.2805322715868
 21
211.8675939102247
 31
0.0
1001
PHOENIX7010
1002
{
1070
    41
1040
1.0
1002
}
  0
LINE
  5
7D67
102
{ACAD_REACTORS
330
394C
102
}
330
1F
100
AcDbEntity
  8
0
  6
ACAD_ISO02W100
 62
     5
100
AcDbLine
 10
371.2805322715868
 20
209.8675939102247
 30
0.0
 11
220.2805322715867
 21
209.8675939102248
 31
0.0
1001
PHOENIX7010
1002
{
1070
    41
1040
1.0
1002
}
  0
ARC
  5
7D68
102
{ACAD_REACTORS
330
394C
102
}
330
1F
100
AcDbEntity
  8
0
  6
Continuous
 62
     7
100
AcDbCircle
 10
189.7805322715868
 20
212.3675939102248
 30
0.0
 40
9.999999999999998
100
AcDbArc
 50
180.0
 51
270.0
1001
PHOENIX7010
1002
{
1070
    41
1040
1.0
1002
}
  0
LINE
  5
7D69
102
{ACAD_REACTORS
330
394C
330
8F80
102
}
330
1F
100
AcDbEntity
  8
0
  6
Continuous
 62
     7
100
AcDbLine
 10
179.7805322715868
 20
394.3675939102247
 30
0.0
 11
179.7805322715867
 21
212.3675939102247
 31
0.0
1001
PHOENIX7010
1002
{
1070
    41
1040
1.0
1002
}
  0
ARC
  5
7D6A
102
{ACAD_REACTORS
330
394C
102
}
330
1F
100
AcDbEntity
  8
0
  6
ACAD_ISO02W100
 62
     5
 48
0.1013416985028965
100
AcDbCircle
 10
189.2805322715867
 20
227.8675939102248
 30
0.0
 40
1.999999999999999
100
AcDbArc
 50
180.0
 51
270.0
1001
PHOENIX7010
1002
{
1070
    41
1040
1.0
1002
}
  0
LINE
  5
7D6B
102
{ACAD_REACTORS
330
394C
102
}
330
1F
100
AcDbEntity
  8
0
  6
ACAD_ISO02W100
 62
     5
100
AcDbLine
 10
187.2805322715867
 20
227.8675939102248
 30
0.0
 11
187.2805322715868
 21
378.8675939102247
 31
0.0
1001
PHOENIX7010
1002
{
1070
    41
1040
1.0
1002
}
  0
LINE
  5
7D6C
102
{ACAD_REACTORS
330
394C
102
}
330
1F
100
AcDbEntity
  8
0
  6
ACAD_ISO02W100
 62
     5
 48
0.4838709677419355
100
AcDbLine
 10
205.7805322715867
 20
225.8675939102248
 30
0.0
 11
190.7805322715868
 21
225.8675939102248
 31
0.0
1001
PHOENIX7010
1002
{
1070
    41
1040
1.0
1002
}
  0
ARC
  5
7D6D
102
{ACAD_REACTORS
330
394C
102
}
330
1F
100
AcDbEntity
  8
0
  6
ACAD_ISO02W100
 62
     5
 48
0.6333856156431034
100
AcDbCircle
 10
205.7805322715867
 20
213.3675939102248
 30
0.0
 40
12.5
100
AcDbArc
 50
0.0
 51
90.0
1001
PHOENIX7010
1002
{
1070
    41
1040
1.0
1002
}
  0
ARC
  5
7D6E
102
{ACAD_REACTORS
330
394C
102
}
330
1F
100
AcDbEntity
  8
0
  6
ACAD_ISO02W100
 62
     5
 48
0.1013416985028965
100
AcDbCircle
 10
220.2805322715867
 20
211.8675939102248
 30
0.0
 40
1.999999999999999
100
AcDbArc
 50
180.0
 51
270.0
1001
PHOENIX7010
1002
{
1070
    41
1040
1.0
1002
}
  0
LINE
  5
7D6F
102
{ACAD_REACTORS
330
394C
102
}
330
1F
100
AcDbEntity
  8
0
  6
ACAD_ISO02W100
 62
     5
 48
0.0483870645161328
100
AcDbLine
 10
218.2805322715868
 20
211.8675939102248
 30
0.0
 11
218.2805322715868
 21
213.3675929102249
 31
0.0
1001
PHOENIX7010
1002
{
1070
    41
1040
1.0
1002
}
  0
ARC
  5
7D73
102
{ACAD_REACTORS
330
394C
102
}
330
1F
100
AcDbEntity
  8
0
  6
Continuous
 62
     7
100
AcDbCircle
 10
189.7805322715868
 20
394.3675939102247
 30
0.0
 40
9.999999999999998
100
AcDbArc
 50
90.0
 51
180.0
1001
PHOENIX7010
1002
{
1070
    41
1040
1.0
1002
}
  0
ARC
  5
7D74
102
{ACAD_REACTORS
330
394C
102
}
330
1F
100
AcDbEntity
  8
0
  6
ACAD_ISO02W100
 62
     5
 48
0.1013416985028965
100
AcDbCircle
 10
189.2805322715868
 20
378.8675939102247
 30
0.0
 40
1.999999999999999
100
AcDbArc
 50
90.0
 51
180.0
1001
PHOENIX7010
1002
{
1070
    41
1040
1.0
1002
}
  0
LINE
  5
7D77
102
{ACAD_REACTORS
330
394C
330
A2B9
102
}
330
1F
100
AcDbEntity
  8
0
  6
Continuous
 62
     7
100
AcDbLine
 10
401.7805322715867
 20
404.3675939102246
 30
0.0
 11
189.7805322715868
 21
404.3675939102247
 31
0.0
1001
PHOENIX7010
1002
{
1070
    41
1040
1.0
1002
}
  0
LINE
  5
7D78
102
{ACAD_REACTORS
330
394C
102
}
330
1F
100
AcDbEntity
  8
0
  6
ACAD_ISO02W100
 62
     5
 48
0.532258064516129
100
AcDbLine
 10
189.2805322715868
 20
380.8675939102247
 30
0.0
 11
205.7805322715868
 21
380.8675939102247
 31
0.0
1001
PHOENIX7010
1002
{
1070
    41
1040
1.0
1002
}
  0
ARC
  5
7D79
102
{ACAD_REACTORS
330
394C
102
}
330
1F
100
AcDbEntity
  8
0
  6
ACAD_ISO02W100
 62
     5
 48
0.6333856156431034
100
AcDbCircle
 10
205.7805322715868
 20
393.3675939102247
 30
0.0
 40
12.5
100
AcDbArc
 50
270.0
 51
0.0
1001
PHOENIX7010
1002
{
1070
    41
1040
1.0
1002
}
  0
LINE
  5
7D7A
102
{ACAD_REACTORS
330
394C
102
}
330
1F
100
AcDbEntity
  8
0
  6
ACAD_ISO02W100
 62
     5
 48
0.0483870967741936
100
AcDbLine
 10
218.2805322715868
 20
394.8675939102248
 30
0.0
 11
218.2805322715868
 21
393.3675939102247
 31
0.0
1001
PHOENIX7010
1002
{
1070
    41
1040
1.0
1002
}
  0
ARC
  5
7D7B
102
{ACAD_REACTORS
330
394C
102
}
330
1F
100
AcDbEntity
  8
0
  6
ACAD_ISO02W100
 62
     5
 48
0.1013416985028965
100
AcDbCircle
 10
220.2805322715868
 20
394.8675939102248
 30
0.0
 40
1.999999999999999
100
AcDbArc
 50
90.0
 51
180.0
1001
PHOENIX7010
1002
{
1070
    41
1040
1.0
1002
}
  0
LINE
  5
7D7C
102
{ACAD_REACTORS
330
394C
102
}
330
1F
100
AcDbEntity
  8
0
  6
ACAD_ISO02W100
 62
     5
100
AcDbLine
 10
371.2805322715868
 20
396.8675939102246
 30
0.0
 11
220.2805322715868
 21
396.8675939102248
 31
0.0
1001
PHOENIX7010
1002
{
1070
    41
1040
1.0
1002
}
  0
LINE
  5
7D7D
102
{ACAD_REACTORS
330
394C
102
}
330
1F
100
AcDbEntity
  8
0
  6
ACAD_ISO02W100
 62
     5
 48
0.3225806451612903
100
AcDbLine
 10
359.7805322715867
 20
386.8675939102246
 30
0.0
 11
359.7805322715867
 21
396.8675939102246
 31
0.0
1001
PHOENIX7010
1002
{
1070
    41
1040
1.0
1002
}
  0
ARC
  5
7D7E
102
{ACAD_REACTORS
330
394C
102
}
330
1F
100
AcDbEntity
  8
0
  6
ACAD_ISO02W100
 62
     5
 48
0.3040250955086896
100
AcDbCircle
 10
365.7805322715868
 20
386.8675939102246
 30
0.0
 40
5.999999999999999
100
AcDbArc
 50
180.0
 51
270.0
1001
PHOENIX7010
1002
{
1070
    41
1040
1.0
1002
}
  0
LINE
  5
7D7F
102
{ACAD_REACTORS
330
394C
102
}
330
1F
100
AcDbEntity
  8
0
  6
ACAD_ISO02W100
 62
     5
100
AcDbLine
 10
402.2805322715867
 20
380.8675939102247
 30
0.0
 11
365.7805322715868
 21
380.8675939102246
 31
0.0
1001
PHOENIX7010
1002
{
1070
    41
1040
1.0
1002
}
  0
CIRCLE
  5
7D82
102
{ACAD_REACTORS
330
394C
102
}
330
1F
100
AcDbEntity
  8
0
  6
ACAD_ISO02W100
 62
     5
100
AcDbCircle
 10
365.7805322715868
 20
386.8675939102246
 30
0.0
 40
2.499999999999999
1001
PHOENIX7010
1002
{
1070
    41
1040
1.0
1002
}
  0
CIRCLE
  5
7D83
102
{ACAD_REACTORS
330
394C
102
}
330
1F
100
AcDbEntity
  8
0
  6
ACAD_ISO02W100
 62
     5
100
AcDbCircle
 10
365.7805322715868
 20
386.8675939102246
 30
0.0
 40
3.249999999999999
1001
PHOENIX7010
1002
{
1070
    41
1040
1.0
1002
}
  0
ARC
  5
7D84
102
{ACAD_REACTORS
330
394C
102
}
330
1F
100
AcDbEntity
  8
0
  6
ACAD_ISO02W100
 62
     5
 48
0.1013416985028965
100
AcDbCircle
 10
371.2805322715868
 20
394.8675939102246
 30
0.0
 40
1.999999999999999
100
AcDbArc
 50
0.0
 51
90.0
1001
PHOENIX7010
1002
{
1070
    41
1040
1.0
1002
}
  0
LINE
  5
7D85
102
{ACAD_REACTORS
330
394C
102
}
330
1F
100
AcDbEntity
  8
0
  6
ACAD_ISO02W100
 62
     5
 48
0.0483870967741936
100
AcDbLine
 10
373.2805322715868
 20
393.3675939102246
 30
0.0
 11
373.2805322715868
 21
394.8675939102246
 31
0.0
1001
PHOENIX7010
1002
{
1070
    41
1040
1.0
1002
}
  0
ARC
  5
7D86
102
{ACAD_REACTORS
330
394C
102
}
330
1F
100
AcDbEntity
  8
0
  6
ACAD_ISO02W100
 62
     5
 48
0.6333856156431036
100
AcDbCircle
 10
385.7805322715868
 20
393.3675939102247
 30
0.0
 40
12.5
100
AcDbArc
 50
180.0
 51
270.0
1001
PHOENIX7010
1002
{
1070
    41
1040
1.0
1002
}
  0
ARC
  5
7D87
102
{ACAD_REACTORS
330
394C
102
}
330
1F
100
AcDbEntity
  8
0
  6
Continuous
 62
     7
100
AcDbCircle
 10
401.7805322715867
 20
394.3675939102247
 30
0.0
 40
9.999999999999998
100
AcDbArc
 50
0.0
 51
90.0
1001
PHOENIX7010
1002
{
1070
    41
1040
1.0
1002
}
  0
ARC
  5
7D88
102
{ACAD_REACTORS
330
394C
102
}
330
1F
100
AcDbEntity
  8
0
  6
ACAD_ISO02W100
 62
     5
 48
0.1013416985028965
100
AcDbCircle
 10
402.2805322715867
 20
378.8675939102247
 30
0.0
 40
1.999999999999999
100
AcDbArc
 50
0.0
 51
90.0
1001
PHOENIX7010
1002
{
1070
    41
1040
1.0
1002
}
  0
LINE
  5
7D8B
102
{ACAD_REACTORS
330
394C
102
}
330
1F
100
AcDbEntity
  8
0
  6
ACAD_ISO04W100
 62
     1
100
AcDbLine
 10
177.7805322715868
 20
303.3675939102248
 30
0.0
 11
413.7805322715867
 21
303.3675939102247
 31
0.0
1001
PHOENIX7010
1002
{
1070
    41
1040
1.0
1002
}
  0
LINE
  5
7D8C
102
{ACAD_REACTORS
330
394C
102
}
330
1F
100
AcDbEntity
  8
0
  6
ACAD_ISO04W100
 62
     1
100
AcDbLine
 10
295.7805322715868
 20
200.3675939102247
 30
0.0
 11
295.7805322715868
 21
406.3675939102246
 31
0.0
1001
PHOENIX7010
1002
{
1070
    41
1040
1.0
1002
}
  0
CIRCLE
  5
7F1F
102
{ACAD_REACTORS
330
394C
102
}
330
1F
100
AcDbEntity
  8
0
  6
Continuous
 62
     7
370
    50
100
AcDbCircle
 10
190.7805322715869
 20
393.3675939102247
 30
0.0
 40
5.5
1001
PHOENIX7010
1002
{
1070
    41
1040
1.0
1002
}
  0
CIRCLE
  5
7F20
102
{ACAD_REACTORS
330
394C
102
}
330
1F
100
AcDbEntity
  8
0
  6
Continuous
 62
     7
370
    50
100
AcDbCircle
 10
190.7805322715869
 20
393.3675939102247
 30
0.0
 40
2.699999999999988
1001
PHOENIX7010
1002
{
1070
    41
1040
1.0
1002
}
  0
CIRCLE
  5
7F24
102
{ACAD_REACTORS
330
394C
102
}
330
1F
100
AcDbEntity
  8
0
  6
Continuous
 62
     7
370
    50
100
AcDbCircle
 10
400.7805322715868
 20
393.3675939102247
 30
0.0
 40
5.5
1001
PHOENIX7010
1002
{
1070
    41
1040
1.0
1002
}
  0
CIRCLE
  5
7F25
102
{ACAD_REACTORS
330
394C
102
}
330
1F
100
AcDbEntity
  8
0
  6
Continuous
 62
     7
370
    50
100
AcDbCircle
 10
400.7805322715868
 20
393.3675939102247
 30
0.0
 40
2.699999999999988
1001
PHOENIX7010
1002
{
1070
    41
1040
1.0
1002
}
  0
CIRCLE
  5
7F26
102
{ACAD_REACTORS
330
394C
102
}
330
1F
100
AcDbEntity
  8
0
  6
Continuous
 62
     7
370
    50
100
AcDbCircle
 10
400.7805322715868
 20
213.3675939102247
 30
0.0
 40
5.5
1001
PHOENIX7010
1002
{
1070
    41
1040
1.0
1002
}
  0
CIRCLE
  5
7F27
102
{ACAD_REACTORS
330
394C
102
}
330
1F
100
AcDbEntity
  8
0
  6
Continuous
 62
     7
370
    50
100
AcDbCircle
 10
400.7805322715868
 20
213.3675939102247
 30
0.0
 40
2.699999999999988
1001
PHOENIX7010
1002
{
1070
    41
1040
1.0
1002
}
  0
CIRCLE
  5
7F28
102
{ACAD_REACTORS
330
394C
102
}
330
1F
100
AcDbEntity
  8
0
  6
Continuous
 62
     7
370
    50
100
AcDbCircle
 10
190.7805322715868
 20
213.3675939102248
 30
0.0
 40
5.5
1001
PHOENIX7010
1002
{
1070
    41
1040
1.0
1002
}
  0
CIRCLE
  5
7F29
102
{ACAD_REACTORS
330
394C
102
}
330
1F
100
AcDbEntity
  8
0
  6
Continuous
 62
     7
370
    50
100
AcDbCircle
 10
190.7805322715868
 20
213.3675939102248
 30
0.0
 40
2.699999999999988
1001
PHOENIX7010
1002
{
1070
    41
1040
1.0
1002
}
  0
ARC
  5
7F30
102
{ACAD_REACTORS
330
394C
102
}
330
1F
100
AcDbEntity
  8
0
  6
Continuous
 62
     7
100
AcDbCircle
 10
803.7805322715868
 20
394.3675939102247
 30
0.0
 40
10.0
100
AcDbArc
 50
0.0
 51
90.00000200000281
1001
PHOENIX7010
1002
{
1070
    41
1040
1.0
1002
}
  0
LINE
  5
7F31
102
{ACAD_REACTORS
330
394C
102
}
330
1F
100
AcDbEntity
  8
0
  6
Continuous
 62
     7
100
AcDbLine
 10
813.780532271587
 20
394.3675939102247
 30
0.0
 11
813.780532271587
 21
212.3675939102247
 31
0.0
1001
PHOENIX7010
1002
{
1070
    41
1040
1.0
1002
}
  0
LINE
  5
7F32
102
{ACAD_REACTORS
330
394C
102
}
330
1F
100
AcDbEntity
  8
0
  6
Continuous
 62
     7
100
AcDbLine
 10
591.7805322715869
 20
404.3675939102247
 30
0.0
 11
803.7805322715868
 21
404.3675939102247
 31
0.0
1001
PHOENIX7010
1002
{
1070
    41
1040
1.0
1002
}
  0
ARC
  5
7F33
102
{ACAD_REACTORS
330
394C
102
}
330
1F
100
AcDbEntity
  8
0
  6
ACAD_ISO02W100
 62
     5
 48
0.2280188342992308
100
AcDbCircle
 10
804.2805322715869
 20
378.8675939102247
 30
0.0
 40
4.5
100
AcDbArc
 50
0.0
 51
90.00000500000048
1001
PHOENIX7010
1002
{
1070
    41
1040
1.0
1002
}
  0
LINE
  5
7F34
102
{ACAD_REACTORS
330
394C
102
}
330
1F
100
AcDbEntity
  8
0
  6
ACAD_ISO02W100
 62
     5
100
AcDbLine
 10
808.7805322715869
 20
378.8675939102247
 30
0.0
 11
808.7805322715869
 21
227.8675939102247
 31
0.0
1001
PHOENIX7010
1002
{
1070
    41
1040
1.0
1002
}
  0
LINE
  5
7F35
102
{ACAD_REACTORS
330
394C
102
}
330
1F
100
AcDbEntity
  8
0
  6
ACAD_ISO02W100
 62
     5
100
AcDbLine
 10
591.2805322715869
 20
383.3675939102247
 30
0.0
 11
804.2805322715869
 21
383.3675939102247
 31
0.0
1001
PHOENIX7010
1002
{
1070
    41
1040
1.0
1002
}
  0
ARC
  5
7F3A
102
{ACAD_REACTORS
330
394C
102
}
330
1F
100
AcDbEntity
  8
0
  6
ACAD_ISO02W100
 62
     5
 48
0.5067084812542783
100
AcDbCircle
 10
787.7805322715869
 20
393.3675939102247
 30
0.0
 40
10.0
100
AcDbArc
 50
180.0
 51
269.9999979999972
1001
PHOENIX7010
1002
{
1070
    41
1040
1.0
1002
}
  0
LINE
  5
7F3B
102
{ACAD_REACTORS
330
394C
102
}
330
1F
100
AcDbEntity
  8
0
  6
ACAD_ISO02W100
 62
     5
 48
0.0483870967741936
100
AcDbLine
 10
777.7805322715869
 20
394.8675939102248
 30
0.0
 11
777.7805322715869
 21
393.3675939102247
 31
0.0
1001
PHOENIX7010
1002
{
1070
    41
1040
1.0
1002
}
  0
ARC
  5
7F3C
102
{ACAD_REACTORS
330
394C
102
}
330
1F
100
AcDbEntity
  8
0
  6
ACAD_ISO02W100
 62
     5
 48
0.2280188342992308
100
AcDbCircle
 10
773.2805322715869
 20
394.8675939102248
 30
0.0
 40
4.5
100
AcDbArc
 50
0.0
 51
90.00000500000048
1001
PHOENIX7010
1002
{
1070
    41
1040
1.0
1002
}
  0
LINE
  5
7F3D
102
{ACAD_REACTORS
330
394C
102
}
330
1F
100
AcDbEntity
  8
0
  6
ACAD_ISO02W100
 62
     5
100
AcDbLine
 10
622.2805322715869
 20
399.3675939102248
 30
0.0
 11
773.2805322715869
 21
399.3675939102248
 31
0.0
1001
PHOENIX7010
1002
{
1070
    41
1040
1.0
1002
}
  0
LINE
  5
7F3E
102
{ACAD_REACTORS
330
394C
102
}
330
1F
100
AcDbEntity
  8
0
  6
ACAD_ISO04W100
 62
     1
 48
0.1612903225806451
100
AcDbLine
 10
769.7805322715869
 20
383.3675939102247
 30
0.0
 11
769.7805322715869
 21
393.3675939102247
 31
0.0
1001
PHOENIX7010
1002
{
1070
    41
1040
1.0
1002
}
  0
LINE
  5
7F43
102
{ACAD_REACTORS
330
394C
102
}
330
1F
100
AcDbEntity
  8
0
  6
ACAD_ISO04W100
 62
     1
 48
0.1612903225806525
100
AcDbLine
 10
764.7805322715867
 20
388.3675939102247
 30
0.0
 11
774.7805322715871
 21
388.3675939102247
 31
0.0
1001
PHOENIX7010
1002
{
1070
    41
1040
1.0
1002
}
  0
LINE
  5
7F44
102
{ACAD_REACTORS
330
394C
102
}
330
1F
100
AcDbEntity
  8
0
  6
ACAD_ISO04W100
 62
     1
 48
0.1612903225806525
100
AcDbLine
 10
702.7805322715871
 20
388.3675939102247
 30
0.0
 11
692.7805322715867
 21
388.3675939102247
 31
0.0
1001
PHOENIX7010
1002
{
1070
    41
1040
1.0
1002
}
  0
LINE
  5
7F47
102
{ACAD_REACTORS
330
394C
102
}
330
1F
100
AcDbEntity
  8
0
  6
ACAD_ISO04W100
 62
     1
 48
0.1612903225806451
100
AcDbLine
 10
630.7805322715869
 20
388.3675939102247
 30
0.0
 11
620.7805322715869
 21
388.3675939102247
 31
0.0
1001
PHOENIX7010
1002
{
1070
    41
1040
1.0
1002
}
  0
ARC
  5
7F48
102
{ACAD_REACTORS
330
394C
102
}
330
1F
100
AcDbEntity
  8
0
  6
ACAD_ISO02W100
 62
     5
 48
0.2280188089638037
100
AcDbCircle
 10
622.2805322715869
 20
394.8675939102248
 30
0.0
 40
4.5
100
AcDbArc
 50
90.00000500000048
 51
180.0
1001
PHOENIX7010
1002
{
1070
    41
1040
1.0
1002
}
  0
LINE
  5
7F49
102
{ACAD_REACTORS
330
394C
102
}
330
1F
100
AcDbEntity
  8
0
  6
ACAD_ISO02W100
 62
     5
 48
0.0483870967741936
100
AcDbLine
 10
617.7805322715869
 20
394.8675939102248
 30
0.0
 11
617.7805322715869
 21
393.3675939102247
 31
0.0
1001
PHOENIX7010
1002
{
1070
    41
1040
1.0
1002
}
  0
ARC
  5
7F4A
102
{ACAD_REACTORS
330
394C
102
}
330
1F
100
AcDbEntity
  8
0
  6
ACAD_ISO02W100
 62
     5
 48
0.5067085037746873
100
AcDbCircle
 10
607.7805322715869
 20
393.3675939102247
 30
0.0
 40
10.0
100
AcDbArc
 50
269.9999979999972
 51
0.0
1001
PHOENIX7010
1002
{
1070
    41
1040
1.0
1002
}
  0
LINE
  5
7F4B
102
{ACAD_REACTORS
330
394C
102
}
330
1F
100
AcDbEntity
  8
0
  6
ACAD_ISO04W100
 62
     1
 48
0.1612903225806451
100
AcDbLine
 10
625.7805322715869
 20
383.3675939102247
 30
0.0
 11
625.7805322715869
 21
393.3675939102247
 31
0.0
1001
PHOENIX7010
1002
{
1070
    41
1040
1.0
1002
}
  0
ARC
  5
7F4E
102
{ACAD_REACTORS
330
394C
102
}
330
1F
100
AcDbEntity
  8
0
  6
Continuous
 62
     7
100
AcDbCircle
 10
591.7805322715869
 20
394.3675939102247
 30
0.0
 40
10.0
100
AcDbArc
 50
90.00000200000281
 51
180.0
1001
PHOENIX7010
1002
{
1070
    41
1040
1.0
1002
}
  0
LINE
  5
7F4F
102
{ACAD_REACTORS
330
394C
102
}
330
1F
100
AcDbEntity
  8
0
  6
Continuous
 62
     7
100
AcDbLine
 10
581.7805322715869
 20
212.3675939102247
 30
0.0
 11
581.7805322715869
 21
394.3675939102247
 31
0.0
1001
PHOENIX7010
1002
{
1070
    41
1040
1.0
1002
}
  0
LINE
  5
7F50
102
{ACAD_REACTORS
330
394C
102
}
330
1F
100
AcDbEntity
  8
0
  6
ACAD_ISO04W100
 62
     1
 48
0.5040322580645161
100
AcDbLine
 10
615.5305322715869
 20
393.3675939102247
 30
0.0
 11
584.2805322715869
 21
393.3675939102247
 31
0.0
1001
PHOENIX7010
1002
{
1070
    41
1040
1.0
1002
}
  0
LINE
  5
7F51
102
{ACAD_REACTORS
330
394C
102
}
330
1F
100
AcDbEntity
  8
0
  6
ACAD_ISO04W100
 62
     1
 48
0.2741935483870967
100
AcDbLine
 10
592.7805322715869
 20
384.8675939102248
 30
0.0
 11
592.7805322715869
 21
401.8675939102247
 31
0.0
1001
PHOENIX7010
1002
{
1070
    41
1040
1.0
1002
}
  0
LINE
  5
7F53
102
{ACAD_REACTORS
330
394C
102
}
330
1F
100
AcDbEntity
  8
0
  6
ACAD_ISO04W100
 62
     1
 48
0.25
100
AcDbLine
 10
607.7805322715869
 20
385.6175939102247
 30
0.0
 11
607.7805322715869
 21
401.1175939102247
 31
0.0
1001
PHOENIX7010
1002
{
1070
    41
1040
1.0
1002
}
  0
ARC
  5
7F54
102
{ACAD_REACTORS
330
394C
102
}
330
1F
100
AcDbEntity
  8
0
  6
ACAD_ISO02W100
 62
     5
 48
0.2280188089638037
100
AcDbCircle
 10
591.2805322715869
 20
378.8675939102247
 30
0.0
 40
4.5
100
AcDbArc
 50
90.00000500000048
 51
180.0
1001
PHOENIX7010
1002
{
1070
    41
1040
1.0
1002
}
  0
LINE
  5
7F55
102
{ACAD_REACTORS
330
394C
102
}
330
1F
100
AcDbEntity
  8
0
  6
ACAD_ISO02W100
 62
     5
100
AcDbLine
 10
586.7805322715869
 20
227.8675939102247
 30
0.0
 11
586.7805322715869
 21
378.8675939102247
 31
0.0
1001
PHOENIX7010
1002
{
1070
    41
1040
1.0
1002
}
  0
ARC
  5
7F56
102
{ACAD_REACTORS
330
394C
102
}
330
1F
100
AcDbEntity
  8
0
  6
Continuous
 62
     7
100
AcDbCircle
 10
591.7805322715869
 20
212.3675939102247
 30
0.0
 40
10.0
100
AcDbArc
 50
180.0
 51
269.9999979999972
1001
PHOENIX7010
1002
{
1070
    41
1040
1.0
1002
}
  0
ARC
  5
7F57
102
{ACAD_REACTORS
330
394C
102
}
330
1F
100
AcDbEntity
  8
0
  6
ACAD_ISO02W100
 62
     5
 48
0.2280188089638036
100
AcDbCircle
 10
591.2805322715869
 20
227.8675939102247
 30
0.0
 40
4.5
100
AcDbArc
 50
180.0
 51
269.9999949999995
1001
PHOENIX7010
1002
{
1070
    41
1040
1.0
1002
}
  0
LINE
  5
7F5C
102
{ACAD_REACTORS
330
394C
102
}
330
1F
100
AcDbEntity
  8
0
  6
Continuous
 62
     7
100
AcDbLine
 10
803.7805322715868
 20
202.3675939102247
 30
0.0
 11
591.7805322715869
 21
202.3675939102247
 31
0.0
1001
PHOENIX7010
1002
{
1070
    41
1040
1.0
1002
}
  0
LINE
  5
7F5D
102
{ACAD_REACTORS
330
394C
102
}
330
1F
100
AcDbEntity
  8
0
  6
ACAD_ISO02W100
 62
     5
100
AcDbLine
 10
804.2805318788877
 20
223.3675939102247
 30
0.0
 11
591.2805322715869
 21
223.3675939102247
 31
0.0
1001
PHOENIX7010
1002
{
1070
    41
1040
1.0
1002
}
  0
ARC
  5
7F5E
102
{ACAD_REACTORS
330
394C
102
}
330
1F
100
AcDbEntity
  8
0
  6
ACAD_ISO02W100
 62
     5
 48
0.5067085037746873
100
AcDbCircle
 10
607.7805322715869
 20
213.3675939102247
 30
0.0
 40
10.0
100
AcDbArc
 50
0.0
 51
90.00000200000281
1001
PHOENIX7010
1002
{
1070
    41
1040
1.0
1002
}
  0
ARC
  5
7F5F
102
{ACAD_REACTORS
330
394C
102
}
330
1F
100
AcDbEntity
  8
0
  6
ACAD_ISO02W100
 62
     5
 48
0.2280188089638036
100
AcDbCircle
 10
622.2805322715869
 20
211.8675939102248
 30
0.0
 40
4.5
100
AcDbArc
 50
180.0
 51
269.9999949999995
1001
PHOENIX7010
1002
{
1070
    41
1040
1.0
1002
}
  0
LINE
  5
7F60
102
{ACAD_REACTORS
330
394C
102
}
330
1F
100
AcDbEntity
  8
0
  6
ACAD_ISO02W100
 62
     5
 48
0.0483870967741936
100
AcDbLine
 10
617.7805322715869
 20
211.8675939102248
 30
0.0
 11
617.7805322715869
 21
213.3675939102247
 31
0.0
1001
PHOENIX7010
1002
{
1070
    41
1040
1.0
1002
}
  0
LINE
  5
7F61
102
{ACAD_REACTORS
330
394C
102
}
330
1F
100
AcDbEntity
  8
0
  6
ACAD_ISO02W100
 62
     5
 48
0.0483870967741936
100
AcDbLine
 10
777.7805322715869
 20
211.8675939102248
 30
0.0
 11
777.7805322715869
 21
213.3675939102247
 31
0.0
1001
PHOENIX7010
1002
{
1070
    41
1040
1.0
1002
}
  0
LINE
  5
7F62
102
{ACAD_REACTORS
330
394C
102
}
330
1F
100
AcDbEntity
  8
0
  6
ACAD_ISO02W100
 62
     5
100
AcDbLine
 10
777.7805322715869
 20
211.8675939102248
 30
0.0
 11
777.7805322715869
 21
211.8675939102248
 31
0.0
1001
PHOENIX7010
1002
{
1070
    41
1040
1.0
1002
}
  0
LINE
  5
7F63
102
{ACAD_REACTORS
330
394C
102
}
330
1F
100
AcDbEntity
  8
0
  6
ACAD_ISO04W100
 62
     1
 48
0.1612903225806525
100
AcDbLine
 10
630.7805322715871
 20
218.3675939102247
 30
0.0
 11
620.7805322715866
 21
218.3675939102247
 31
0.0
1001
PHOENIX7010
1002
{
1070
    41
1040
1.0
1002
}
  0
LINE
  5
7F64
102
{ACAD_REACTORS
330
394C
102
}
330
1F
100
AcDbEntity
  8
0
  6
ACAD_ISO04W100
 62
     1
 48
0.1612903225806451
100
AcDbLine
 10
625.7805322715869
 20
223.3675939102247
 30
0.0
 11
625.7805322715869
 21
213.3675939102247
 31
0.0
1001
PHOENIX7010
1002
{
1070
    41
1040
1.0
1002
}
  0
LINE
  5
7F67
102
{ACAD_REACTORS
330
394C
102
}
330
1F
100
AcDbEntity
  8
0
  6
ACAD_ISO02W100
 62
     5
100
AcDbLine
 10
773.2805322715869
 20
207.3675939102247
 30
0.0
 11
622.2805322715869
 21
207.3675939102247
 31
0.0
1001
PHOENIX7010
1002
{
1070
    41
1040
1.0
1002
}
  0
LINE
  5
7F6A
102
{ACAD_REACTORS
330
394C
102
}
330
1F
100
AcDbEntity
  8
0
  6
ACAD_ISO04W100
 62
     1
 48
0.1612903225806525
100
AcDbLine
 10
702.7805322715871
 20
218.3675939102247
 30
0.0
 11
692.7805322715867
 21
218.3675939102247
 31
0.0
1001
PHOENIX7010
1002
{
1070
    41
1040
1.0
1002
}
  0
LINE
  5
7F6F
102
{ACAD_REACTORS
330
394C
102
}
330
1F
100
AcDbEntity
  8
0
  6
ACAD_ISO04W100
 62
     1
 48
0.1612903225806488
100
AcDbLine
 10
769.7805322715869
 20
223.3675939102249
 30
0.0
 11
769.7805322715869
 21
213.3675939102246
 31
0.0
1001
PHOENIX7010
1002
{
1070
    41
1040
1.0
1002
}
  0
LINE
  5
7F70
102
{ACAD_REACTORS
330
394C
102
}
330
1F
100
AcDbEntity
  8
0
  6
ACAD_ISO04W100
 62
     1
 48
0.1612903225806451
100
AcDbLine
 10
764.7805322715869
 20
218.3675939102247
 30
0.0
 11
774.7805322715869
 21
218.3675939102247
 31
0.0
1001
PHOENIX7010
1002
{
1070
    41
1040
1.0
1002
}
  0
ARC
  5
7F71
102
{ACAD_REACTORS
330
394C
102
}
330
1F
100
AcDbEntity
  8
0
  6
ACAD_ISO02W100
 62
     5
 48
0.2280188342992308
100
AcDbCircle
 10
773.2805322715869
 20
211.8675939102248
 30
0.0
 40
4.5
100
AcDbArc
 50
269.9999949999995
 51
0.0
1001
PHOENIX7010
1002
{
1070
    41
1040
1.0
1002
}
  0
ARC
  5
7F72
102
{ACAD_REACTORS
330
394C
102
}
330
1F
100
AcDbEntity
  8
0
  6
ACAD_ISO02W100
 62
     5
 48
0.5067084812542783
100
AcDbCircle
 10
787.7805322715869
 20
213.3675939102247
 30
0.0
 40
10.0
100
AcDbArc
 50
90.00000200000281
 51
180.0
1001
PHOENIX7010
1002
{
1070
    41
1040
1.0
1002
}
  0
ARC
  5
7F75
102
{ACAD_REACTORS
330
394C
102
}
330
1F
100
AcDbEntity
  8
0
  6
Continuous
 62
     7
100
AcDbCircle
 10
803.7805322715868
 20
212.3675939102247
 30
0.0
 40
10.0
100
AcDbArc
 50
269.9999979999972
 51
0.0
1001
PHOENIX7010
1002
{
1070
    41
1040
1.0
1002
}
  0
ARC
  5
7F76
102
{ACAD_REACTORS
330
394C
102
}
330
1F
100
AcDbEntity
  8
0
  6
ACAD_ISO02W100
 62
     5
 48
0.2280188342992308
100
AcDbCircle
 10
804.2805322715869
 20
227.8675939102247
 30
0.0
 40
4.5
100
AcDbArc
 50
269.9999949999995
 51
0.0
1001
PHOENIX7010
1002
{
1070
    41
1040
1.0
1002
}
  0
LINE
  5
7F79
102
{ACAD_REACTORS
330
394C
102
}
330
1F
100
AcDbEntity
  8
0
  6
ACAD_ISO04W100
 62
     1
100
AcDbLine
 10
697.7805322715869
 20
406.3675939102247
 30
0.0
 11
697.7805322715869
 21
200.3675939102247
 31
0.0
1001
PHOENIX7010
1002
{
1070
    41
1040
1.0
1002
}
  0
LINE
  5
7F7A
102
{ACAD_REACTORS
330
394C
102
}
330
1F
100
AcDbEntity
  8
0
  6
ACAD_ISO04W100
 62
     1
100
AcDbLine
 10
815.7805322715869
 20
303.3675939102248
 30
0.0
 11
579.7805322715869
 21
303.3675939102248
 31
0.0
1001
PHOENIX7010
1002
{
1070
    41
1040
1.0
1002
}
  0
LINE
  5
808E
102
{ACAD_REACTORS
330
394C
102
}
330
1F
100
AcDbEntity
  8
0
  6
Continuous
 62
     7
100
AcDbLine
 10
411.7805322715867
 20
532.8675939102245
 30
0.0
 11
409.2375632715869
 21
446.3088619102244
 31
0.0
1001
PHOENIX7010
1002
{
1070
    41
1040
1.0
1002
}
  0
LINE
  5
808F
102
{ACAD_REACTORS
330
394C
102
}
330
1F
100
AcDbEntity
  8
0
  6
Continuous
 62
     7
100
AcDbLine
 10
411.7805322715867
 20
532.8675939102245
 30
0.0
 11
179.7805322715869
 21
532.8675939102245
 31
0.0
1001
PHOENIX7010
1002
{
1070
    41
1040
1.0
1002
}
  0
LINE
  5
8090
102
{ACAD_REACTORS
330
394C
102
}
330
1F
100
AcDbEntity
  8
0
  6
Continuous
 62
     7
100
AcDbLine
 10
410.7805322715867
 20
532.8675939102245
 30
0.0
 11
410.7805322715867
 21
534.3675939102245
 31
0.0
1001
PHOENIX7010
1002
{
1070
    41
1040
1.0
1002
}
  0
ARC
  5
8091
102
{ACAD_REACTORS
330
394C
102
}
330
1F
100
AcDbEntity
  8
0
  6
Continuous
 62
     7
100
AcDbCircle
 10
407.2384262715869
 20
446.3675939102245
 30
0.0
 40
2.0
100
AcDbArc
 50
270.0000059999954
 51
358.3172100000029
1001
PHOENIX7010
1002
{
1070
    41
1040
1.0
1002
}
  0
ARC
  5
8092
102
{ACAD_REACTORS
330
394C
102
}
330
1F
100
AcDbEntity
  8
0
  6
ACAD_ISO02W100
 62
     5
 48
0.1002420470383585
100
AcDbCircle
 10
403.3143322715869
 20
450.3675939102245
 30
0.0
 40
1.999999
100
AcDbArc
 50
269.9999989999921
 51
359.0234599999947
1001
PHOENIX7010
1002
{
1070
    41
1040
1.0
1002
}
  0
LINE
  5
8093
102
{ACAD_REACTORS
330
394C
102
}
330
1F
100
AcDbEntity
  8
0
  6
ACAD_ISO02W100
 62
     5
100
AcDbLine
 10
405.3140412715868
 20
450.3335079102245
 30
0.0
 11
406.7464413416267
 21
534.3675939102246
 31
0.0
1001
PHOENIX7010
1002
{
1070
    41
1040
1.0
1002
}
  0
LINE
  5
8094
102
{ACAD_REACTORS
330
394C
102
}
330
1F
100
AcDbEntity
  8
0
  6
ACAD_ISO02W100
 62
     5
100
AcDbLine
 10
205.780532271587
 20
457.3675939102245
 30
0.0
 11
385.7805322715868
 21
457.3675939102245
 31
0.0
1001
PHOENIX7010
1002
{
1070
    41
1040
1.0
1002
}
  0
LINE
  5
8095
102
{ACAD_REACTORS
330
394C
102
}
330
1F
100
AcDbEntity
  8
0
  6
ACAD_ISO02W100
 62
     5
100
AcDbLine
 10
188.2467322715868
 20
448.3675939102245
 30
0.0
 11
403.3143322715869
 21
448.3675939102245
 31
0.0
1001
PHOENIX7010
1002
{
1070
    41
1040
1.0
1002
}
  0
LINE
  5
8096
102
{ACAD_REACTORS
330
394C
102
}
330
1F
100
AcDbEntity
  8
0
  6
Continuous
 62
     7
100
AcDbLine
 10
407.2384262715869
 20
444.3675939102245
 30
0.0
 11
184.3226382715869
 21
444.3675939102245
 31
0.0
1001
PHOENIX7010
1002
{
1070
    41
1040
1.0
1002
}
  0
LINE
  5
8097
102
{ACAD_REACTORS
330
394C
102
}
330
1F
100
AcDbEntity
  8
0
  6
ACAD_ISO02W100
 62
     5
100
AcDbLine
 10
375.7425575880426
 20
534.3675939102246
 30
0.0
 11
374.2805322715867
 21
457.3675939102245
 31
0.0
1001
PHOENIX7010
1002
{
1070
    41
1040
1.0
1002
}
  0
LINE
  5
8098
102
{ACAD_REACTORS
330
394C
102
}
330
1F
100
AcDbEntity
  8
0
  6
ACAD_ISO02W100
 62
     5
100
AcDbLine
 10
215.8185069551312
 20
534.3675939102246
 30
0.0
 11
217.2805322715869
 21
457.3675939102245
 31
0.0
1001
PHOENIX7010
1002
{
1070
    41
1040
1.0
1002
}
  0
ARC
  5
8099
102
{ACAD_REACTORS
330
394C
102
}
330
1F
100
AcDbEntity
  8
0
  6
Continuous
 62
     7
100
AcDbCircle
 10
184.3226372715868
 20
446.3675939102245
 30
0.0
 40
2.0
100
AcDbArc
 50
181.682789999997
 51
270.0000150000015
1001
PHOENIX7010
1002
{
1070
    41
1040
1.0
1002
}
  0
LINE
  5
809A
102
{ACAD_REACTORS
330
394C
102
}
330
1F
100
AcDbEntity
  8
0
  6
Continuous
 62
     7
100
AcDbLine
 10
182.3235002715868
 20
446.3088619102244
 30
0.0
 11
179.7805322715869
 21
532.8675939102245
 31
0.0
1001
PHOENIX7010
1002
{
1070
    41
1040
1.0
1002
}
  0
LINE
  5
809B
102
{ACAD_REACTORS
330
394C
102
}
330
1F
100
AcDbEntity
  8
0
  6
Continuous
 62
     7
100
AcDbLine
 10
180.7805322715869
 20
532.8675939102245
 30
0.0
 11
180.7805322715869
 21
534.3675939102245
 31
0.0
1001
PHOENIX7010
1002
{
1070
    41
1040
1.0
1002
}
  0
LINE
  5
809C
102
{ACAD_REACTORS
330
394C
102
}
330
1F
100
AcDbEntity
  8
0
  6
ACAD_ISO04W100
 62
     1
100
AcDbLine
 10
295.7805322715869
 20
442.3675939102245
 30
0.0
 11
295.7805322715869
 21
556.3675939102246
 31
0.0
1001
PHOENIX7010
1002
{
1070
    41
1040
1.0
1002
}
  0
LINE
  5
80A3
102
{ACAD_REACTORS
330
394C
102
}
330
1F
100
AcDbEntity
  8
0
  6
ACAD_ISO02W100
 62
     5
100
AcDbLine
 10
186.2470232715869
 20
450.3335079102245
 30
0.0
 11
184.8146232015469
 21
534.3675939102246
 31
0.0
1001
PHOENIX7010
1002
{
1070
    41
1040
1.0
1002
}
  0
ARC
  5
80A4
102
{ACAD_REACTORS
330
394C
102
}
330
1F
100
AcDbEntity
  8
0
  6
ACAD_ISO02W100
 62
     5
 48
0.1002420470383578
100
AcDbCircle
 10
188.2467322715868
 20
450.3675939102245
 30
0.0
 40
1.999999
100
AcDbArc
 50
180.9765400000055
 51
270.0000010000075
1001
PHOENIX7010
1002
{
1070
    41
1040
1.0
1002
}
  0
LINE
  5
80A5
102
{ACAD_REACTORS
330
394C
102
}
330
1F
100
AcDbEntity
  8
0
  6
Continuous
 62
     7
100
AcDbLine
 10
411.7805322715867
 20
534.3675939102246
 30
0.0
 11
411.4657322715869
 21
552.4024989102246
 31
0.0
1001
PHOENIX7010
1002
{
1070
    41
1040
1.0
1002
}
  0
ARC
  5
80A6
102
{ACAD_REACTORS
330
394C
102
}
330
1F
100
AcDbEntity
  8
0
  6
Continuous
 62
     7
100
AcDbCircle
 10
409.4660362715868
 20
552.3675939102246
 30
0.0
 40
2.0
100
AcDbArc
 50
1.000005000008209
 51
90.00000599999541
1001
PHOENIX7010
1002
{
1070
    41
1040
1.0
1002
}
  0
LINE
  5
80A7
102
{ACAD_REACTORS
330
394C
102
}
330
1F
100
AcDbEntity
  8
0
  6
Continuous
 62
     7
100
AcDbLine
 10
409.4660362715868
 20
554.3675939102246
 30
0.0
 11
182.0950282715867
 21
554.3675939102246
 31
0.0
1001
PHOENIX7010
1002
{
1070
    41
1040
1.0
1002
}
  0
LINE
  5
80A8
102
{ACAD_REACTORS
330
394C
102
}
330
1F
100
AcDbEntity
  8
0
  6
ACAD_ISO02W100
 62
     5
 48
0.4528078356941257
100
AcDbLine
 10
404.2305322715868
 20
534.3675939102246
 30
0.0
 11
403.9855522715869
 21
548.4024989102246
 31
0.0
1001
PHOENIX7010
1002
{
1070
    41
1040
1.0
1002
}
  0
ARC
  5
80A9
102
{ACAD_REACTORS
330
394C
102
}
330
1F
100
AcDbEntity
  8
0
  6
ACAD_ISO02W100
 62
     5
 48
0.1002156604883076
100
AcDbCircle
 10
401.9858572715868
 20
548.3675939102246
 30
0.0
 40
2.0
100
AcDbArc
 50
1.000005000008311
 51
89.9999879999962
1001
PHOENIX7010
1002
{
1070
    41
1040
1.0
1002
}
  0
LINE
  5
80AA
102
{ACAD_REACTORS
330
394C
102
}
330
1F
100
AcDbEntity
  8
0
  6
ACAD_ISO02W100
 62
     5
100
AcDbLine
 10
401.9858572715868
 20
550.3675939102246
 30
0.0
 11
189.5752072715868
 21
550.3675939102246
 31
0.0
1001
PHOENIX7010
1002
{
1070
    41
1040
1.0
1002
}
  0
LINE
  5
80AB
102
{ACAD_REACTORS
330
394C
102
}
330
1F
100
AcDbEntity
  8
0
  6
Continuous
 62
     7
100
AcDbLine
 10
179.7805322715867
 20
534.3675939102246
 30
0.0
 11
411.7805322715867
 21
534.3675939102246
 31
0.0
1001
PHOENIX7010
1002
{
1070
    41
1040
1.0
1002
}
  0
LINE
  5
80AF
102
{ACAD_REACTORS
330
394C
102
}
330
1F
100
AcDbEntity
  8
0
  6
ACAD_ISO02W100
 62
     5
 48
0.4528078356941257
100
AcDbLine
 10
217.9805322715868
 20
534.3675939102246
 30
0.0
 11
218.2255122715868
 21
548.4024989102246
 31
0.0
1001
PHOENIX7010
1002
{
1070
    41
1040
1.0
1002
}
  0
ARC
  5
80B0
102
{ACAD_REACTORS
330
394C
102
}
330
1F
100
AcDbEntity
  8
0
  6
ACAD_ISO02W100
 62
     5
 48
0.1002156604883223
100
AcDbCircle
 10
220.2252072715867
 20
548.3675939102246
 30
0.0
 40
2.0
100
AcDbArc
 50
90.00001199999079
 51
178.9999949999917
1001
PHOENIX7010
1002
{
1070
    41
1040
1.0
1002
}
  0
ARC
  5
80B1
102
{ACAD_REACTORS
330
394C
102
}
330
1F
100
AcDbEntity
  8
0
  6
Continuous
 62
     7
100
AcDbCircle
 10
182.0950282715867
 20
552.3675939102246
 30
0.0
 40
2.0
100
AcDbArc
 50
89.99999399999158
 51
178.9999949999918
1001
PHOENIX7010
1002
{
1070
    41
1040
1.0
1002
}
  0
LINE
  5
80B2
102
{ACAD_REACTORS
330
394C
102
}
330
1F
100
AcDbEntity
  8
0
  6
Continuous
 62
     7
100
AcDbLine
 10
180.0953322715868
 20
552.4024989102246
 30
0.0
 11
179.7805322715867
 21
534.3675939102247
 31
0.0
1001
PHOENIX7010
1002
{
1070
    41
1040
1.0
1002
}
  0
LINE
  5
80B7
102
{ACAD_REACTORS
330
394C
102
}
330
1F
100
AcDbEntity
  8
0
  6
ACAD_ISO02W100
 62
     5
 48
0.4528078356941258
100
AcDbLine
 10
187.3305322715869
 20
534.3675939102246
 30
0.0
 11
187.5755122715869
 21
548.4024989102246
 31
0.0
1001
PHOENIX7010
1002
{
1070
    41
1040
1.0
1002
}
  0
ARC
  5
80B8
102
{ACAD_REACTORS
330
394C
102
}
330
1F
100
AcDbEntity
  8
0
  6
ACAD_ISO02W100
 62
     5
 48
0.1002156604883076
100
AcDbCircle
 10
189.5752072715868
 20
548.3675939102246
 30
0.0
 40
2.0
100
AcDbArc
 50
90.00001200000381
 51
178.9999949999917
1001
PHOENIX7010
1002
{
1070
    41
1040
1.0
1002
}
  0
LINE
  5
80BB
102
{ACAD_REACTORS
330
394C
330
B040
102
}
330
1F
100
AcDbEntity
  8
0
  6
Continuous
 62
     7
100
AcDbLine
 10
179.7805322715866
 20
72.36759391022474
 30
0.0
 11
411.7805322715866
 21
72.36759391022463
 31
0.0
1001
PHOENIX7010
1002
{
1070
    41
1040
1.0
1002
}
  0
LINE
  5
80BC
102
{ACAD_REACTORS
330
394C
102
}
330
1F
100
AcDbEntity
  8
0
  6
ACAD_ISO02W100
 62
     5
100
AcDbLine
 10
188.2467322715868
 20
158.3675939102248
 30
0.0
 11
403.3143322715869
 21
158.3675939102247
 31
0.0
1001
PHOENIX7010
1002
{
1070
    41
1040
1.0
1002
}
  0
LINE
  5
80BD
102
{ACAD_REACTORS
330
394C
102
}
330
1F
100
AcDbEntity
  8
0
  6
ACAD_ISO02W100
 62
     5
100
AcDbLine
 10
401.9858572715867
 20
56.36759391022462
 30
0.0
 11
189.5752072715868
 21
56.36759391022474
 31
0.0
1001
PHOENIX7010
1002
{
1070
    41
1040
1.0
1002
}
  0
LINE
  5
80BE
102
{ACAD_REACTORS
330
394C
102
}
330
1F
100
AcDbEntity
  8
0
  6
Continuous
 62
     7
100
AcDbLine
 10
409.4660362715867
 20
52.36759391022463
 30
0.0
 11
182.0950282715866
 21
52.36759391022474
 31
0.0
1001
PHOENIX7010
1002
{
1070
    41
1040
1.0
1002
}
  0
LINE
  5
80BF
102
{ACAD_REACTORS
330
394C
102
}
330
1F
100
AcDbEntity
  8
0
  6
Continuous
 62
     7
100
AcDbLine
 10
411.7805322715866
 20
73.86759391022474
 30
0.0
 11
179.7805322715868
 21
73.86759391022486
 31
0.0
1001
PHOENIX7010
1002
{
1070
    41
1040
1.0
1002
}
  0
LINE
  5
80C0
102
{ACAD_REACTORS
330
394C
330
B494
102
}
330
1F
100
AcDbEntity
  8
0
  6
Continuous
 62
     7
100
AcDbLine
 10
407.2384262715868
 20
162.3675939102247
 30
0.0
 11
184.3226382715868
 21
162.3675939102248
 31
0.0
1001
PHOENIX7010
1002
{
1070
    41
1040
1.0
1002
}
  0
LINE
  5
80C1
102
{ACAD_REACTORS
330
394C
102
}
330
1F
100
AcDbEntity
  8
0
  6
ACAD_ISO04W100
 62
     1
100
AcDbLine
 10
295.7805322715868
 20
164.3675939102248
 30
0.0
 11
295.7805322715868
 21
50.36759391022474
 31
0.0
1001
PHOENIX7010
1002
{
1070
    41
1040
1.0
1002
}
  0
LINE
  5
80C2
102
{ACAD_REACTORS
330
394C
102
}
330
1F
100
AcDbEntity
  8
0
  6
ACAD_ISO02W100
 62
     5
100
AcDbLine
 10
375.7425575880424
 20
72.36759391022463
 30
0.0
 11
374.2805322715867
 21
149.3675939102248
 31
0.0
1001
PHOENIX7010
1002
{
1070
    41
1040
1.0
1002
}
  0
LINE
  5
80C3
102
{ACAD_REACTORS
330
394C
102
}
330
1F
100
AcDbEntity
  8
0
  6
ACAD_ISO02W100
 62
     5
100
AcDbLine
 10
215.8185069551311
 20
72.36759391022474
 30
0.0
 11
217.2805322715868
 21
149.3675939102248
 31
0.0
1001
PHOENIX7010
1002
{
1070
    41
1040
1.0
1002
}
  0
LINE
  5
80C4
102
{ACAD_REACTORS
330
394C
102
}
330
1F
100
AcDbEntity
  8
0
  6
ACAD_ISO02W100
 62
     5
100
AcDbLine
 10
186.2470232715868
 20
156.4016799102248
 30
0.0
 11
184.8146232015469
 21
72.36759391022474
 31
0.0
1001
PHOENIX7010
1002
{
1070
    41
1040
1.0
1002
}
  0
LINE
  5
80C5
102
{ACAD_REACTORS
330
394C
102
}
330
1F
100
AcDbEntity
  8
0
  6
Continuous
 62
     7
100
AcDbLine
 10
182.3235002715868
 20
160.4263259102249
 30
0.0
 11
179.7805322715868
 21
73.86759391022486
 31
0.0
1001
PHOENIX7010
1002
{
1070
    41
1040
1.0
1002
}
  0
LINE
  5
80C6
102
{ACAD_REACTORS
330
394C
102
}
330
1F
100
AcDbEntity
  8
0
  6
ACAD_ISO02W100
 62
     5
100
AcDbLine
 10
205.7805322715869
 20
149.3675939102248
 30
0.0
 11
385.7805322715867
 21
149.3675939102248
 31
0.0
1001
PHOENIX7010
1002
{
1070
    41
1040
1.0
1002
}
  0
ARC
  5
80C7
102
{ACAD_REACTORS
330
394C
102
}
330
1F
100
AcDbEntity
  8
0
  6
Continuous
 62
     7
100
AcDbCircle
 10
184.3226372715868
 20
160.3675939102248
 30
0.0
 40
2.0
100
AcDbArc
 50
89.99998499999849
 51
178.317210000003
1001
PHOENIX7010
1002
{
1070
    41
1040
1.0
1002
}
  0
ARC
  5
80C8
102
{ACAD_REACTORS
330
394C
102
}
330
1F
100
AcDbEntity
  8
0
  6
ACAD_ISO02W100
 62
     5
 48
0.1002420470383578
100
AcDbCircle
 10
188.2467322715868
 20
156.3675939102248
 30
0.0
 40
1.999999
100
AcDbArc
 50
89.99999899999229
 51
179.0234599999944
1001
PHOENIX7010
1002
{
1070
    41
1040
1.0
1002
}
  0
LINE
  5
80C9
102
{ACAD_REACTORS
330
394C
102
}
330
1F
100
AcDbEntity
  8
0
  6
Continuous
 62
     7
100
AcDbLine
 10
180.0953322715868
 20
54.33268891022476
 30
0.0
 11
179.7805322715866
 21
72.36759391022463
 31
0.0
1001
PHOENIX7010
1002
{
1070
    41
1040
1.0
1002
}
  0
LINE
  5
80CA
102
{ACAD_REACTORS
330
394C
102
}
330
1F
100
AcDbEntity
  8
0
  6
Continuous
 62
     7
100
AcDbLine
 10
180.7805322715868
 20
73.86759391022486
 30
0.0
 11
180.7805322715868
 21
72.36759391022485
 31
0.0
1001
PHOENIX7010
1002
{
1070
    41
1040
1.0
1002
}
  0
LINE
  5
80CB
102
{ACAD_REACTORS
330
394C
102
}
330
1F
100
AcDbEntity
  8
0
  6
ACAD_ISO02W100
 62
     5
 48
0.4528078356941258
100
AcDbLine
 10
187.3305322715868
 20
72.36759391022474
 30
0.0
 11
187.5755122715868
 21
58.33268891022476
 31
0.0
1001
PHOENIX7010
1002
{
1070
    41
1040
1.0
1002
}
  0
ARC
  5
80CC
102
{ACAD_REACTORS
330
394C
102
}
330
1F
100
AcDbEntity
  8
0
  6
ACAD_ISO02W100
 62
     5
 48
0.1002156604883076
100
AcDbCircle
 10
189.5752072715868
 20
58.36759391022474
 30
0.0
 40
2.0
100
AcDbArc
 50
181.0000050000082
 51
269.9999879999962
1001
PHOENIX7010
1002
{
1070
    41
1040
1.0
1002
}
  0
ARC
  5
80CD
102
{ACAD_REACTORS
330
394C
102
}
330
1F
100
AcDbEntity
  8
0
  6
Continuous
 62
     7
100
AcDbCircle
 10
182.0950282715866
 20
54.36759391022474
 30
0.0
 40
2.0
100
AcDbArc
 50
181.0000050000082
 51
270.0000060000084
1001
PHOENIX7010
1002
{
1070
    41
1040
1.0
1002
}
  0
ARC
  5
80CE
102
{ACAD_REACTORS
330
394C
102
}
330
1F
100
AcDbEntity
  8
0
  6
ACAD_ISO02W100
 62
     5
 48
0.1002156604883223
100
AcDbCircle
 10
220.2252072715866
 20
58.36759391022474
 30
0.0
 40
2.0
100
AcDbArc
 50
181.0000050000082
 51
269.9999880000092
1001
PHOENIX7010
1002
{
1070
    41
1040
1.0
1002
}
  0
LINE
  5
80CF
102
{ACAD_REACTORS
330
394C
102
}
330
1F
100
AcDbEntity
  8
0
  6
ACAD_ISO02W100
 62
     5
 48
0.4528078356941257
100
AcDbLine
 10
217.9805322715867
 20
72.36759391022474
 30
0.0
 11
218.2255122715867
 21
58.33268891022476
 31
0.0
1001
PHOENIX7010
1002
{
1070
    41
1040
1.0
1002
}
  0
LINE
  5
80D0
102
{ACAD_REACTORS
330
394C
102
}
330
1F
100
AcDbEntity
  8
0
  6
ACAD_ISO02W100
 62
     5
 48
0.8483870967741921
100
AcDbLine
 10
359.7805322715867
 20
67.36759391022463
 30
0.0
 11
386.0805322715866
 21
67.36759391022463
 31
0.0
1001
PHOENIX7010
1002
{
1070
    41
1040
1.0
1002
}
  0
LINE
  5
80D1
102
{ACAD_REACTORS
330
394C
102
}
330
1F
100
AcDbEntity
  8
0
  6
ACAD_ISO02W100
 62
     5
 48
0.3548387096774194
100
AcDbLine
 10
359.7805322715867
 20
56.36759391022462
 30
0.0
 11
359.7805322715867
 21
67.36759391022463
 31
0.0
1001
PHOENIX7010
1002
{
1070
    41
1040
1.0
1002
}
  0
LINE
  5
80D2
102
{ACAD_REACTORS
330
394C
102
}
330
1F
100
AcDbEntity
  8
0
  6
ACAD_ISO02W100
 62
     5
 48
0.1612903225806451
100
AcDbLine
 10
373.5805322715866
 20
67.36759391022463
 30
0.0
 11
373.5805322715866
 21
72.36759391022463
 31
0.0
1001
PHOENIX7010
1002
{
1070
    41
1040
1.0
1002
}
  0
LINE
  5
80D3
102
{ACAD_REACTORS
330
394C
102
}
330
1F
100
AcDbEntity
  8
0
  6
ACAD_ISO02W100
 62
     5
100
AcDbLine
 10
405.3140412715867
 20
156.4016799102247
 30
0.0
 11
406.7464413416265
 21
72.36759391022463
 31
0.0
1001
PHOENIX7010
1002
{
1070
    41
1040
1.0
1002
}
  0
LINE
  5
80D4
102
{ACAD_REACTORS
330
394C
102
}
330
1F
100
AcDbEntity
  8
0
  6
Continuous
 62
     7
100
AcDbLine
 10
411.7805322715866
 20
73.86759391022474
 30
0.0
 11
409.2375632715868
 21
160.4263259102248
 31
0.0
1001
PHOENIX7010
1002
{
1070
    41
1040
1.0
1002
}
  0
ARC
  5
80D5
102
{ACAD_REACTORS
330
394C
102
}
330
1F
100
AcDbEntity
  8
0
  6
Continuous
 62
     7
100
AcDbCircle
 10
407.2384262715868
 20
160.3675939102247
 30
0.0
 40
2.0
100
AcDbArc
 50
1.682789999997018
 51
89.9999940000046
1001
PHOENIX7010
1002
{
1070
    41
1040
1.0
1002
}
  0
ARC
  5
80D6
102
{ACAD_REACTORS
330
394C
102
}
330
1F
100
AcDbEntity
  8
0
  6
ACAD_ISO02W100
 62
     5
 48
0.1002420470383585
100
AcDbCircle
 10
403.3143322715869
 20
156.3675939102247
 30
0.0
 40
1.999999
100
AcDbArc
 50
0.9765400000055745
 51
90.00000100000791
1001
PHOENIX7010
1002
{
1070
    41
1040
1.0
1002
}
  0
LINE
  5
80D7
102
{ACAD_REACTORS
330
394C
102
}
330
1F
100
AcDbEntity
  8
0
  6
Continuous
 62
     7
100
AcDbLine
 10
411.7805322715866
 20
72.36759391022463
 30
0.0
 11
411.4657322715867
 21
54.33268891022464
 31
0.0
1001
PHOENIX7010
1002
{
1070
    41
1040
1.0
1002
}
  0
LINE
  5
80D8
102
{ACAD_REACTORS
330
394C
102
}
330
1F
100
AcDbEntity
  8
0
  6
ACAD_ISO02W100
 62
     5
 48
0.4528078356941257
100
AcDbLine
 10
404.2305322715867
 20
72.36759391022463
 30
0.0
 11
403.9855522715867
 21
58.33268891022465
 31
0.0
1001
PHOENIX7010
1002
{
1070
    41
1040
1.0
1002
}
  0
LINE
  5
80D9
102
{ACAD_REACTORS
330
394C
102
}
330
1F
100
AcDbEntity
  8
0
  6
Continuous
 62
     7
100
AcDbLine
 10
410.7805322715866
 20
73.86759391022474
 30
0.0
 11
410.7805322715866
 21
72.36759391022474
 31
0.0
1001
PHOENIX7010
1002
{
1070
    41
1040
1.0
1002
}
  0
ARC
  5
80DA
102
{ACAD_REACTORS
330
394C
102
}
330
1F
100
AcDbEntity
  8
0
  6
ACAD_ISO02W100
 62
     5
 48
0.1002156604883076
100
AcDbCircle
 10
401.9858572715867
 20
58.36759391022463
 30
0.0
 40
2.0
100
AcDbArc
 50
270.0000120000038
 51
358.9999949999918
1001
PHOENIX7010
1002
{
1070
    41
1040
1.0
1002
}
  0
ARC
  5
80DB
102
{ACAD_REACTORS
330
394C
330
B495
102
}
330
1F
100
AcDbEntity
  8
0
  6
Continuous
 62
     7
100
AcDbCircle
 10
409.4660362715867
 20
54.36759391022462
 30
0.0
 40
2.0
100
AcDbArc
 50
269.9999940000046
 51
358.9999949999918
1001
PHOENIX7010
1002
{
1070
    41
1040
1.0
1002
}
  0
ARC
  5
80DD
102
{ACAD_REACTORS
330
394C
102
}
330
1F
100
AcDbEntity
  8
0
  6
ACAD_ISO02W100
 62
     5
 48
0.1002156604883223
100
AcDbCircle
 10
371.335857271587
 20
548.3675939102246
 30
0.0
 40
2.0
100
AcDbArc
 50
1.000005000008412
 51
89.99998800000922
1001
PHOENIX7010
1002
{
1070
    41
1040
1.0
1002
}
  0
LINE
  5
80DE
102
{ACAD_REACTORS
330
394C
102
}
330
1F
100
AcDbEntity
  8
0
  6
ACAD_ISO02W100
 62
     5
 48
0.4528078356941257
100
AcDbLine
 10
373.580532271587
 20
534.3675939102246
 30
0.0
 11
373.335552271587
 21
548.4024989102246
 31
0.0
1001
PHOENIX7010
1002
{
1070
    41
1040
1.0
1002
}
  0
LINE
  5
80E0
102
{ACAD_REACTORS
330
394C
102
}
330
1F
100
AcDbEntity
  8
0
  6
ACAD_ISO02W100
 62
     5
100
AcDbLine
 10
447.7464462715866
 20
208.8340849102247
 30
0.0
 11
531.7805322715867
 21
207.4016848401847
 31
0.0
1001
PHOENIX7010
1002
{
1070
    41
1040
1.0
1002
}
  0
LINE
  5
80E1
102
{ACAD_REACTORS
330
394C
102
}
330
1F
100
AcDbEntity
  8
0
  6
Continuous
 62
     7
100
AcDbLine
 10
443.7218002715866
 20
204.9105619102246
 30
0.0
 11
530.2805322715867
 21
202.3675939102246
 31
0.0
1001
PHOENIX7010
1002
{
1070
    41
1040
1.0
1002
}
  0
LINE
  5
80E2
102
{ACAD_REACTORS
330
394C
102
}
330
1F
100
AcDbEntity
  8
0
  6
ACAD_ISO02W100
 62
     5
 48
0.4528078356941258
100
AcDbLine
 10
531.7805322715867
 20
209.9175939102247
 30
0.0
 11
545.8154372715866
 21
210.1625739102246
 31
0.0
1001
PHOENIX7010
1002
{
1070
    41
1040
1.0
1002
}
  0
LINE
  5
80E3
102
{ACAD_REACTORS
330
394C
102
}
330
1F
100
AcDbEntity
  8
0
  6
Continuous
 62
     7
100
AcDbLine
 10
549.8154372715866
 20
202.6823939102246
 30
0.0
 11
531.7805322715869
 21
202.3675939102245
 31
0.0
1001
PHOENIX7010
1002
{
1070
    41
1040
1.0
1002
}
  0
ARC
  5
80E4
102
{ACAD_REACTORS
330
394C
102
}
330
1F
100
AcDbEntity
  8
0
  6
Continuous
 62
     7
100
AcDbCircle
 10
549.7805322715866
 20
204.6820899102244
 30
0.0
 40
2.0
100
AcDbArc
 50
271.0000050000082
 51
0.0000060000083949
1001
PHOENIX7010
1002
{
1070
    41
1040
1.0
1002
}
  0
ARC
  5
80E5
102
{ACAD_REACTORS
330
394C
102
}
330
1F
100
AcDbEntity
  8
0
  6
ACAD_ISO02W100
 62
     5
 48
0.1002156604883076
100
AcDbCircle
 10
545.7805322715866
 20
212.1622689102246
 30
0.0
 40
2.0
100
AcDbArc
 50
271.0000050000082
 51
359.9999879999962
1001
PHOENIX7010
1002
{
1070
    41
1040
1.0
1002
}
  0
LINE
  5
80E6
102
{ACAD_REACTORS
330
394C
102
}
330
1F
100
AcDbEntity
  8
0
  6
Continuous
 62
     7
100
AcDbLine
 10
530.2805322715867
 20
203.3675939102246
 30
0.0
 11
531.7805322715867
 21
203.3675939102246
 31
0.0
1001
PHOENIX7010
1002
{
1070
    41
1040
1.0
1002
}
  0
ARC
  5
80E7
102
{ACAD_REACTORS
330
394C
102
}
330
1F
100
AcDbEntity
  8
0
  6
ACAD_ISO02W100
 62
     5
 48
0.1002420470383578
100
AcDbCircle
 10
447.7805322715867
 20
210.8337939102246
 30
0.0
 40
1.999999
100
AcDbArc
 50
179.9999989999923
 51
269.0234599999943
1001
PHOENIX7010
1002
{
1070
    41
1040
1.0
1002
}
  0
ARC
  5
80E8
102
{ACAD_REACTORS
330
394C
102
}
330
1F
100
AcDbEntity
  8
0
  6
Continuous
 62
     7
100
AcDbCircle
 10
443.7805322715867
 20
206.9096989102246
 30
0.0
 40
2.0
100
AcDbArc
 50
179.9999849999984
 51
268.3172100000029
1001
PHOENIX7010
1002
{
1070
    41
1040
1.0
1002
}
  0
LINE
  5
80E9
102
{ACAD_REACTORS
330
394C
102
}
330
1F
100
AcDbEntity
  8
0
  6
Continuous
 62
     7
100
AcDbLine
 10
551.7805322715869
 20
402.0530977007849
 30
0.0
 11
551.7805322715867
 21
204.6820899102244
 31
0.0
1001
PHOENIX7010
1002
{
1070
    41
1040
1.0
1002
}
  0
LINE
  5
80EA
102
{ACAD_REACTORS
330
394C
102
}
330
1F
100
AcDbEntity
  8
0
  6
Continuous
 62
     7
100
AcDbLine
 10
531.7805322715867
 20
202.3675939102245
 30
0.0
 11
531.7805322715869
 21
404.3675939102246
 31
0.0
1001
PHOENIX7010
1002
{
1070
    41
1040
1.0
1002
}
  0
LINE
  5
80EB
102
{ACAD_REACTORS
330
394C
102
}
330
1F
100
AcDbEntity
  8
0
  6
Continuous
 62
     7
100
AcDbLine
 10
530.2805322715869
 20
404.3675939102246
 30
0.0
 11
530.2805322715867
 21
202.3675939102246
 31
0.0
1001
PHOENIX7010
1002
{
1070
    41
1040
1.0
1002
}
  0
LINE
  5
80EC
102
{ACAD_REACTORS
330
394C
102
}
330
1F
100
AcDbEntity
  8
0
  6
ACAD_ISO02W100
 62
     5
100
AcDbLine
 10
547.7805322715869
 20
394.5729189102246
 30
0.0
 11
547.7805322715867
 21
212.1622689102246
 31
0.0
1001
PHOENIX7010
1002
{
1070
    41
1040
1.0
1002
}
  0
LINE
  5
80ED
102
{ACAD_REACTORS
330
394C
102
}
330
1F
100
AcDbEntity
  8
0
  6
ACAD_ISO02W100
 62
     5
100
AcDbLine
 10
445.7805322715866
 20
210.8337939102246
 30
0.0
 11
445.7805322715868
 21
395.9013938753178
 31
0.0
1001
PHOENIX7010
1002
{
1070
    41
1040
1.0
1002
}
  0
LINE
  5
80EE
102
{ACAD_REACTORS
330
394C
102
}
330
1F
100
AcDbEntity
  8
0
  6
Continuous
 62
     7
100
AcDbLine
 10
441.7805322715868
 20
399.8254883866258
 30
0.0
 11
441.7805322715866
 21
206.9096999102246
 31
0.0
1001
PHOENIX7010
1002
{
1070
    41
1040
1.0
1002
}
  0
LINE
  5
80F2
102
{ACAD_REACTORS
330
394C
102
}
330
1F
100
AcDbEntity
  8
0
  6
Continuous
 62
     7
100
AcDbLine
 10
443.7218002715867
 20
401.8246259102246
 30
0.0
 11
530.2805322715867
 21
404.3675939102246
 31
0.0
1001
PHOENIX7010
1002
{
1070
    41
1040
1.0
1002
}
  0
LINE
  5
80F3
102
{ACAD_REACTORS
330
394C
102
}
330
1F
100
AcDbEntity
  8
0
  6
ACAD_ISO02W100
 62
     5
100
AcDbLine
 10
447.7464462715867
 20
397.9011029102246
 30
0.0
 11
531.7805322715867
 21
399.3335029802645
 31
0.0
1001
PHOENIX7010
1002
{
1070
    41
1040
1.0
1002
}
  0
ARC
  5
80F4
102
{ACAD_REACTORS
330
394C
102
}
330
1F
100
AcDbEntity
  8
0
  6
ACAD_ISO02W100
 62
     5
 48
0.1002420470383578
100
AcDbCircle
 10
447.7805322715867
 20
395.9013939102247
 30
0.0
 40
1.999999
100
AcDbArc
 50
90.97654000000558
 51
180.0000010000079
1001
PHOENIX7010
1002
{
1070
    41
1040
1.0
1002
}
  0
ARC
  5
80F5
102
{ACAD_REACTORS
330
394C
102
}
330
1F
100
AcDbEntity
  8
0
  6
Continuous
 62
     7
100
AcDbCircle
 10
443.7805322715867
 20
399.8254889102246
 30
0.0
 40
2.0
100
AcDbArc
 50
91.68278999999703
 51
180.0000150000015
1001
PHOENIX7010
1002
{
1070
    41
1040
1.0
1002
}
  0
ARC
  5
80F6
102
{ACAD_REACTORS
330
394C
102
}
330
1F
100
AcDbEntity
  8
0
  6
Continuous
 62
     7
100
AcDbCircle
 10
549.7805322715866
 20
402.0530979102248
 30
0.0
 40
2.0
100
AcDbArc
 50
359.9999939999916
 51
88.9999949999918
1001
PHOENIX7010
1002
{
1070
    41
1040
1.0
1002
}
  0
LINE
  5
80F7
102
{ACAD_REACTORS
330
394C
102
}
330
1F
100
AcDbEntity
  8
0
  6
Continuous
 62
     7
100
AcDbLine
 10
549.8154372715866
 20
404.0527939102246
 30
0.0
 11
531.7805322715869
 21
404.3675939102246
 31
0.0
1001
PHOENIX7010
1002
{
1070
    41
1040
1.0
1002
}
  0
LINE
  5
80F8
102
{ACAD_REACTORS
330
394C
102
}
330
1F
100
AcDbEntity
  8
0
  6
Continuous
 62
     7
100
AcDbLine
 10
530.2805322715867
 20
403.3675939102245
 30
0.0
 11
531.7805322715867
 21
403.3675939102245
 31
0.0
1001
PHOENIX7010
1002
{
1070
    41
1040
1.0
1002
}
  0
LINE
  5
80F9
102
{ACAD_REACTORS
330
394C
102
}
330
1F
100
AcDbEntity
  8
0
  6
ACAD_ISO02W100
 62
     5
 48
0.4528078356941258
100
AcDbLine
 10
531.7805322715867
 20
396.8175939102245
 30
0.0
 11
545.8154372715866
 21
396.5726139102246
 31
0.0
1001
PHOENIX7010
1002
{
1070
    41
1040
1.0
1002
}
  0
ARC
  5
80FA
102
{ACAD_REACTORS
330
394C
102
}
330
1F
100
AcDbEntity
  8
0
  6
ACAD_ISO02W100
 62
     5
 48
0.1002156604883076
100
AcDbCircle
 10
545.7805322715866
 20
394.5729189102246
 30
0.0
 40
2.0
100
AcDbArc
 50
0.0000120000038132
 51
88.9999949999918
1001
PHOENIX7010
1002
{
1070
    41
1040
1.0
1002
}
  0
LINE
  5
80FB
330
1F
100
AcDbEntity
  8
0
  6
ACAD_ISO04W100
 62
     1
370
    25
100
AcDbLine
 10
439.7805322715867
 20
303.36759415466
 30
0.0
 11
553.7805322715869
 21
303.3675937992699
 31
0.0
1001
PHOENIX7010
1002
{
1070
    41
1040
1.0
1002
}
  0
LINE
  5
80FD
102
{ACAD_REACTORS
330
394C
102
}
330
1F
100
AcDbEntity
  8
0
  6
ACAD_ISO02W100
 62
     5
100
AcDbLine
 10
447.7464462715867
 20
381.9351938401849
 30
0.0
 11
531.7805322715867
 21
383.3675939102247
 31
0.0
1001
PHOENIX7010
1002
{
1070
    41
1040
1.0
1002
}
  0
ARC
  5
80FE
102
{ACAD_REACTORS
330
394C
102
}
330
1F
100
AcDbEntity
  8
0
  6
ACAD_ISO02W100
 62
     5
 48
0.1002420470383578
100
AcDbCircle
 10
447.7805322715867
 20
379.9354848401849
 30
0.0
 40
1.999999
100
AcDbArc
 50
90.97654000000558
 51
180.0000010000079
1001
PHOENIX7010
1002
{
1070
    41
1040
1.0
1002
}
  0
LINE
  5
8100
102
{ACAD_REACTORS
330
394C
102
}
330
1F
100
AcDbEntity
  8
0
  6
ACAD_ISO02W100
 62
     5
 48
0.5150293248399917
100
AcDbLine
 10
454.7805322715867
 20
382.0550931067642
 30
0.0
 11
454.7805322715867
 21
398.021002176804
 31
0.0
1001
PHOENIX7010
1002
{
1070
    41
1040
1.0
1002
}
  0
LINE
  5
8103
102
{ACAD_REACTORS
330
394C
102
}
330
1F
100
AcDbEntity
  8
0
  6
ACAD_ISO02W100
 62
     5
100
AcDbLine
 10
447.7464457817244
 20
224.7999944194684
 30
0.0
 11
531.7805317727937
 21
223.3675938254832
 31
0.0
1001
PHOENIX7010
1002
{
1070
    41
1040
1.0
1002
}
  0
LINE
  5
8104
102
{ACAD_REACTORS
330
394C
102
}
330
1F
100
AcDbEntity
  8
0
  6
ACAD_ISO02W100
 62
     5
 48
0.5150293248399917
100
AcDbLine
 10
454.7805317809769
 20
224.6800951090321
 30
0.0
 11
454.7805316814308
 21
208.7141860389924
 31
0.0
1001
PHOENIX7010
1002
{
1070
    41
1040
1.0
1002
}
  0
ARC
  5
8105
102
{ACAD_REACTORS
330
394C
102
}
330
1F
100
AcDbEntity
  8
0
  6
ACAD_ISO02W100
 62
     5
 48
0.1002420470383578
100
AcDbCircle
 10
447.7805317941925
 20
226.7997034192558
 30
0.0
 40
1.999999
100
AcDbArc
 50
179.9999986427571
 51
269.02345964276
1001
PHOENIX7010
1002
{
1070
    41
1040
1.0
1002
}
  0
LINE
  5
8107
102
{ACAD_REACTORS
330
394C
102
}
330
1F
100
AcDbEntity
  8
0
  6
Continuous
 62
     7
100
AcDbLine
 10
39.78053227158665
 20
402.0530977007851
 30
0.0
 11
39.78053227158677
 21
204.6820899102246
 31
0.0
1001
PHOENIX7010
1002
{
1070
    41
1040
1.0
1002
}
  0
LINE
  5
8108
102
{ACAD_REACTORS
330
394C
102
}
330
1F
100
AcDbEntity
  8
0
  6
ACAD_ISO02W100
 62
     5
100
AcDbLine
 10
43.78053227158665
 20
394.5729189102248
 30
0.0
 11
43.78053227158676
 21
212.1622689102247
 31
0.0
1001
PHOENIX7010
1002
{
1070
    41
1040
1.0
1002
}
  0
LINE
  5
8109
102
{ACAD_REACTORS
330
394C
102
}
330
1F
100
AcDbEntity
  8
0
  6
Continuous
 62
     7
100
AcDbLine
 10
59.78053227158676
 20
202.3675939102246
 30
0.0
 11
59.78053227158667
 21
404.3675939102247
 31
0.0
1001
PHOENIX7010
1002
{
1070
    41
1040
1.0
1002
}
  0
LINE
  5
810A
102
{ACAD_REACTORS
330
394C
102
}
330
1F
100
AcDbEntity
  8
0
  6
Continuous
 62
     7
100
AcDbLine
 10
61.28053227158677
 20
404.3675939102246
 30
0.0
 11
61.28053227158687
 21
202.3675939102248
 31
0.0
1001
PHOENIX7010
1002
{
1070
    41
1040
1.0
1002
}
  0
LINE
  5
810B
102
{ACAD_REACTORS
330
394C
102
}
330
1F
100
AcDbEntity
  8
0
  6
ACAD_ISO02W100
 62
     5
100
AcDbLine
 10
145.7805322715868
 20
210.8337939102247
 30
0.0
 11
145.7805322715867
 21
395.9013938753179
 31
0.0
1001
PHOENIX7010
1002
{
1070
    41
1040
1.0
1002
}
  0
LINE
  5
810C
102
{ACAD_REACTORS
330
394C
102
}
330
1F
100
AcDbEntity
  8
0
  6
Continuous
 62
     7
100
AcDbLine
 10
149.7805322715867
 20
399.8254883866259
 30
0.0
 11
149.7805322715868
 21
206.9096999102247
 31
0.0
1001
PHOENIX7010
1002
{
1070
    41
1040
1.0
1002
}
  0
LINE
  5
810D
102
{ACAD_REACTORS
330
394C
102
}
330
1F
100
AcDbEntity
  8
0
  6
ACAD_ISO02W100
 62
     5
100
AcDbLine
 10
143.814618761449
 20
224.7999944194685
 30
0.0
 11
59.78053277037992
 21
223.3675938254833
 31
0.0
1001
PHOENIX7010
1002
{
1070
    41
1040
1.0
1002
}
  0
LINE
  5
810E
102
{ACAD_REACTORS
330
394C
102
}
330
1F
100
AcDbEntity
  8
0
  6
Continuous
 62
     7
100
AcDbLine
 10
147.8392642715869
 20
204.9105619102247
 30
0.0
 11
61.28053227158687
 21
202.3675939102248
 31
0.0
1001
PHOENIX7010
1002
{
1070
    41
1040
1.0
1002
}
  0
LINE
  5
810F
102
{ACAD_REACTORS
330
394C
102
}
330
1F
100
AcDbEntity
  8
0
  6
ACAD_ISO02W100
 62
     5
100
AcDbLine
 10
143.8146182715868
 20
208.8340849102248
 30
0.0
 11
59.78053227158676
 21
207.4016848401849
 31
0.0
1001
PHOENIX7010
1002
{
1070
    41
1040
1.0
1002
}
  0
LINE
  5
8110
102
{ACAD_REACTORS
330
394C
102
}
330
1F
100
AcDbEntity
  8
0
  6
ACAD_ISO02W100
 62
     5
 48
0.5150293248399917
100
AcDbLine
 10
136.7805327621966
 20
224.6800951090322
 30
0.0
 11
136.7805328617427
 21
208.7141860389924
 31
0.0
1001
PHOENIX7010
1002
{
1070
    41
1040
1.0
1002
}
  0
ARC
  5
8111
102
{ACAD_REACTORS
330
394C
102
}
330
1F
100
AcDbEntity
  8
0
  6
ACAD_ISO02W100
 62
     5
 48
0.1002420470383578
100
AcDbCircle
 10
143.7805322715868
 20
210.8337939102247
 30
0.0
 40
1.999999
100
AcDbArc
 50
270.9765400000056
 51
0.0000010000076127
1001
PHOENIX7010
1002
{
1070
    41
1040
1.0
1002
}
  0
ARC
  5
8112
102
{ACAD_REACTORS
330
394C
102
}
330
1F
100
AcDbEntity
  8
0
  6
Continuous
 62
     7
100
AcDbCircle
 10
147.7805322715868
 20
206.9096989102247
 30
0.0
 40
2.0
100
AcDbArc
 50
271.682789999997
 51
0.0000150000015105
1001
PHOENIX7010
1002
{
1070
    41
1040
1.0
1002
}
  0
ARC
  5
8113
102
{ACAD_REACTORS
330
394C
102
}
330
1F
100
AcDbEntity
  8
0
  6
ACAD_ISO02W100
 62
     5
 48
0.1002420470383578
100
AcDbCircle
 10
143.780532748981
 20
226.7997034192559
 30
0.0
 40
1.999999
100
AcDbArc
 50
270.9765403572404
 51
0.0000013572429091
1001
PHOENIX7010
1002
{
1070
    41
1040
1.0
1002
}
  0
ARC
  5
8114
102
{ACAD_REACTORS
330
394C
102
}
330
1F
100
AcDbEntity
  8
0
  6
Continuous
 62
     7
100
AcDbCircle
 10
41.78053227158676
 20
204.6820899102246
 30
0.0
 40
2.0
100
AcDbArc
 50
179.9999939999915
 51
268.9999949999918
1001
PHOENIX7010
1002
{
1070
    41
1040
1.0
1002
}
  0
LINE
  5
8115
102
{ACAD_REACTORS
330
394C
102
}
330
1F
100
AcDbEntity
  8
0
  6
Continuous
 62
     7
100
AcDbLine
 10
41.74562727158678
 20
202.6823939102247
 30
0.0
 11
59.78053227158665
 21
202.3675939102246
 31
0.0
1001
PHOENIX7010
1002
{
1070
    41
1040
1.0
1002
}
  0
LINE
  5
8116
102
{ACAD_REACTORS
330
394C
102
}
330
1F
100
AcDbEntity
  8
0
  6
Continuous
 62
     7
100
AcDbLine
 10
61.28053227158687
 20
203.3675939102248
 30
0.0
 11
59.78053227158688
 21
203.3675939102248
 31
0.0
1001
PHOENIX7010
1002
{
1070
    41
1040
1.0
1002
}
  0
LINE
  5
8117
102
{ACAD_REACTORS
330
394C
102
}
330
1F
100
AcDbEntity
  8
0
  6
ACAD_ISO02W100
 62
     5
 48
0.4528078356941258
100
AcDbLine
 10
59.78053227158676
 20
209.9175939102248
 30
0.0
 11
45.74562727158678
 21
210.1625739102248
 31
0.0
1001
PHOENIX7010
1002
{
1070
    41
1040
1.0
1002
}
  0
ARC
  5
8118
102
{ACAD_REACTORS
330
394C
102
}
330
1F
100
AcDbEntity
  8
0
  6
ACAD_ISO02W100
 62
     5
 48
0.1002156604883076
100
AcDbCircle
 10
45.78053227158676
 20
212.1622689102247
 30
0.0
 40
2.0
100
AcDbArc
 50
180.0000120000037
 51
268.9999949999918
1001
PHOENIX7010
1002
{
1070
    41
1040
1.0
1002
}
  0
LINE
  5
8119
102
{ACAD_REACTORS
330
394C
102
}
330
1F
100
AcDbEntity
  8
0
  6
ACAD_ISO02W100
 62
     5
100
AcDbLine
 10
143.8146182715868
 20
381.935193840185
 30
0.0
 11
59.78053227158688
 21
383.3675939102249
 31
0.0
1001
PHOENIX7010
1002
{
1070
    41
1040
1.0
1002
}
  0
LINE
  5
811A
330
1F
100
AcDbEntity
  8
0
  6
ACAD_ISO04W100
 62
     1
370
    25
100
AcDbLine
 10
151.7805322715868
 20
303.3675941546601
 30
0.0
 11
37.78053227158665
 21
303.3675937992701
 31
0.0
1001
PHOENIX7010
1002
{
1070
    41
1040
1.0
1002
}
  0
LINE
  5
811B
102
{ACAD_REACTORS
330
394C
102
}
330
1F
100
AcDbEntity
  8
0
  6
Continuous
 62
     7
100
AcDbLine
 10
147.8392642715869
 20
401.8246259102247
 30
0.0
 11
61.28053227158699
 21
404.3675939102246
 31
0.0
1001
PHOENIX7010
1002
{
1070
    41
1040
1.0
1002
}
  0
LINE
  5
811C
102
{ACAD_REACTORS
330
394C
102
}
330
1F
100
AcDbEntity
  8
0
  6
ACAD_ISO02W100
 62
     5
100
AcDbLine
 10
143.8146182715868
 20
397.9011029102247
 30
0.0
 11
59.78053227158688
 21
399.3335029802646
 31
0.0
1001
PHOENIX7010
1002
{
1070
    41
1040
1.0
1002
}
  0
LINE
  5
811D
102
{ACAD_REACTORS
330
394C
102
}
330
1F
100
AcDbEntity
  8
0
  6
ACAD_ISO02W100
 62
     5
 48
0.5150293248399917
100
AcDbLine
 10
136.7805322715869
 20
382.0550931067643
 30
0.0
 11
136.7805322715869
 21
398.0210021768041
 31
0.0
1001
PHOENIX7010
1002
{
1070
    41
1040
1.0
1002
}
  0
ARC
  5
811E
102
{ACAD_REACTORS
330
394C
102
}
330
1F
100
AcDbEntity
  8
0
  6
ACAD_ISO02W100
 62
     5
 48
0.1002420470383578
100
AcDbCircle
 10
143.7805322715869
 20
379.9354848401851
 30
0.0
 40
1.999999
100
AcDbArc
 50
359.9999989999921
 51
89.02345999999443
1001
PHOENIX7010
1002
{
1070
    41
1040
1.0
1002
}
  0
ARC
  5
811F
102
{ACAD_REACTORS
330
394C
102
}
330
1F
100
AcDbEntity
  8
0
  6
Continuous
 62
     7
100
AcDbCircle
 10
147.7805322715868
 20
399.8254889102248
 30
0.0
 40
2.0
100
AcDbArc
 50
359.9999849999985
 51
88.31721000000298
1001
PHOENIX7010
1002
{
1070
    41
1040
1.0
1002
}
  0
ARC
  5
8120
102
{ACAD_REACTORS
330
394C
102
}
330
1F
100
AcDbEntity
  8
0
  6
ACAD_ISO02W100
 62
     5
 48
0.1002420470383578
100
AcDbCircle
 10
143.7805322715869
 20
395.9013939102248
 30
0.0
 40
1.999999
100
AcDbArc
 50
359.9999989999921
 51
89.02345999999443
1001
PHOENIX7010
1002
{
1070
    41
1040
1.0
1002
}
  0
LINE
  5
8121
102
{ACAD_REACTORS
330
394C
102
}
330
1F
100
AcDbEntity
  8
0
  6
Continuous
 62
     7
100
AcDbLine
 10
41.74562727158689
 20
404.0527939102248
 30
0.0
 11
59.78053227158676
 21
404.3675939102247
 31
0.0
1001
PHOENIX7010
1002
{
1070
    41
1040
1.0
1002
}
  0
LINE
  5
8122
102
{ACAD_REACTORS
330
394C
102
}
330
1F
100
AcDbEntity
  8
0
  6
ACAD_ISO02W100
 62
     5
 48
0.4528078356941258
100
AcDbLine
 10
59.78053227158688
 20
396.8175939102246
 30
0.0
 11
45.74562727158689
 21
396.5726139102248
 31
0.0
1001
PHOENIX7010
1002
{
1070
    41
1040
1.0
1002
}
  0
LINE
  5
8123
102
{ACAD_REACTORS
330
394C
102
}
330
1F
100
AcDbEntity
  8
0
  6
Continuous
 62
     7
100
AcDbLine
 10
61.28053227158699
 20
403.3675939102247
 30
0.0
 11
59.78053227158699
 21
403.3675939102247
 31
0.0
1001
PHOENIX7010
1002
{
1070
    41
1040
1.0
1002
}
  0
ARC
  5
8124
102
{ACAD_REACTORS
330
394C
102
}
330
1F
100
AcDbEntity
  8
0
  6
ACAD_ISO02W100
 62
     5
 48
0.1002156604883076
100
AcDbCircle
 10
45.78053227158688
 20
394.5729189102248
 30
0.0
 40
2.0
100
AcDbArc
 50
91.0000050000082
 51
179.9999879999961
1001
PHOENIX7010
1002
{
1070
    41
1040
1.0
1002
}
  0
ARC
  5
8125
102
{ACAD_REACTORS
330
394C
102
}
330
1F
100
AcDbEntity
  8
0
  6
Continuous
 62
     7
100
AcDbCircle
 10
41.78053227158687
 20
402.0530979102249
 30
0.0
 40
2.0
100
AcDbArc
 50
91.0000050000082
 51
180.0000060000084
1001
PHOENIX7010
1002
{
1070
    41
1040
1.0
1002
}
  0
LINE
  5
8128
102
{ACAD_REACTORS
330
394C
102
}
330
1F
100
AcDbEntity
  8
0
  6
ACAD_ISO02W100
 62
     5
 48
0.4528078356941258
100
AcDbLine
 10
59.78053227158688
 20
380.8675939102247
 30
0.0
 11
45.74562727158689
 21
380.6226139102248
 31
0.0
1001
PHOENIX7010
1002
{
1070
    41
1040
1.0
1002
}
  0
ARC
  5
8129
102
{ACAD_REACTORS
330
394C
102
}
330
1F
100
AcDbEntity
  8
0
  6
ACAD_ISO02W100
 62
     5
 48
0.1002156604883076
100
AcDbCircle
 10
45.78053227158688
 20
378.6229189102249
 30
0.0
 40
2.0
100
AcDbArc
 50
91.0000050000082
 51
179.9999879999962
1001
PHOENIX7010
1002
{
1070
    41
1040
1.0
1002
}
  0
LINE
  5
812A
102
{ACAD_REACTORS
330
394C
102
}
330
1F
100
AcDbEntity
  8
0
  6
ACAD_ISO02W100
 62
     5
 48
0.4528078356941258
100
AcDbLine
 10
59.78053275479266
 20
225.8675938254835
 30
0.0
 11
45.74562775326526
 21
226.1125737379769
 31
0.0
1001
PHOENIX7010
1002
{
1070
    41
1040
1.0
1002
}
  0
ARC
  5
812B
102
{ACAD_REACTORS
330
394C
102
}
330
1F
100
AcDbEntity
  8
0
  6
ACAD_ISO02W100
 62
     5
 48
0.1002156604883076
100
AcDbCircle
 10
45.78053274079732
 20
228.1122687381945
 30
0.0
 40
2.0
100
AcDbArc
 50
180.0000123572388
 51
268.999995357226
1001
PHOENIX7010
1002
{
1070
    41
1040
1.0
1002
}
  0
LINE
  5
812C
102
{ACAD_REACTORS
330
394C
102
}
330
1F
100
AcDbEntity
  8
0
  6
ACAD_ISO02W100
 62
     5
 48
0.5145161290322541
100
AcDbLine
 10
54.78053227158657
 20
396.7303186490099
 30
0.0
 11
54.78053227158657
 21
380.78031864901
 31
0.0
1001
PHOENIX7010
1002
{
1070
    41
1040
1.0
1002
}
  0
CIRCLE
  5
8133
330
1F
100
AcDbEntity
  8
0
  6
Continuous
 62
     7
370
    50
100
AcDbCircle
 10
592.7805322715869
 20
393.3675939102247
 30
0.0
 40
2.460000000000036
1001
PHOENIX7010
1002
{
1070
    41
1040
1.0
1002
}
  0
CIRCLE
  5
8134
330
1F
100
AcDbEntity
  8
0
  6
ACAD_ISO02W100
 62
     5
 48
0.4986011566342584
370
    35
100
AcDbCircle
 10
625.7805322715869
 20
388.3675939102247
 30
0.0
 40
2.460000000000036
1001
PHOENIX7010
1002
{
1070
    41
1040
1.0
1002
}
  0
ARC
  5
8135
330
1F
100
AcDbEntity
  8
0
  6
ACAD_ISO02W100
 62
     1
 48
0.4560376432630345
370
    25
100
AcDbCircle
 10
625.7805322715869
 20
388.3675939102247
 30
0.0
 40
3.0
100
AcDbArc
 50
66.72371650931136
 51
336.7237165093103
1001
PHOENIX7010
1002
{
1070
    41
1040
1.0
1002
}
  0
ARC
  5
8137
330
1F
100
AcDbEntity
  8
0
  6
Continuous
 62
     1
370
    25
100
AcDbCircle
 10
592.7805322715869
 20
393.3675939102247
 30
0.0
 40
2.999999999999999
100
AcDbArc
 50
78.30470580604276
 51
339.8739434456614
1001
PHOENIX7010
1002
{
1070
    41
1040
1.0
1002
}
  0
ARC
  5
8140
330
1F
100
AcDbEntity
  8
0
  6
Continuous
 62
     7
370
    50
100
AcDbCircle
 10
592.7805322715869
 20
393.3675939102247
 30
0.0
 40
6.5
100
AcDbArc
 50
52.02012755514791
 51
307.9798724448519
1001
PHOENIX7010
1002
{
1070
    41
1040
1.0
1002
}
  0
LINE
  5
8142
330
1F
100
AcDbEntity
  8
0
  6
Continuous
 62
     7
370
    50
100
AcDbLine
 10
596.7805322715869
 20
388.2441185272449
 30
0.0
 11
596.7805322715869
 21
398.4910692932045
 31
0.0
1001
PHOENIX7010
1002
{
1070
    41
1040
1.0
1002
}
  0
CIRCLE
  5
8144
330
1F
100
AcDbEntity
  8
0
  6
Continuous
 62
     7
370
    50
100
AcDbCircle
 10
607.7805322715869
 20
393.3675939102247
 30
0.0
 40
3.5
1001
PHOENIX7010
1002
{
1070
    41
1040
1.0
1002
}
  0
CIRCLE
  5
8146
330
1F
100
AcDbEntity
  8
0
  6
ACAD_ISO02W100
 62
     5
370
    35
100
AcDbCircle
 10
607.7805322715869
 20
393.3675939102247
 30
0.0
 40
5.75
1001
PHOENIX7010
1002
{
1070
    41
1040
1.0
1002
}
  0
LINE
  5
814C
102
{ACAD_REACTORS
330
394C
102
}
330
1F
100
AcDbEntity
  8
0
  6
ACAD_ISO04W100
 62
     1
 48
0.2741935483870967
100
AcDbLine
 10
802.7805322715868
 20
401.8675939102246
 30
0.0
 11
802.7805322715868
 21
384.8675939102247
 31
0.0
1001
PHOENIX7010
1002
{
1070
    41
1040
1.0
1002
}
  0
LINE
  5
814D
102
{ACAD_REACTORS
330
394C
102
}
330
1F
100
AcDbEntity
  8
0
  6
ACAD_ISO04W100
 62
     1
 48
0.25
100
AcDbLine
 10
787.7805322715869
 20
401.1175939102247
 30
0.0
 11
787.7805322715869
 21
385.6175939102247
 31
0.0
1001
PHOENIX7010
1002
{
1070
    41
1040
1.0
1002
}
  0
LINE
  5
814E
330
1F
100
AcDbEntity
  8
0
  6
Continuous
 62
     7
370
    50
100
AcDbLine
 10
798.7805322715869
 20
398.4910692932045
 30
0.0
 11
798.7805322715869
 21
388.2441185272449
 31
0.0
1001
PHOENIX7010
1002
{
1070
    41
1040
1.0
1002
}
  0
CIRCLE
  5
814F
330
1F
100
AcDbEntity
  8
0
  6
ACAD_ISO02W100
 62
     5
370
    35
100
AcDbCircle
 10
787.7805322715869
 20
393.3675939102247
 30
0.0
 40
5.75
1001
PHOENIX7010
1002
{
1070
    41
1040
1.0
1002
}
  0
CIRCLE
  5
8151
330
1F
100
AcDbEntity
  8
0
  6
Continuous
 62
     7
370
    50
100
AcDbCircle
 10
787.7805322715869
 20
393.3675939102247
 30
0.0
 40
3.5
1001
PHOENIX7010
1002
{
1070
    41
1040
1.0
1002
}
  0
ARC
  5
8152
330
1F
100
AcDbEntity
  8
0
  6
Continuous
 62
     7
370
    50
100
AcDbCircle
 10
802.7805322715868
 20
393.3675939102247
 30
0.0
 40
6.5
100
AcDbArc
 50
232.0201275551521
 51
127.9798724448477
1001
PHOENIX7010
1002
{
1070
    41
1040
1.0
1002
}
  0
LINE
  5
8153
102
{ACAD_REACTORS
330
394C
102
}
330
1F
100
AcDbEntity
  8
0
  6
ACAD_ISO04W100
 62
     1
 48
0.5040322580645161
100
AcDbLine
 10
780.0305322715869
 20
393.3675939102247
 30
0.0
 11
811.2805322715869
 21
393.3675939102247
 31
0.0
1001
PHOENIX7010
1002
{
1070
    41
1040
1.0
1002
}
  0
ARC
  5
8154
330
1F
100
AcDbEntity
  8
0
  6
Continuous
 62
     1
370
    25
100
AcDbCircle
 10
802.7805322715868
 20
393.3675939102247
 30
0.0
 40
2.999999999999999
100
AcDbArc
 50
258.3047058060397
 51
159.8739434456634
1001
PHOENIX7010
1002
{
1070
    41
1040
1.0
1002
}
  0
CIRCLE
  5
8155
330
1F
100
AcDbEntity
  8
0
  6
Continuous
 62
     7
370
    50
100
AcDbCircle
 10
802.7805322715868
 20
393.3675939102247
 30
0.0
 40
2.460000000000036
1001
PHOENIX7010
1002
{
1070
    41
1040
1.0
1002
}
  0
LINE
  5
8156
102
{ACAD_REACTORS
330
394C
102
}
330
1F
100
AcDbEntity
  8
0
  6
ACAD_ISO04W100
 62
     1
 48
0.5040322580645161
100
AcDbLine
 10
780.0305322715869
 20
213.3675939102247
 30
0.0
 11
811.2805322715869
 21
213.3675939102247
 31
0.0
1001
PHOENIX7010
1002
{
1070
    41
1040
1.0
1002
}
  0
LINE
  5
8157
102
{ACAD_REACTORS
330
394C
102
}
330
1F
100
AcDbEntity
  8
0
  6
ACAD_ISO04W100
 62
     1
 48
0.2741935483870967
100
AcDbLine
 10
802.7805322715868
 20
221.8675939102247
 30
0.0
 11
802.7805322715868
 21
204.8675939102247
 31
0.0
1001
PHOENIX7010
1002
{
1070
    41
1040
1.0
1002
}
  0
LINE
  5
8158
102
{ACAD_REACTORS
330
394C
102
}
330
1F
100
AcDbEntity
  8
0
  6
ACAD_ISO04W100
 62
     1
 48
0.25
100
AcDbLine
 10
787.7805322715869
 20
221.1175939102247
 30
0.0
 11
787.7805322715869
 21
205.6175939102247
 31
0.0
1001
PHOENIX7010
1002
{
1070
    41
1040
1.0
1002
}
  0
CIRCLE
  5
8159
330
1F
100
AcDbEntity
  8
0
  6
Continuous
 62
     7
370
    50
100
AcDbCircle
 10
802.7805322715868
 20
213.3675939102247
 30
0.0
 40
2.460000000000036
1001
PHOENIX7010
1002
{
1070
    41
1040
1.0
1002
}
  0
ARC
  5
815A
330
1F
100
AcDbEntity
  8
0
  6
Continuous
 62
     1
370
    25
100
AcDbCircle
 10
802.7805322715868
 20
213.3675939102247
 30
0.0
 40
2.999999999999999
100
AcDbArc
 50
258.3047058060399
 51
159.8739434456631
1001
PHOENIX7010
1002
{
1070
    41
1040
1.0
1002
}
  0
ARC
  5
815B
330
1F
100
AcDbEntity
  8
0
  6
Continuous
 62
     7
370
    50
100
AcDbCircle
 10
802.7805322715868
 20
213.3675939102247
 30
0.0
 40
6.5
100
AcDbArc
 50
232.0201275551518
 51
127.9798724448479
1001
PHOENIX7010
1002
{
1070
    41
1040
1.0
1002
}
  0
LINE
  5
815C
330
1F
100
AcDbEntity
  8
0
  6
Continuous
 62
     7
370
    50
100
AcDbLine
 10
798.7805322715869
 20
218.4910692932045
 30
0.0
 11
798.7805322715869
 21
208.2441185272449
 31
0.0
1001
PHOENIX7010
1002
{
1070
    41
1040
1.0
1002
}
  0
CIRCLE
  5
815D
330
1F
100
AcDbEntity
  8
0
  6
Continuous
 62
     7
370
    50
100
AcDbCircle
 10
787.7805322715869
 20
213.3675939102247
 30
0.0
 40
3.5
1001
PHOENIX7010
1002
{
1070
    41
1040
1.0
1002
}
  0
CIRCLE
  5
815F
330
1F
100
AcDbEntity
  8
0
  6
ACAD_ISO02W100
 62
     5
370
    35
100
AcDbCircle
 10
787.7805322715869
 20
213.3675939102247
 30
0.0
 40
5.75
1001
PHOENIX7010
1002
{
1070
    41
1040
1.0
1002
}
  0
LINE
  5
8160
102
{ACAD_REACTORS
330
394C
102
}
330
1F
100
AcDbEntity
  8
0
  6
ACAD_ISO04W100
 62
     1
 48
0.2741935483870967
100
AcDbLine
 10
592.7805322715869
 20
204.8675939102248
 30
0.0
 11
592.7805322715869
 21
221.8675939102248
 31
0.0
1001
PHOENIX7010
1002
{
1070
    41
1040
1.0
1002
}
  0
LINE
  5
8161
102
{ACAD_REACTORS
330
394C
102
}
330
1F
100
AcDbEntity
  8
0
  6
ACAD_ISO04W100
 62
     1
 48
0.25
100
AcDbLine
 10
607.7805322715869
 20
205.6175939102248
 30
0.0
 11
607.7805322715869
 21
221.1175939102248
 31
0.0
1001
PHOENIX7010
1002
{
1070
    41
1040
1.0
1002
}
  0
LINE
  5
8162
330
1F
100
AcDbEntity
  8
0
  6
Continuous
 62
     7
370
    50
100
AcDbLine
 10
596.7805322715869
 20
208.244118527245
 30
0.0
 11
596.7805322715869
 21
218.4910692932046
 31
0.0
1001
PHOENIX7010
1002
{
1070
    41
1040
1.0
1002
}
  0
CIRCLE
  5
8163
330
1F
100
AcDbEntity
  8
0
  6
ACAD_ISO02W100
 62
     5
370
    35
100
AcDbCircle
 10
607.7805322715869
 20
213.3675939102248
 30
0.0
 40
5.75
1001
PHOENIX7010
1002
{
1070
    41
1040
1.0
1002
}
  0
CIRCLE
  5
8165
330
1F
100
AcDbEntity
  8
0
  6
Continuous
 62
     7
370
    50
100
AcDbCircle
 10
607.7805322715869
 20
213.3675939102248
 30
0.0
 40
3.5
1001
PHOENIX7010
1002
{
1070
    41
1040
1.0
1002
}
  0
ARC
  5
8166
330
1F
100
AcDbEntity
  8
0
  6
Continuous
 62
     7
370
    50
100
AcDbCircle
 10
592.7805322715869
 20
213.3675939102248
 30
0.0
 40
6.5
100
AcDbArc
 50
52.02012755515434
 51
307.9798724448456
1001
PHOENIX7010
1002
{
1070
    41
1040
1.0
1002
}
  0
LINE
  5
8167
102
{ACAD_REACTORS
330
394C
102
}
330
1F
100
AcDbEntity
  8
0
  6
ACAD_ISO04W100
 62
     1
 48
0.5040322580645161
100
AcDbLine
 10
615.5305322715869
 20
213.3675939102248
 30
0.0
 11
584.2805322715869
 21
213.3675939102248
 31
0.0
1001
PHOENIX7010
1002
{
1070
    41
1040
1.0
1002
}
  0
ARC
  5
8168
330
1F
100
AcDbEntity
  8
0
  6
Continuous
 62
     1
370
    25
100
AcDbCircle
 10
592.7805322715869
 20
213.3675939102248
 30
0.0
 40
2.999999999999999
100
AcDbArc
 50
78.30470580603902
 51
339.8739434456634
1001
PHOENIX7010
1002
{
1070
    41
1040
1.0
1002
}
  0
CIRCLE
  5
8169
330
1F
100
AcDbEntity
  8
0
  6
Continuous
 62
     7
370
    50
100
AcDbCircle
 10
592.7805322715869
 20
213.3675939102248
 30
0.0
 40
2.460000000000036
1001
PHOENIX7010
1002
{
1070
    41
1040
1.0
1002
}
  0
ARC
  5
816F
330
1F
100
AcDbEntity
  8
0
  6
ACAD_ISO02W100
 62
     1
 48
0.4560376432630345
370
    25
100
AcDbCircle
 10
697.7805322715867
 20
388.3675939102247
 30
0.0
 40
3.0
100
AcDbArc
 50
66.72371650931289
 51
336.7237165093087
1001
PHOENIX7010
1002
{
1070
    41
1040
1.0
1002
}
  0
CIRCLE
  5
8170
330
1F
100
AcDbEntity
  8
0
  6
ACAD_ISO02W100
 62
     5
 48
0.4986011566342584
370
    35
100
AcDbCircle
 10
697.7805322715867
 20
388.3675939102247
 30
0.0
 40
2.460000000000036
1001
PHOENIX7010
1002
{
1070
    41
1040
1.0
1002
}
  0
CIRCLE
  5
8175
330
1F
100
AcDbEntity
  8
0
  6
ACAD_ISO02W100
 62
     5
 48
0.4986011566342584
370
    35
100
AcDbCircle
 10
769.7805322715867
 20
388.3675939102247
 30
0.0
 40
2.460000000000036
1001
PHOENIX7010
1002
{
1070
    41
1040
1.0
1002
}
  0
ARC
  5
8176
330
1F
100
AcDbEntity
  8
0
  6
ACAD_ISO02W100
 62
     1
 48
0.4560376432630345
370
    25
100
AcDbCircle
 10
769.7805322715867
 20
388.3675939102247
 30
0.0
 40
3.0
100
AcDbArc
 50
66.72371650931312
 51
336.7237165093087
1001
PHOENIX7010
1002
{
1070
    41
1040
1.0
1002
}
  0
ARC
  5
8177
330
1F
100
AcDbEntity
  8
0
  6
ACAD_ISO02W100
 62
     1
 48
0.4560376432630345
370
    25
100
AcDbCircle
 10
769.7805322715869
 20
218.3675939102248
 30
0.0
 40
3.0
100
AcDbArc
 50
336.7237165093129
 51
246.7237165093087
1001
PHOENIX7010
1002
{
1070
    41
1040
1.0
1002
}
  0
CIRCLE
  5
8178
330
1F
100
AcDbEntity
  8
0
  6
ACAD_ISO02W100
 62
     5
 48
0.4986011566342584
370
    35
100
AcDbCircle
 10
769.7805322715869
 20
218.3675939102248
 30
0.0
 40
2.460000000000036
1001
PHOENIX7010
1002
{
1070
    41
1040
1.0
1002
}
  0
CIRCLE
  5
817D
330
1F
100
AcDbEntity
  8
0
  6
ACAD_ISO02W100
 62
     5
 48
0.4986011566342584
370
    35
100
AcDbCircle
 10
697.7805322715867
 20
218.3675939102247
 30
0.0
 40
2.460000000000036
1001
PHOENIX7010
1002
{
1070
    41
1040
1.0
1002
}
  0
ARC
  5
817E
330
1F
100
AcDbEntity
  8
0
  6
ACAD_ISO02W100
 62
     1
 48
0.4560376432630345
370
    25
100
AcDbCircle
 10
697.7805322715867
 20
218.3675939102247
 30
0.0
 40
3.0
100
AcDbArc
 50
66.72371650931444
 51
336.7237165093057
1001
PHOENIX7010
1002
{
1070
    41
1040
1.0
1002
}
  0
ARC
  5
8183
330
1F
100
AcDbEntity
  8
0
  6
ACAD_ISO02W100
 62
     1
 48
0.4953519449927179
370
    25
100
AcDbCircle
 10
625.7805322715867
 20
218.3675939102247
 30
0.0
 40
3.0
100
AcDbArc
 50
66.72371650931444
 51
0.0
1001
PHOENIX7010
1002
{
1070
    41
1040
1.0
1002
}
  0
CIRCLE
  5
8184
330
1F
100
AcDbEntity
  8
0
  6
ACAD_ISO02W100
 62
     5
 48
0.4986011566342584
370
    35
100
AcDbCircle
 10
625.7805322715867
 20
218.3675939102247
 30
0.0
 40
2.460000000000036
1001
PHOENIX7010
1002
{
1070
    41
1040
1.0
1002
}
  0
DIMENSION
  5
8CAC
102
{ACAD_REACTORS
330
8F82
102
}
330
1F
100
AcDbEntity
  8
0
  6
Continuous
 62
     5
370
    35
100
AcDbDimension
  2
*D3
 10
411.7805322715867
 20
188.3675939102247
 30
0.0
 11
295.7805322715868
 21
191.8680860362089
 31
0.0
 70
    32
 71
     5
 42
232.0
  3
phoenix
100
AcDbAlignedDimension
 13
179.7805322715867
 23
212.3675939102247
 33
0.0
 14
411.7805322715867
 24
212.3675939102247
 34
0.0
100
AcDbRotatedDimension
1001
ACAD
1000
DSTYLE
1002
{
1070
   147
1040
1.0
1070
   173
1070
     1
1070
   140
1040
5.0
1002
}
  0
DIMENSION
  5
9F79
102
{ACAD_REACTORS
330
A2BB
102
}
330
1F
100
AcDbEntity
  8
0
  6
Continuous
 62
     5
370
    35
100
AcDbDimension
  2
*D4
 10
425.7805322715866
 20
202.3675939102247
 30
0.0
 11
422.2800401456023
 21
303.3675939102248
 31
0.0
 70
    32
 71
     5
 42
202.0
  3
phoenix
100
AcDbAlignedDimension
 13
401.7805322715867
 23
404.3675939102246
 33
0.0
 14
401.7805322715867
 24
202.3675939102247
 34
0.0
 50
90.0
100
AcDbRotatedDimension
1001
ACAD
1000
DSTYLE
1002
{
1070
   147
1040
1.0
1070
   173
1070
     1
1070
   140
1040
5.0
1002
}
  0
DIMENSION
  5
AE8C
102
{ACAD_REACTORS
330
B041
102
}
330
1F
100
AcDbEntity
  8
0
  6
Continuous
 62
     5
370
    35
100
AcDbDimension
  2
*D5
 10
425.7805322715866
 20
72.36759391022461
 30
0.0
 11
422.2800401456024
 21
62.36759391022468
 31
0.0
 70
    32
 71
     5
 42
19.99999999999999
  3
phoenix
100
AcDbAlignedDimension
 13
409.4660362715867
 23
52.36759391022463
 33
0.0
 14
411.7805322715866
 24
72.36759391022463
 34
0.0
 50
90.0
100
AcDbRotatedDimension
1001
ACAD
1000
DSTYLE
1002
{
1070
   147
1040
1.0
1070
   173
1070
     1
1070
   140
1040
5.0
1002
}
  0
DIMENSION
  5
B23E
102
{ACAD_REACTORS
330
B496
102
}
330
1F
100
AcDbEntity
  8
0
  6
Continuous
 62
     5
370
    35
100
AcDbDimension
  2
*D6
 10
435.7805322715867
 20
52.36759391022463
 30
0.0
 11
432.2805322715867
 21
107.3675939102247
 31
0.0
 70
    32
 71
     5
 42
110.0000000000001
  3
phoenix
100
AcDbAlignedDimension
 13
407.2384262715868
 23
162.3675939102247
 33
0.0
 14
409.4660360621473
 24
52.36759391022464
 34
0.0
 50
90.0
100
AcDbRotatedDimension
1001
ACAD
1000
DSTYLE
1002
{
1070
   147
1040
1.0
1070
   173
1070
     1
1070
   140
1040
5.0
1002
}
  0
ARC
  5
B815
102
{ACAD_REACTORS
330
394C
102
}
330
1F
100
AcDbEntity
  8
0
  6
ACAD_ISO02W100
 62
     5
 48
0.1002156604883076
100
AcDbCircle
 10
545.7805322715866
 20
378.6229189102249
 30
0.0
 40
2.0
100
AcDbArc
 50
0.0000120000038132
 51
88.9999949999918
1001
PHOENIX7010
1002
{
1070
    41
1040
1.0
1002
}
  0
LINE
  5
B816
102
{ACAD_REACTORS
330
394C
102
}
330
1F
100
AcDbEntity
  8
0
  6
ACAD_ISO02W100
 62
     5
 48
0.4528078356941258
100
AcDbLine
 10
531.7805322715867
 20
380.8675939102247
 30
0.0
 11
545.8154372715866
 21
380.6226139102248
 31
0.0
1001
PHOENIX7010
1002
{
1070
    41
1040
1.0
1002
}
  0
LINE
  5
B817
102
{ACAD_REACTORS
330
394C
102
}
330
1F
100
AcDbEntity
  8
0
  6
ACAD_ISO02W100
 62
     5
 48
0.4528078356941258
100
AcDbLine
 10
531.7805317883808
 20
225.8675938254831
 30
0.0
 11
545.8154367899082
 21
226.1125737379767
 31
0.0
1001
PHOENIX7010
1002
{
1070
    41
1040
1.0
1002
}
  0
ARC
  5
B818
102
{ACAD_REACTORS
330
394C
102
}
330
1F
100
AcDbEntity
  8
0
  6
ACAD_ISO02W100
 62
     5
 48
0.1002156604883076
100
AcDbCircle
 10
545.7805318023761
 20
228.1122687381942
 30
0.0
 40
2.0
100
AcDbArc
 50
271.0000046427739
 51
359.9999876427611
1001
PHOENIX7010
1002
{
1070
    41
1040
1.0
1002
}
  0
DIMENSION
  5
BD36
330
1F
100
AcDbEntity
  8
0
  6
Continuous
 62
     5
370
    35
100
AcDbDimension
  2
*D14
 10
622.7805322715867
 20
188.3675939102247
 30
0.0
 11
605.9121858148937
 21
191.8675939102247
 31
0.0
 70
    32
  1
6x<>
 71
     5
 42
6.0
  3
phoenix
100
AcDbAlignedDimension
 13
628.7805322715867
 23
218.3675939102247
 33
0.0
 14
622.7805322715867
 24
218.3675939102247
 34
0.0
100
AcDbRotatedDimension
1001
ACAD
1000
DSTYLE
1002
{
1070
   147
1040
1.0
1070
   173
1070
     1
1070
   140
1040
5.0
1070
     3
1000
M<>
1002
}
  0
LINE
  5
C21B
102
{ACAD_REACTORS
330
394C
102
}
330
1F
100
AcDbEntity
  8
0
  6
ACAD_ISO04W100
 62
     1
 48
0.1438709677419358
100
AcDbLine
 10
637.7805322715869
 20
222.8275939102247
 30
0.0
 11
637.7805322715869
 21
213.9075939102248
 31
0.0
1001
PHOENIX7010
1002
{
1070
    41
1040
1.0
1002
}
  0
CIRCLE
  5
C21C
102
{ACAD_REACTORS
330
394C
102
}
330
1F
100
AcDbEntity
  8
0
  6
ACAD_ISO02W100
 62
     5
100
AcDbCircle
 10
637.7805322715869
 20
218.3675939102247
 30
0.0
 40
2.459999999999999
1001
PHOENIX7010
1002
{
1070
    41
1040
1.0
1002
}
  0
LINE
  5
C21E
102
{ACAD_REACTORS
330
394C
102
}
330
1F
100
AcDbEntity
  8
0
  6
ACAD_ISO04W100
 62
     1
 48
0.1438709677419367
100
AcDbLine
 10
642.2405322715869
 20
218.3675939102247
 30
0.0
 11
633.3205322715869
 21
218.3675939102247
 31
0.0
1001
PHOENIX7010
1002
{
1070
    41
1040
1.0
1002
}
  0
LINE
  5
C225
102
{ACAD_REACTORS
330
394C
102
}
330
1F
100
AcDbEntity
  8
0
  6
ACAD_ISO04W100
 62
     1
 48
0.1438709677419367
100
AcDbLine
 10
662.2405322715869
 20
218.3675939102247
 30
0.0
 11
653.3205322715868
 21
218.3675939102247
 31
0.0
1001
PHOENIX7010
1002
{
1070
    41
1040
1.0
1002
}
  0
LINE
  5
C226
102
{ACAD_REACTORS
330
394C
102
}
330
1F
100
AcDbEntity
  8
0
  6
ACAD_ISO04W100
 62
     1
 48
0.1438709677419358
100
AcDbLine
 10
657.7805322715869
 20
222.8275939102247
 30
0.0
 11
657.7805322715869
 21
213.9075939102248
 31
0.0
1001
PHOENIX7010
1002
{
1070
    41
1040
1.0
1002
}
  0
CIRCLE
  5
C227
102
{ACAD_REACTORS
330
394C
102
}
330
1F
100
AcDbEntity
  8
0
  6
ACAD_ISO02W100
 62
     5
100
AcDbCircle
 10
657.7805322715869
 20
218.3675939102247
 30
0.0
 40
2.459999999999999
1001
PHOENIX7010
1002
{
1070
    41
1040
1.0
1002
}
  0
LINE
  5
C229
102
{ACAD_REACTORS
330
394C
102
}
330
1F
100
AcDbEntity
  8
0
  6
ACAD_ISO04W100
 62
     1
 48
0.1438709677419358
100
AcDbLine
 10
757.7805322715869
 20
222.8275939102247
 30
0.0
 11
757.7805322715869
 21
213.9075939102248
 31
0.0
1001
PHOENIX7010
1002
{
1070
    41
1040
1.0
1002
}
  0
CIRCLE
  5
C22A
102
{ACAD_REACTORS
330
394C
102
}
330
1F
100
AcDbEntity
  8
0
  6
ACAD_ISO02W100
 62
     5
100
AcDbCircle
 10
757.7805322715869
 20
218.3675939102247
 30
0.0
 40
2.459999999999999
1001
PHOENIX7010
1002
{
1070
    41
1040
1.0
1002
}
  0
LINE
  5
C22C
102
{ACAD_REACTORS
330
394C
102
}
330
1F
100
AcDbEntity
  8
0
  6
ACAD_ISO04W100
 62
     1
 48
0.1438709677419367
100
AcDbLine
 10
762.2405322715869
 20
218.3675939102247
 30
0.0
 11
753.3205322715868
 21
218.3675939102247
 31
0.0
1001
PHOENIX7010
1002
{
1070
    41
1040
1.0
1002
}
  0
LINE
  5
C22D
102
{ACAD_REACTORS
330
394C
102
}
330
1F
100
AcDbEntity
  8
0
  6
ACAD_ISO04W100
 62
     1
 48
0.1438709677419367
100
AcDbLine
 10
742.2405322715869
 20
218.3675939102247
 30
0.0
 11
733.3205322715869
 21
218.3675939102247
 31
0.0
1001
PHOENIX7010
1002
{
1070
    41
1040
1.0
1002
}
  0
LINE
  5
C22E
102
{ACAD_REACTORS
330
394C
102
}
330
1F
100
AcDbEntity
  8
0
  6
ACAD_ISO04W100
 62
     1
 48
0.1438709677419358
100
AcDbLine
 10
737.7805322715869
 20
222.8275939102247
 30
0.0
 11
737.7805322715869
 21
213.9075939102248
 31
0.0
1001
PHOENIX7010
1002
{
1070
    41
1040
1.0
1002
}
  0
CIRCLE
  5
C22F
102
{ACAD_REACTORS
330
394C
102
}
330
1F
100
AcDbEntity
  8
0
  6
ACAD_ISO02W100
 62
     5
100
AcDbCircle
 10
737.7805322715869
 20
218.3675939102247
 30
0.0
 40
2.459999999999999
1001
PHOENIX7010
1002
{
1070
    41
1040
1.0
1002
}
  0
CIRCLE
  5
C241
102
{ACAD_REACTORS
330
394C
102
}
330
1F
100
AcDbEntity
  8
0
  6
ACAD_ISO02W100
 62
     5
100
AcDbCircle
 10
657.7805322715869
 20
388.3675939102247
 30
0.0
 40
2.459999999999999
1001
PHOENIX7010
1002
{
1070
    41
1040
1.0
1002
}
  0
LINE
  5
C242
102
{ACAD_REACTORS
330
394C
102
}
330
1F
100
AcDbEntity
  8
0
  6
ACAD_ISO04W100
 62
     1
 48
0.1438709677419348
100
AcDbLine
 10
657.7805322715869
 20
383.9075939102248
 30
0.0
 11
657.7805322715869
 21
392.8275939102247
 31
0.0
1001
PHOENIX7010
1002
{
1070
    41
1040
1.0
1002
}
  0
LINE
  5
C243
102
{ACAD_REACTORS
330
394C
102
}
330
1F
100
AcDbEntity
  8
0
  6
ACAD_ISO04W100
 62
     1
 48
0.1438709677419367
100
AcDbLine
 10
662.2405322715869
 20
388.3675939102247
 30
0.0
 11
653.3205322715868
 21
388.3675939102247
 31
0.0
1001
PHOENIX7010
1002
{
1070
    41
1040
1.0
1002
}
  0
LINE
  5
C244
102
{ACAD_REACTORS
330
394C
102
}
330
1F
100
AcDbEntity
  8
0
  6
ACAD_ISO04W100
 62
     1
 48
0.1438709677419367
100
AcDbLine
 10
642.2405322715869
 20
388.3675939102247
 30
0.0
 11
633.3205322715869
 21
388.3675939102247
 31
0.0
1001
PHOENIX7010
1002
{
1070
    41
1040
1.0
1002
}
  0
CIRCLE
  5
C246
102
{ACAD_REACTORS
330
394C
102
}
330
1F
100
AcDbEntity
  8
0
  6
ACAD_ISO02W100
 62
     5
100
AcDbCircle
 10
637.7805322715869
 20
388.3675939102247
 30
0.0
 40
2.459999999999999
1001
PHOENIX7010
1002
{
1070
    41
1040
1.0
1002
}
  0
LINE
  5
C247
102
{ACAD_REACTORS
330
394C
102
}
330
1F
100
AcDbEntity
  8
0
  6
ACAD_ISO04W100
 62
     1
 48
0.1438709677419348
100
AcDbLine
 10
637.7805322715869
 20
383.9075939102248
 30
0.0
 11
637.7805322715869
 21
392.8275939102247
 31
0.0
1001
PHOENIX7010
1002
{
1070
    41
1040
1.0
1002
}
  0
CIRCLE
  5
C249
102
{ACAD_REACTORS
330
394C
102
}
330
1F
100
AcDbEntity
  8
0
  6
ACAD_ISO02W100
 62
     5
100
AcDbCircle
 10
737.7805322715869
 20
388.3675939102247
 30
0.0
 40
2.459999999999999
1001
PHOENIX7010
1002
{
1070
    41
1040
1.0
1002
}
  0
LINE
  5
C24A
102
{ACAD_REACTORS
330
394C
102
}
330
1F
100
AcDbEntity
  8
0
  6
ACAD_ISO04W100
 62
     1
 48
0.1438709677419348
100
AcDbLine
 10
737.7805322715869
 20
383.9075939102248
 30
0.0
 11
737.7805322715869
 21
392.8275939102247
 31
0.0
1001
PHOENIX7010
1002
{
1070
    41
1040
1.0
1002
}
  0
LINE
  5
C24B
102
{ACAD_REACTORS
330
394C
102
}
330
1F
100
AcDbEntity
  8
0
  6
ACAD_ISO04W100
 62
     1
 48
0.1438709677419367
100
AcDbLine
 10
742.2405322715869
 20
388.3675939102247
 30
0.0
 11
733.3205322715869
 21
388.3675939102247
 31
0.0
1001
PHOENIX7010
1002
{
1070
    41
1040
1.0
1002
}
  0
LINE
  5
C24C
102
{ACAD_REACTORS
330
394C
102
}
330
1F
100
AcDbEntity
  8
0
  6
ACAD_ISO04W100
 62
     1
 48
0.1438709677419367
100
AcDbLine
 10
762.2405322715869
 20
388.3675939102247
 30
0.0
 11
753.3205322715868
 21
388.3675939102247
 31
0.0
1001
PHOENIX7010
1002
{
1070
    41
1040
1.0
1002
}
  0
CIRCLE
  5
C24E
102
{ACAD_REACTORS
330
394C
102
}
330
1F
100
AcDbEntity
  8
0
  6
ACAD_ISO02W100
 62
     5
100
AcDbCircle
 10
757.7805322715869
 20
388.3675939102247
 30
0.0
 40
2.459999999999999
1001
PHOENIX7010
1002
{
1070
    41
1040
1.0
1002
}
  0
LINE
  5
C24F
102
{ACAD_REACTORS
330
394C
102
}
330
1F
100
AcDbEntity
  8
0
  6
ACAD_ISO04W100
 62
     1
 48
0.1438709677419348
100
AcDbLine
 10
757.7805322715869
 20
383.9075939102248
 30
0.0
 11
757.7805322715869
 21
392.8275939102247
 31
0.0
1001
PHOENIX7010
1002
{
1070
    41
1040
1.0
1002
}
  0
LINE
  5
D30E
102
{ACAD_REACTORS
330
394C
102
}
330
1F
100
AcDbEntity
  8
0
  6
ACAD_ISO04W100
 62
     1
 48
0.2419354838709677
100
AcDbLine
 10
190.7805322715868
 20
400.8675939102247
 30
0.0
 11
190.7805322715868
 21
385.8675939102247
 31
0.0
1001
PHOENIX7010
1002
{
1070
    41
1040
1.0
1002
}
  0
LINE
  5
D310
102
{ACAD_REACTORS
330
394C
102
}
330
1F
100
AcDbEntity
  8
0
  6
ACAD_ISO04W100
 62
     1
 48
0.2419354838709677
100
AcDbLine
 10
198.2805322715869
 20
393.3675939102247
 30
0.0
 11
183.2805322715868
 21
393.3675939102247
 31
0.0
1001
PHOENIX7010
1002
{
1070
    41
1040
1.0
1002
}
  0
LINE
  5
D316
102
{ACAD_REACTORS
330
394C
102
}
330
1F
100
AcDbEntity
  8
0
  6
ACAD_ISO04W100
 62
     1
 48
0.1693548387096774
100
AcDbLine
 10
365.7805322715868
 20
392.1175939102246
 30
0.0
 11
365.7805322715868
 21
381.6175939102246
 31
0.0
1001
PHOENIX7010
1002
{
1070
    41
1040
1.0
1002
}
  0
LINE
  5
D318
102
{ACAD_REACTORS
330
394C
102
}
330
1F
100
AcDbEntity
  8
0
  6
ACAD_ISO04W100
 62
     1
 48
0.1693548387096774
100
AcDbLine
 10
371.0305322715868
 20
386.8675939102246
 30
0.0
 11
360.5305322715868
 21
386.8675939102246
 31
0.0
1001
PHOENIX7010
1002
{
1070
    41
1040
1.0
1002
}
  0
LINE
  5
D31E
102
{ACAD_REACTORS
330
394C
102
}
330
1F
100
AcDbEntity
  8
0
  6
ACAD_ISO04W100
 62
     1
 48
0.2419354838709677
100
AcDbLine
 10
400.7805322715868
 20
400.8675939102246
 30
0.0
 11
400.7805322715868
 21
385.8675939102247
 31
0.0
1001
PHOENIX7010
1002
{
1070
    41
1040
1.0
1002
}
  0
LINE
  5
D320
102
{ACAD_REACTORS
330
394C
102
}
330
1F
100
AcDbEntity
  8
0
  6
ACAD_ISO04W100
 62
     1
 48
0.2419354838709677
100
AcDbLine
 10
408.2805322715868
 20
393.3675939102247
 30
0.0
 11
393.2805322715868
 21
393.3675939102247
 31
0.0
1001
PHOENIX7010
1002
{
1070
    41
1040
1.0
1002
}
  0
LINE
  5
D326
102
{ACAD_REACTORS
330
394C
102
}
330
1F
100
AcDbEntity
  8
0
  6
ACAD_ISO04W100
 62
     1
 48
0.2419354838709677
100
AcDbLine
 10
408.2805322715868
 20
213.3675939102247
 30
0.0
 11
393.2805322715868
 21
213.3675939102247
 31
0.0
1001
PHOENIX7010
1002
{
1070
    41
1040
1.0
1002
}
  0
LINE
  5
D328
102
{ACAD_REACTORS
330
394C
102
}
330
1F
100
AcDbEntity
  8
0
  6
ACAD_ISO04W100
 62
     1
 48
0.2419354838709677
100
AcDbLine
 10
400.7805322715868
 20
220.8675939102247
 30
0.0
 11
400.7805322715868
 21
205.8675939102247
 31
0.0
1001
PHOENIX7010
1002
{
1070
    41
1040
1.0
1002
}
  0
LINE
  5
D32E
102
{ACAD_REACTORS
330
394C
102
}
330
1F
100
AcDbEntity
  8
0
  6
ACAD_ISO04W100
 62
     1
 48
0.2419354838709677
100
AcDbLine
 10
190.7805322715868
 20
220.8675939102248
 30
0.0
 11
190.7805322715868
 21
205.8675939102247
 31
0.0
1001
PHOENIX7010
1002
{
1070
    41
1040
1.0
1002
}
  0
LINE
  5
D330
102
{ACAD_REACTORS
330
394C
102
}
330
1F
100
AcDbEntity
  8
0
  6
ACAD_ISO04W100
 62
     1
 48
0.2419354838709677
100
AcDbLine
 10
198.2805322715868
 20
213.3675939102248
 30
0.0
 11
183.2805322715868
 21
213.3675939102248
 31
0.0
1001
PHOENIX7010
1002
{
1070
    41
1040
1.0
1002
}
  0
LINE
  5
D450
102
{ACAD_REACTORS
330
D467
102
}
330
1F
100
AcDbEntity
  8
0
  6
Continuous
 62
     1
370
    50
100
AcDbLine
 10
835.9999999999995
 20
417.0000000000003
 30
0.0
 11
839.9999999999996
 21
417.0000000000003
 31
0.0
1001
PHOENIX7010
1002
{
1070
    62
1070
     1
1070
    41
1040
1.0
1002
}
  0
LINE
  5
D451
102
{ACAD_REACTORS
330
D467
102
}
330
1F
100
AcDbEntity
  8
0
  6
Continuous
 62
     1
370
    50
100
AcDbLine
 10
570.9999999999998
 20
5.000000000000113
 30
0.0
 11
570.9999999999998
 21
1.000000000000113
 31
0.0
1001
PHOENIX7010
1002
{
1070
    62
1070
     1
1070
    41
1040
1.0
1002
}
  0
LINE
  5
D452
102
{ACAD_REACTORS
330
D468
102
}
330
1F
100
AcDbEntity
  8
0
  6
Continuous
 62
     1
370
    50
100
AcDbLine
 10
336.0
 20
1.000000000000113
 30
0.0
 11
336.0
 21
5.000000000000113
 31
0.0
1001
PHOENIX7010
1002
{
1070
    62
1070
     1
1070
    41
1040
1.0
1002
}
  0
LINE
  5
D453
102
{ACAD_REACTORS
330
D468
102
}
330
1F
100
AcDbEntity
  8
0
  6
Continuous
 62
     3
370
    50
100
AcDbLine
 10
20.0
 20
5.000000000000113
 30
0.0
 11
19.99999999999988
 21
589.0000000000001
 31
0.0
1001
PHOENIX7010
1002
{
1070
    62
1070
     3
1070
    41
1040
1.0
1002
}
  0
LINE
  5
D454
102
{ACAD_REACTORS
330
D468
102
}
330
1F
100
AcDbEntity
  8
0
  6
Continuous
 62
     1
370
    50
100
AcDbLine
 10
336.0
 20
589.0000000000002
 30
0.0
 11
336.0
 21
593.0000000000002
 31
0.0
1001
PHOENIX7010
1002
{
1070
    62
1070
     1
1070
    41
1040
1.0
1002
}
  0
LINE
  5
D455
102
{ACAD_REACTORS
330
D468
102
}
330
1F
100
AcDbEntity
  8
0
  6
Continuous
 62
     1
370
    50
100
AcDbLine
 10
836.0
 20
297.0000000000001
 30
0.0
 11
840.0
 21
297.0000000000001
 31
0.0
1001
PHOENIX7010
1002
{
1070
    62
1070
     1
1070
    41
1040
1.0
1002
}
  0
LINE
  5
D456
102
{ACAD_REACTORS
330
D468
102
}
330
1F
100
AcDbEntity
  8
0
  6
Continuous
 62
     1
370
    50
100
AcDbLine
 10
840.0
 20
593.0000000000001
 30
0.0
 11
840.0
 21
1.000000000000113
 31
0.0
1001
PHOENIX7010
1002
{
1070
    62
1070
     1
1070
    41
1040
1.0
1002
}
  0
LINE
  5
D457
102
{ACAD_REACTORS
330
D468
102
}
330
1F
100
AcDbEntity
  8
0
  6
Continuous
 62
     1
370
    50
100
AcDbLine
 10
210.9999999999999
 20
589.0000000000001
 30
0.0
 11
210.9999999999999
 21
593.0000000000001
 31
0.0
1001
PHOENIX7010
1002
{
1070
    62
1070
     1
1070
    41
1040
1.0
1002
}
  0
LINE
  5
D458
102
{ACAD_REACTORS
330
D468
102
}
330
1F
100
AcDbEntity
  8
0
  6
Continuous
 62
     1
370
    50
100
AcDbLine
 10
1.0
 20
1.000000000000113
 30
0.0
 11
0.9999999999998863
 21
593.0000000000001
 31
0.0
1001
PHOENIX7010
1002
{
1070
    62
1070
     1
1070
    41
1040
1.0
1002
}
  0
LINE
  5
D459
102
{ACAD_REACTORS
330
D468
102
}
330
1F
100
AcDbEntity
  8
0
  6
Continuous
 62
     1
370
    50
100
AcDbLine
 10
211.0
 20
5.000000000000113
 30
0.0
 11
211.0
 21
1.000000000000113
 31
0.0
1001
PHOENIX7010
1002
{
1070
    62
1070
     1
1070
    41
1040
1.0
1002
}
  0
LINE
  5
D45A
102
{ACAD_REACTORS
330
D468
102
}
330
1F
100
AcDbEntity
  8
0
  6
Continuous
 62
     1
370
    50
100
AcDbLine
 10
461.0000000000001
 20
5.000000000000113
 30
0.0
 11
461.0000000000001
 21
1.000000000000113
 31
0.0
1001
PHOENIX7010
1002
{
1070
    62
1070
     1
1070
    41
1040
1.0
1002
}
  0
LINE
  5
D45B
102
{ACAD_REACTORS
330
D468
102
}
330
1F
100
AcDbEntity
  8
0
  6
Continuous
 62
     1
370
    50
100
AcDbLine
 10
651.0000000000001
 20
5.000000000000113
 30
0.0
 11
651.0000000000001
 21
1.000000000000113
 31
0.0
1001
PHOENIX7010
1002
{
1070
    62
1070
     1
1070
    41
1040
1.0
1002
}
  0
LINE
  5
D45C
102
{ACAD_REACTORS
330
D468
102
}
330
1F
100
AcDbEntity
  8
0
  6
Continuous
 62
     1
370
    50
100
AcDbLine
 10
461.0
 20
589.0000000000001
 30
0.0
 11
461.0
 21
593.0000000000001
 31
0.0
1001
PHOENIX7010
1002
{
1070
    62
1070
     1
1070
    41
1040
1.0
1002
}
  0
LINE
  5
D45D
102
{ACAD_REACTORS
330
D468
102
}
330
1F
100
AcDbEntity
  8
0
  6
Continuous
 62
     1
370
    50
100
AcDbLine
 10
651.0
 20
589.0000000000001
 30
0.0
 11
651.0
 21
593.0000000000001
 31
0.0
1001
PHOENIX7010
1002
{
1070
    62
1070
     1
1070
    41
1040
1.0
1002
}
  0
LINE
  5
D45E
102
{ACAD_REACTORS
330
D468
102
}
330
1F
100
AcDbEntity
  8
0
  6
Continuous
 62
     3
370
    50
100
AcDbLine
 10
19.99999999999988
 20
589.0000000000001
 30
0.0
 11
836.0
 21
589.0000000000001
 31
0.0
1001
PHOENIX7010
1002
{
1070
    62
1070
     3
1070
    41
1040
1.0
1002
}
  0
LINE
  5
D45F
102
{ACAD_REACTORS
330
D468
102
}
330
1F
100
AcDbEntity
  8
0
  6
Continuous
 62
     3
370
    50
100
AcDbLine
 10
836.0
 20
589.0000000000001
 30
0.0
 11
836.0
 21
5.000000000000113
 31
0.0
1001
PHOENIX7010
1002
{
1070
    62
1070
     3
1070
    41
1040
1.0
1002
}
  0
LINE
  5
D460
102
{ACAD_REACTORS
330
D468
102
}
330
1F
100
AcDbEntity
  8
0
  6
Continuous
 62
     3
370
    50
100
AcDbLine
 10
836.0
 20
5.000000000000113
 30
0.0
 11
20.0
 21
5.000000000000113
 31
0.0
1001
PHOENIX7010
1002
{
1070
    62
1070
     3
1070
    41
1040
1.0
1002
}
  0
LINE
  5
D461
102
{ACAD_REACTORS
330
D468
102
}
330
1F
100
AcDbEntity
  8
0
  6
Continuous
 62
     1
370
    50
100
AcDbLine
 10
0.9999999999998863
 20
593.0000000000001
 30
0.0
 11
840.0
 21
593.0000000000001
 31
0.0
1001
PHOENIX7010
1002
{
1070
    62
1070
     1
1070
    41
1040
1.0
1002
}
  0
LINE
  5
D462
102
{ACAD_REACTORS
330
D468
102
}
330
1F
100
AcDbEntity
  8
0
  6
Continuous
 62
     1
370
    50
100
AcDbLine
 10
840.0
 20
1.000000000000113
 30
0.0
 11
1.0
 21
1.000000000000113
 31
0.0
1001
PHOENIX7010
1002
{
1070
    62
1070
     1
1070
    41
1040
1.0
1002
}
  0
MTEXT
  5
D463
102
{ACAD_REACTORS
330
D468
102
}
330
1F
100
AcDbEntity
  8
0
  6
Continuous
 62
     7
370
    50
100
AcDbMText
 10
19.70248718641096
 20
55.39351207913353
 30
0.0
 40
2.0
 41
0.0
 71
     7
 72
     5
  1
{\T1.1;\C1;"Schutzvermerk nach DIN ISO 16016 beachten" \Q20;"Please pay attention to copyright note DIN ISO 16016"}
 11
0.0000000000000002
 21
1.0
 31
0.0
 73
     1
 44
1.0
1001
PHOENIX7010
1002
{
1070
    41
1040
1.0
1002
}
1001
ACAD
1000
MTEXTBEGIN
1070
    73
1070
     1
1070
    44
1040
1.0
1070
    74
1070
     0
1000
MTEXTEND
  0
INSERT
  5
D464
102
{ACAD_REACTORS
330
D468
102
}
330
1F
100
AcDbEntity
  8
0
  6
Continuous
 62
     1
370
    50
100
AcDbBlockReference
  2
PH_GRPBLK
 10
336.0
 20
1.000000000000113
 30
0.0
1001
PHOENIX7010
1002
{
1070
    41
1040
1.0
1002
}
  0
MTEXT
  5
D50E
102
{ACAD_REACTORS
330
394C
102
}
330
1F
100
AcDbEntity
  8
0
  6
Continuous
 62
     5
370
    35
100
AcDbMText
 10
34.88229209520227
 20
410.9351164246678
 30
0.0
 40
5.0
 41
0.0
 71
     7
 72
     5
  1
Seite 2/\P{\Q20;Side 2}
 73
     1
 44
1.0
1001
PHOENIX7010
1002
{
1070
    41
1040
1.0
1002
}
1001
ACAD
1000
MTEXTBEGIN
1070
    73
1070
     1
1070
    44
1040
1.0
1070
    74
1070
     0
1000
MTEXTEND
  0
MTEXT
  5
D50F
102
{ACAD_REACTORS
330
394C
102
}
330
1F
100
AcDbEntity
  8
0
  6
Continuous
 62
     5
370
    35
100
AcDbMText
 10
174.8822920952029
 20
410.9351164246678
 30
0.0
 40
5.0
 41
0.0
 71
     7
 72
     5
  1
Seite 6 (Deckel)/\P{\Q20;Side 6 (Lid)}
 73
     1
 44
1.0
1001
PHOENIX7010
1002
{
1070
    41
1040
1.0
1002
}
1001
ACAD
1000
MTEXTBEGIN
1070
    73
1070
     1
1070
    44
1040
1.0
1070
    74
1070
     0
1000
MTEXTEND
  0
MTEXT
  5
D510
102
{ACAD_REACTORS
330
394C
102
}
330
1F
100
AcDbEntity
  8
0
  6
Continuous
 62
     5
370
    35
100
AcDbMText
 10
436.3846472079178
 20
411.1985830897337
 30
0.0
 40
5.0
 41
0.0
 71
     7
 72
     5
  1
Seite 1/\P{\Q20;Side 1}
 73
     1
 44
1.0
1001
PHOENIX7010
1002
{
1070
    41
1040
1.0
1002
}
1001
ACAD
1000
MTEXTBEGIN
1070
    73
1070
     1
1070
    44
1040
1.0
1070
    74
1070
     0
1000
MTEXTEND
  0
MTEXT
  5
D511
102
{ACAD_REACTORS
330
394C
102
}
330
1F
100
AcDbEntity
  8
0
  6
Continuous
 62
     5
370
    35
100
AcDbMText
 10
576.3846472079176
 20
411.1985830897337
 30
0.0
 40
5.0
 41
0.0
 71
     7
 72
     5
  1
Seite 5 (Boden)/\P{\Q20;Side 5 (Base)}
 73
     1
 44
1.0
1001
PHOENIX7010
1002
{
1070
    41
1040
1.0
1002
}
1001
ACAD
1000
MTEXTBEGIN
1070
    73
1070
     1
1070
    44
1040
1.0
1070
    74
1070
     0
1000
MTEXTEND
  0
MTEXT
  5
D512
102
{ACAD_REACTORS
330
394C
102
}
330
1F
100
AcDbEntity
  8
0
  6
Continuous
 62
     5
370
    35
100
AcDbMText
 10
172.5636236747545
 20
563.2161564973421
 30
0.0
 40
5.0
 41
0.0
 71
     7
 72
     5
  1
Seite 3/\P{\Q20;Side 3}
 73
     1
 44
1.0
1001
PHOENIX7010
1002
{
1070
    41
1040
1.0
1002
}
1001
ACAD
1000
MTEXTBEGIN
1070
    73
1070
     1
1070
    44
1040
1.0
1070
    74
1070
     0
1000
MTEXTEND
  0
MTEXT
  5
D513
102
{ACAD_REACTORS
330
394C
102
}
330
1F
100
AcDbEntity
  8
0
  6
Continuous
 62
     5
370
    35
100
AcDbMText
 10
174.3802298650703
 20
168.3726794862528
 30
0.0
 40
5.0
 41
0.0
 71
     7
 72
     5
  1
Seite 4/\P{\Q20;Side 4}
 73
     1
 44
1.0
1001
PHOENIX7010
1002
{
1070
    41
1040
1.0
1002
}
1001
ACAD
1000
MTEXTBEGIN
1070
    73
1070
     1
1070
    44
1040
1.0
1070
    74
1070
     0
1000
MTEXTEND
  0
INSERT
  5
D514
102
{ACAD_REACTORS
330
D579
102
}
330
1F
100
AcDbEntity
  8
0
  6
Continuous
 62
     1
370
    25
100
AcDbBlockReference
  2
PH_GRPBLK
 10
821.7334749940254
 20
50.3645381139803
 30
0.0
1001
PHOENIX7010
1002
{
1070
    41
1040
1.0
1002
}
  0
LINE
  5
D515
102
{ACAD_REACTORS
330
D579
102
}
330
1F
100
AcDbEntity
  8
0
  6
Continuous
 62
     7
370
    50
100
AcDbLine
 10
833.7334749940255
 20
58.16453811398026
 30
0.0
 11
828.4334749940255
 21
51.2645381139804
 31
0.0
1001
PHOENIX7010
1002
{
1070
    41
1040
1.0
1002
}
  0
LINE
  5
D516
102
{ACAD_REACTORS
330
D579
102
}
330
1F
100
AcDbEntity
  8
0
  6
Continuous
 62
     7
370
    50
100
AcDbLine
 10
828.4334749940255
 20
58.16453811398026
 30
0.0
 11
821.7334749940254
 21
50.3645381139803
 31
0.0
1001
PHOENIX7010
1002
{
1070
    41
1040
1.0
1002
}
  0
LINE
  5
D517
102
{ACAD_REACTORS
330
D579
102
}
330
1F
100
AcDbEntity
  8
0
  6
Continuous
 62
     7
370
    50
100
AcDbLine
 10
828.4334749940255
 20
51.2645381139804
 30
0.0
 11
828.4334749940255
 21
58.16453811398026
 31
0.0
1001
PHOENIX7010
1002
{
1070
    41
1040
1.0
1002
}
  0
LINE
  5
D518
102
{ACAD_REACTORS
330
D579
102
}
330
1F
100
AcDbEntity
  8
0
  6
Continuous
 62
     7
370
    50
100
AcDbLine
 10
833.7334749940255
 20
50.3645381139803
 30
0.0
 11
833.7334749940255
 21
58.16453811398026
 31
0.0
1001
PHOENIX7010
1002
{
1070
    41
1040
1.0
1002
}
  0
LINE
  5
D519
102
{ACAD_REACTORS
330
D579
102
}
330
1F
100
AcDbEntity
  8
0
  6
Continuous
 62
     7
370
    50
100
AcDbLine
 10
821.7334749940254
 20
50.3645381139803
 30
0.0
 11
833.7334749940255
 21
50.3645381139803
 31
0.0
1001
PHOENIX7010
1002
{
1070
    41
1040
1.0
1002
}
  0
HATCH
  5
D51A
102
{ACAD_REACTORS
330
D579
102
}
330
1F
100
AcDbEntity
  8
0
  6
Continuous
 62
     1
370
    25
100
AcDbHatch
 10
0.0
 20
0.0
 30
0.0
210
0.0
220
0.0
230
1.0
  2
_U
 70
     0
 71
     0
 91
        1
 92
        1
 93
        3
 72
     1
 10
820.8834749940256
 20
50.3645381139803
 11
820.8834749940256
 21
54.51453811398028
 72
     1
 10
820.8834749940256
 20
54.51453811398039
 11
825.0334749940256
 21
54.51453811398039
 72
     2
 10
820.8834749940256
 20
54.51453811398039
 40
4.149999999999977
 50
0.0
 51
270.0
 73
     1
 97
        0
 75
     0
 76
     0
 52
45.0
 41
0.65
 77
     0
 78
     1
 53
45.0
 43
421.0
 44
-9.08885297207064
 45
-0.4596194077712559
 46
0.459619407771256
 79
     0
 98
        1
 10
421.0
 20
-9.08885297207064
1001
PHOENIX7010
1002
{
1070
    41
1040
1.0
1002
}
  0
HATCH
  5
D51B
102
{ACAD_REACTORS
330
D579
102
}
330
1F
100
AcDbEntity
  8
0
  6
Continuous
 62
     1
370
    25
100
AcDbHatch
 10
0.0
 20
0.0
 30
0.0
210
0.0
220
0.0
230
1.0
  2
_U
 70
     0
 71
     0
 91
        1
 92
        1
 93
        5
 72
     1
 10
828.4334749940255
 20
58.16453811398048
 11
821.7334749940254
 21
50.36453811398041
 72
     1
 10
821.7334749940254
 20
50.3645381139803
 11
833.7334749940255
 21
50.3645381139803
 72
     1
 10
833.7334749940255
 20
50.3645381139803
 11
833.7334749940255
 21
58.16453811398026
 72
     1
 10
833.7334749940255
 20
58.16453811398026
 11
828.4334749940255
 21
51.2645381139804
 72
     1
 10
828.4334749940255
 20
51.2645381139804
 11
828.4334749940255
 21
58.16453811398037
 97
        0
 75
     0
 76
     0
 52
45.0
 41
0.1
 77
     0
 78
     1
 53
45.0
 43
421.0
 44
-9.08885297207064
 45
-0.0707106781186548
 46
0.0707106781186548
 79
     0
 98
        1
 10
421.0
 20
-9.08885297207064
1001
PHOENIX7010
1002
{
1070
    41
1040
1.0
1002
}
  0
INSERT
  5
D51C
102
{ACAD_REACTORS
330
D57A
102
}
330
1F
100
AcDbEntity
  8
0
  6
Continuous
 62
     7
370
    50
100
AcDbBlockReference
  2
PH_GRPBLK
 10
821.7334749940254
 20
50.3645381139803
 30
0.0
1001
PHOENIX7010
1002
{
1070
    41
1040
1.0
1002
}
  0
MTEXT
  5
D51D
102
{ACAD_XDICTIONARY
360
D607
102
}
102
{ACAD_REACTORS
330
D57A
102
}
330
1F
100
AcDbEntity
  8
0
  6
Continuous
 62
     7
370
    50
100
AcDbMText
 10
814.5658807175857
 20
44.46517927327739
 30
0.0
 40
3.7
 41
0.0
 71
     7
 72
     5
  1
{\fArial|b1|i0|c0|p34;\W1.1;BOPLA}
 73
     1
 44
1.135135135135135
1001
PHOENIX7010
1002
{
1070
    41
1040
1.0
1002
}
1001
ACAD
1000
MTEXTBEGIN
1070
    73
1070
     1
1070
    44
1040
1.135135135135135
1070
    74
1070
     0
1000
MTEXTEND
  0
MTEXT
  5
D51E
102
{ACAD_REACTORS
330
D57A
102
}
330
1F
100
AcDbEntity
  8
0
  6
Continuous
 62
     7
370
    50
100
AcDbMText
 10
802.0842366554656
 20
40.8834606000313
 30
0.0
 40
1.6
 41
0.0
 71
     7
 72
     5
  1
{\fArial|b0|i0|c0|p34;\W1.1;\C1;A Phoenix Mecano Company}
 73
     1
 44
1.0
1001
PHOENIX7010
1002
{
1070
    41
1040
1.0
1002
}
1001
ACAD
1000
MTEXTBEGIN
1070
    73
1070
     1
1070
    44
1040
1.0
1070
    74
1070
     0
1000
MTEXTEND
  0
MTEXT
  5
D51F
102
{ACAD_REACTORS
330
D57B
102
}
330
1F
100
AcDbEntity
  8
0
  6
Continuous
 62
     5
370
    35
100
AcDbMText
 10
761.3074630969179
 20
126.1987580068238
 30
0.0
 40
4.0
 41
0.0
 71
     7
 72
     5
  1
{\C7;1:1}
 73
     1
 44
1.0
1001
PHOENIX7010
1002
{
1070
    41
1040
1.0
1002
}
1001
ACAD
1000
MTEXTBEGIN
1070
    73
1070
     1
1070
    44
1040
1.0
1070
    74
1070
     0
1000
MTEXTEND
  0
MTEXT
  5
D520
102
{ACAD_REACTORS
330
D57B
102
}
330
1F
100
AcDbEntity
  8
0
  6
Continuous
 62
     5
370
    35
100
AcDbMText
 10
740.2942762589884
 20
125.2466907925512
 30
0.0
 40
2.5
 41
0.0
 71
     7
 72
     5
  1
{\C1;Maßstab/\P\Q20;Scale:}
 73
     1
 44
1.0
1001
PHOENIX7010
1002
{
1070
    41
1040
1.0
1002
}
1001
ACAD
1000
MTEXTBEGIN
1070
    73
1070
     1
1070
    44
1040
1.0
1070
    74
1070
     0
1000
MTEXTEND
  0
MTEXT
  5
D521
102
{ACAD_REACTORS
330
D57B
102
}
330
1F
100
AcDbEntity
  8
0
  6
Continuous
 62
     5
370
    35
100
AcDbMText
 10
740.5702130763931
 20
117.5784617930061
 30
0.0
 40
3.0
 41
0.0
 71
     7
 72
     5
  1
Zeichnungs-Nr. / {\Q20;Drawing-No.:}
 73
     1
 44
1.0
1001
PHOENIX7010
1002
{
1070
    41
1040
1.0
1002
}
1001
ACAD
1000
MTEXTBEGIN
1070
    73
1070
     1
1070
    44
1040
1.0
1070
    74
1070
     0
1000
MTEXTEND
  0
MTEXT
  5
D522
102
{ACAD_REACTORS
330
D57B
102
}
330
1F
100
AcDbEntity
  8
0
  6
Continuous
 62
     5
370
    35
100
AcDbMText
 10
761.6810942169352
 20
111.4363046740558
 30
0.0
 40
4.0
 41
0.0
 71
     7
 72
     5
  1
{\C7;1G 0140.001.01}
 73
     1
 44
1.0
1001
PHOENIX7010
1002
{
1070
    41
1040
1.0
1002
}
1001
ACAD
1000
MTEXTBEGIN
1070
    73
1070
     1
1070
    44
1040
1.0
1070
    74
1070
     0
1000
MTEXTEND
  0
MTEXT
  5
D523
102
{ACAD_REACTORS
330
D57B
102
}
330
1F
100
AcDbEntity
  8
0
  6
Continuous
 62
     5
370
    35
100
AcDbMText
 10
739.8800602381664
 20
95.42896167163702
 30
0.0
 40
4.0
 41
0.0
 71
     7
 72
     5
  1
{\C7;Artikel / \Q20;Article:}
 73
     1
 44
1.0
1001
PHOENIX7010
1002
{
1070
    41
1040
1.0
1002
}
1001
ACAD
1000
MTEXTBEGIN
1070
    73
1070
     1
1070
    44
1040
1.0
1070
    74
1070
     0
1000
MTEXTEND
  0
MTEXT
  5
D524
102
{ACAD_REACTORS
330
D57B
102
}
330
1F
100
AcDbEntity
  8
0
  6
Continuous
 62
     5
370
    35
100
AcDbMText
 10
750.5918340418986
 20
38.32304279191078
 30
0.0
 40
2.0
 41
0.0
 71
     7
 72
     5
  1
{\C1;Datum/\P\Q20;Date:}
 73
     1
 44
1.0
1001
PHOENIX7010
1002
{
1070
    41
1040
1.0
1002
}
1001
ACAD
1000
MTEXTBEGIN
1070
    73
1070
     1
1070
    44
1040
1.0
1070
    74
1070
     0
1000
MTEXTEND
  0
MTEXT
  5
D525
102
{ACAD_REACTORS
330
D57B
102
}
330
1F
100
AcDbEntity
  8
0
  6
Continuous
 62
     5
370
    35
100
AcDbMText
 10
737.167758256943
 20
38.32303913053613
 30
0.0
 40
2.0
 41
0.0
 71
     7
 72
     5
  1
{\C1;Ä.Nr/\P\Q20;Alt-No.:}
 73
     1
 44
1.0
1001
PHOENIX7010
1002
{
1070
    41
1040
1.0
1002
}
1001
ACAD
1000
MTEXTBEGIN
1070
    73
1070
     1
1070
    44
1040
1.0
1070
    74
1070
     0
1000
MTEXTEND
  0
MTEXT
  5
D526
102
{ACAD_REACTORS
330
D57B
102
}
330
1F
100
AcDbEntity
  8
0
  6
Continuous
 62
     5
370
    35
100
AcDbMText
 10
737.5289912646938
 20
33.49475527098105
 30
0.0
 40
2.5
 41
0.0
 71
     7
 72
     5
  1
DISK:
 73
     1
 44
1.0
1001
PHOENIX7010
1002
{
1070
    41
1040
1.0
1002
}
1001
ACAD
1000
MTEXTBEGIN
1070
    73
1070
     1
1070
    44
1040
1.0
1070
    74
1070
     0
1000
MTEXTEND
  0
MTEXT
  5
D527
102
{ACAD_REACTORS
330
D57B
102
}
330
1F
100
AcDbEntity
  8
0
  6
Continuous
 62
     5
370
    35
100
AcDbMText
 10
737.5289912646938
 20
29.24888752318759
 30
0.0
 40
2.5
 41
0.0
 71
     7
 72
     5
  1
Datum/{\Q20;Date:}
 73
     1
 44
1.0
1001
PHOENIX7010
1002
{
1070
    41
1040
1.0
1002
}
1001
ACAD
1000
MTEXTBEGIN
1070
    73
1070
     1
1070
    44
1040
1.0
1070
    74
1070
     0
1000
MTEXTEND
  0
LINE
  5
D528
102
{ACAD_REACTORS
330
D57B
102
}
330
1F
100
AcDbEntity
  8
0
  6
Continuous
 62
     5
370
    35
100
AcDbLine
 10
735.9999999999997
 20
37.50000000000011
 30
0.0
 11
836.0
 21
37.50000000000011
 31
0.0
1001
PHOENIX7010
1002
{
1070
    41
1040
1.0
1002
}
  0
LINE
  5
D529
102
{ACAD_REACTORS
330
D57B
102
}
330
1F
100
AcDbEntity
  8
0
  6
Continuous
 62
     5
100
AcDbLine
 10
826.4999999999997
 20
123.5000000000001
 30
0.0
 11
826.4999999999997
 21
130.5000000000001
 31
0.0
1001
PHOENIX7010
1002
{
1070
    62
1070
     5
1070
    41
1040
1.0
1002
}
  0
LINE
  5
D52A
102
{ACAD_REACTORS
330
D57B
102
}
330
1F
100
AcDbEntity
  8
0
  6
ACAD_ISO04W100
 62
     1
 48
0.1451612903225806
100
AcDbLine
 10
831.4999999999997
 20
122.5000000000001
 30
0.0
 11
831.4999999999997
 21
131.5000000000001
 31
0.0
1001
PHOENIX7010
1002
{
1070
    62
1070
     1
1070
    41
1040
1.0
1002
}
  0
CIRCLE
  5
D52B
102
{ACAD_REACTORS
330
D57B
102
}
330
1F
100
AcDbEntity
  8
0
  6
Continuous
 62
     5
100
AcDbCircle
 10
831.4999999999997
 20
127.0000000000001
 30
0.0
 40
1.75
1001
PHOENIX7010
1002
{
1070
    62
1070
     5
1070
    41
1040
1.0
1002
}
  0
CIRCLE
  5
D52C
102
{ACAD_REACTORS
330
D57B
102
}
330
1F
100
AcDbEntity
  8
0
  6
Continuous
 62
     5
100
AcDbCircle
 10
831.4999999999997
 20
127.0000000000001
 30
0.0
 40
3.5
1001
PHOENIX7010
1002
{
1070
    62
1070
     5
1070
    41
1040
1.0
1002
}
  0
LINE
  5
D52D
102
{ACAD_REACTORS
330
D57B
102
}
330
1F
100
AcDbEntity
  8
0
  6
Continuous
 62
     5
100
AcDbLine
 10
819.4999999999998
 20
125.2500000000001
 30
0.0
 11
819.4999999999998
 21
128.7500000000001
 31
0.0
1001
PHOENIX7010
1002
{
1070
    62
1070
     5
1070
    41
1040
1.0
1002
}
  0
LINE
  5
D52E
102
{ACAD_REACTORS
330
D57B
102
}
330
1F
100
AcDbEntity
  8
0
  6
ACAD_ISO04W100
 62
     1
 48
0.282258064516129
100
AcDbLine
 10
835.9999999999997
 20
127.0000000000001
 30
0.0
 11
818.4999999999998
 21
127.0000000000001
 31
0.0
1001
PHOENIX7010
1002
{
1070
    62
1070
     1
1070
    41
1040
1.0
1002
}
  0
LINE
  5
D52F
102
{ACAD_REACTORS
330
D57B
102
}
330
1F
100
AcDbEntity
  8
0
  6
Continuous
 62
     5
100
AcDbLine
 10
826.4999999999997
 20
123.5000000000001
 30
0.0
 11
819.4999999999998
 21
125.2500000000001
 31
0.0
1001
PHOENIX7010
1002
{
1070
    62
1070
     5
1070
    41
1040
1.0
1002
}
  0
LINE
  5
D530
102
{ACAD_REACTORS
330
D57B
102
}
330
1F
100
AcDbEntity
  8
0
  6
Continuous
 62
     5
100
AcDbLine
 10
826.4999999999997
 20
130.5000000000001
 30
0.0
 11
819.4999999999998
 21
128.7500000000001
 31
0.0
1001
PHOENIX7010
1002
{
1070
    62
1070
     5
1070
    41
1040
1.0
1002
}
  0
ARC
  5
D531
102
{ACAD_REACTORS
330
D57B
102
}
330
1F
100
AcDbEntity
  8
0
  6
Continuous
 62
     5
100
AcDbCircle
 10
738.4999999999998
 20
120.0000000000001
 30
0.0
 40
2.5
100
AcDbArc
 50
90.0
 51
180.0
1001
PHOENIX7010
1002
{
1070
    62
1070
     5
1070
    41
1040
1.0
1002
}
  0
LINE
  5
D532
102
{ACAD_REACTORS
330
D57B
102
}
330
1F
100
AcDbEntity
  8
0
  6
Continuous
 62
     5
100
AcDbLine
 10
836.0
 20
122.5000000000001
 30
0.0
 11
738.4999999999998
 21
122.5000000000001
 31
0.0
1001
PHOENIX7010
1002
{
1070
    62
1070
     5
1070
    41
1040
1.0
1002
}
  0
LINE
  5
D533
102
{ACAD_REACTORS
330
D57B
102
}
330
1F
100
AcDbEntity
  8
0
  6
Continuous
 62
     1
370
    25
100
AcDbLine
 10
795.0
 20
28.00000000000011
 30
0.0
 11
795.0
 21
5.000000000000113
 31
0.0
1001
PHOENIX7010
1002
{
1070
    62
1070
     5
1070
    41
1040
1.0
1002
}
  0
TEXT
  5
D534
102
{ACAD_REACTORS
330
D57B
102
}
330
1F
100
AcDbEntity
  8
0
  6
Continuous
 62
     1
100
AcDbText
 10
749.9999996997323
 20
65.74999981501367
 30
0.0
 40
2.0
  1
-
 41
1.5
100
AcDbText
1001
PHOENIX7010
1002
{
1070
    62
1070
     1
1070
    41
1040
1.0
1002
}
  0
TEXT
  5
D535
102
{ACAD_REACTORS
330
D57B
102
}
330
1F
100
AcDbEntity
  8
0
  6
Continuous
 62
     1
100
AcDbText
 10
749.9999996997323
 20
63.24999981501367
 30
0.0
 40
2.0
  1
-
 41
1.5
100
AcDbText
1001
PHOENIX7010
1002
{
1070
    62
1070
     1
1070
    41
1040
1.0
1002
}
  0
TEXT
  5
D536
102
{ACAD_REACTORS
330
D57B
102
}
330
1F
100
AcDbEntity
  8
0
  6
Continuous
 62
     1
100
AcDbText
 10
749.9999996997323
 20
68.24999981501367
 30
0.0
 40
2.0
  1
-
 41
1.5
100
AcDbText
1001
PHOENIX7010
1002
{
1070
    62
1070
     1
1070
    41
1040
1.0
1002
}
  0
TEXT
  5
D537
102
{ACAD_REACTORS
330
D57B
102
}
330
1F
100
AcDbEntity
  8
0
  6
Continuous
 62
     1
100
AcDbText
 10
736.9999996997323
 20
65.74999981501367
 30
0.0
 40
2.0
  1
-
 41
1.5
100
AcDbText
1001
PHOENIX7010
1002
{
1070
    62
1070
     1
1070
    41
1040
1.0
1002
}
  0
TEXT
  5
D538
102
{ACAD_REACTORS
330
D57B
102
}
330
1F
100
AcDbEntity
  8
0
  6
Continuous
 62
     1
100
AcDbText
 10
736.9999996997323
 20
63.24999981501367
 30
0.0
 40
2.0
  1
-
 41
1.5
100
AcDbText
1001
PHOENIX7010
1002
{
1070
    62
1070
     1
1070
    41
1040
1.0
1002
}
  0
TEXT
  5
D539
102
{ACAD_REACTORS
330
D57B
102
}
330
1F
100
AcDbEntity
  8
0
  6
Continuous
 62
     1
100
AcDbText
 10
736.9999996997323
 20
68.24999981501367
 30
0.0
 40
2.0
  1
-
 41
1.5
100
AcDbText
1001
PHOENIX7010
1002
{
1070
    62
1070
     1
1070
    41
1040
1.0
1002
}
  0
ARC
  5
D53A
102
{ACAD_REACTORS
330
D57B
102
}
330
1F
100
AcDbEntity
  8
0
  6
Continuous
 62
     5
100
AcDbCircle
 10
738.4999999999998
 20
68.50000000000012
 30
0.0
 40
2.5
100
AcDbArc
 50
90.0
 51
180.0
1001
PHOENIX7010
1002
{
1070
    62
1070
     5
1070
    41
1040
1.0
1002
}
  0
ARC
  5
D53B
102
{ACAD_REACTORS
330
D57B
102
}
330
1F
100
AcDbEntity
  8
0
  6
Continuous
 62
     5
100
AcDbCircle
 10
738.4999999999998
 20
99.00000000000012
 30
0.0
 40
2.5
100
AcDbArc
 50
90.0
 51
180.0
1001
PHOENIX7010
1002
{
1070
    62
1070
     5
1070
    41
1040
1.0
1002
}
  0
TEXT
  5
D53C
102
{ACAD_REACTORS
330
D57B
102
}
330
1F
100
AcDbEntity
  8
0
  6
Continuous
 62
     1
100
AcDbText
 10
749.9999996997323
 20
48.24999981501367
 30
0.0
 40
2.0
  1
-
 41
1.5
100
AcDbText
1001
PHOENIX7010
1002
{
1070
    62
1070
     1
1070
    41
1040
1.0
1002
}
  0
TEXT
  5
D53D
102
{ACAD_REACTORS
330
D57B
102
}
330
1F
100
AcDbEntity
  8
0
  6
Continuous
 62
     1
100
AcDbText
 10
749.9999996997323
 20
45.74999981501366
 30
0.0
 40
2.0
  1
-
 41
1.5
100
AcDbText
1001
PHOENIX7010
1002
{
1070
    62
1070
     1
1070
    41
1040
1.0
1002
}
  0
TEXT
  5
D53E
102
{ACAD_REACTORS
330
D57B
102
}
330
1F
100
AcDbEntity
  8
0
  6
Continuous
 62
     1
100
AcDbText
 10
749.9999996997323
 20
53.24999981501367
 30
0.0
 40
2.0
  1
-
 41
1.5
100
AcDbText
1001
PHOENIX7010
1002
{
1070
    62
1070
     1
1070
    41
1040
1.0
1002
}
  0
TEXT
  5
D53F
102
{ACAD_REACTORS
330
D57B
102
}
330
1F
100
AcDbEntity
  8
0
  6
Continuous
 62
     1
100
AcDbText
 10
749.9999996997323
 20
50.74999981501367
 30
0.0
 40
2.0
  1
-
 41
1.5
100
AcDbText
1001
PHOENIX7010
1002
{
1070
    62
1070
     1
1070
    41
1040
1.0
1002
}
  0
TEXT
  5
D540
102
{ACAD_REACTORS
330
D57B
102
}
330
1F
100
AcDbEntity
  8
0
  6
Continuous
 62
     1
100
AcDbText
 10
749.9999996997323
 20
55.74999981501367
 30
0.0
 40
2.0
  1
-
 41
1.5
100
AcDbText
1001
PHOENIX7010
1002
{
1070
    62
1070
     1
1070
    41
1040
1.0
1002
}
  0
TEXT
  5
D541
102
{ACAD_REACTORS
330
D57B
102
}
330
1F
100
AcDbEntity
  8
0
  6
Continuous
 62
     1
100
AcDbText
 10
749.9999996997323
 20
58.24999981501367
 30
0.0
 40
2.0
  1
-
 41
1.5
100
AcDbText
1001
PHOENIX7010
1002
{
1070
    62
1070
     1
1070
    41
1040
1.0
1002
}
  0
TEXT
  5
D542
102
{ACAD_REACTORS
330
D57B
102
}
330
1F
100
AcDbEntity
  8
0
  6
Continuous
 62
     1
100
AcDbText
 10
749.9999996997323
 20
60.74999981501367
 30
0.0
 40
2.0
  1
-
 41
1.5
100
AcDbText
1001
PHOENIX7010
1002
{
1070
    62
1070
     1
1070
    41
1040
1.0
1002
}
  0
TEXT
  5
D543
102
{ACAD_REACTORS
330
D57B
102
}
330
1F
100
AcDbEntity
  8
0
  6
Continuous
 62
     1
100
AcDbText
 10
736.9999996997323
 20
48.24999981501367
 30
0.0
 40
2.0
  1
-
 41
1.5
100
AcDbText
1001
PHOENIX7010
1002
{
1070
    62
1070
     1
1070
    41
1040
1.0
1002
}
  0
TEXT
  5
D544
102
{ACAD_REACTORS
330
D57B
102
}
330
1F
100
AcDbEntity
  8
0
  6
Continuous
 62
     1
100
AcDbText
 10
736.9999996997323
 20
45.74999981501366
 30
0.0
 40
2.0
  1
-
 41
1.5
100
AcDbText
1001
PHOENIX7010
1002
{
1070
    62
1070
     1
1070
    41
1040
1.0
1002
}
  0
TEXT
  5
D545
102
{ACAD_REACTORS
330
D57B
102
}
330
1F
100
AcDbEntity
  8
0
  6
Continuous
 62
     1
100
AcDbText
 10
736.9999996997323
 20
53.24999981501367
 30
0.0
 40
2.0
  1
-
 41
1.5
100
AcDbText
1001
PHOENIX7010
1002
{
1070
    62
1070
     1
1070
    41
1040
1.0
1002
}
  0
TEXT
  5
D546
102
{ACAD_REACTORS
330
D57B
102
}
330
1F
100
AcDbEntity
  8
0
  6
Continuous
 62
     1
100
AcDbText
 10
736.9999996997323
 20
50.74999981501367
 30
0.0
 40
2.0
  1
-
 41
1.5
100
AcDbText
1001
PHOENIX7010
1002
{
1070
    62
1070
     1
1070
    41
1040
1.0
1002
}
  0
TEXT
  5
D547
102
{ACAD_REACTORS
330
D57B
102
}
330
1F
100
AcDbEntity
  8
0
  6
Continuous
 62
     1
100
AcDbText
 10
736.9999996997323
 20
55.74999981501367
 30
0.0
 40
2.0
  1
-
 41
1.5
100
AcDbText
1001
PHOENIX7010
1002
{
1070
    62
1070
     1
1070
    41
1040
1.0
1002
}
  0
TEXT
  5
D548
102
{ACAD_REACTORS
330
D57B
102
}
330
1F
100
AcDbEntity
  8
0
  6
Continuous
 62
     1
100
AcDbText
 10
736.9999996997323
 20
58.24999981501367
 30
0.0
 40
2.0
  1
-
 41
1.5
100
AcDbText
1001
PHOENIX7010
1002
{
1070
    62
1070
     1
1070
    41
1040
1.0
1002
}
  0
TEXT
  5
D549
102
{ACAD_REACTORS
330
D57B
102
}
330
1F
100
AcDbEntity
  8
0
  6
Continuous
 62
     1
100
AcDbText
 10
736.9999996997323
 20
60.74999981501367
 30
0.0
 40
2.0
  1
-
 41
1.5
100
AcDbText
1001
PHOENIX7010
1002
{
1070
    62
1070
     1
1070
    41
1040
1.0
1002
}
  0
LINE
  5
D54A
102
{ACAD_REACTORS
330
D57B
102
}
330
1F
100
AcDbEntity
  8
0
  6
Continuous
 62
     1
100
AcDbLine
 10
748.9999999999997
 20
71.00000000000012
 30
0.0
 11
748.9999999999997
 21
37.50000000000011
 31
0.0
1001
PHOENIX7010
1002
{
1070
    62
1070
     1
1070
    41
1040
1.0
1002
}
  0
LINE
  5
D54B
102
{ACAD_REACTORS
330
D57B
102
}
330
1F
100
AcDbEntity
  8
0
  6
Continuous
 62
     1
100
AcDbLine
 10
735.9999999999997
 20
44.50000000000011
 30
0.0
 11
771.0
 21
44.50000000000011
 31
0.0
1001
PHOENIX7010
1002
{
1070
    62
1070
     1
1070
    41
1040
1.0
1002
}
  0
LINE
  5
D54C
102
{ACAD_REACTORS
330
D57B
102
}
330
1F
100
AcDbEntity
  8
0
  6
Continuous
 62
     5
100
AcDbLine
 10
836.0
 20
101.5000000000001
 30
0.0
 11
738.4999999999998
 21
101.5000000000001
 31
0.0
1001
PHOENIX7010
1002
{
1070
    62
1070
     5
1070
    41
1040
1.0
1002
}
  0
LINE
  5
D54D
102
{ACAD_REACTORS
330
D57B
102
}
330
1F
100
AcDbEntity
  8
0
  6
Continuous
 62
     5
100
AcDbLine
 10
836.0
 20
71.00000000000012
 30
0.0
 11
738.4999999999998
 21
71.00000000000012
 31
0.0
1001
PHOENIX7010
1002
{
1070
    62
1070
     5
1070
    41
1040
1.0
1002
}
  0
LINE
  5
D54E
102
{ACAD_REACTORS
330
D57B
102
}
330
1F
100
AcDbEntity
  8
0
  6
Continuous
 62
     5
100
AcDbLine
 10
735.9999999999997
 20
178.0000000000001
 30
0.0
 11
735.9999999999997
 21
5.000000000000113
 31
0.0
1001
PHOENIX7010
1002
{
1070
    62
1070
     5
1070
    41
1040
1.0
1002
}
  0
LINE
  5
D54F
102
{ACAD_REACTORS
330
D57B
102
}
330
1F
100
AcDbEntity
  8
0
  6
Continuous
 62
     5
370
    35
100
AcDbLine
 10
735.9999999999997
 20
28.00000000000011
 30
0.0
 11
836.0
 21
28.00000000000011
 31
0.0
1001
PHOENIX7010
1002
{
1070
    41
1040
1.0
1002
}
  0
LINE
  5
D550
102
{ACAD_REACTORS
330
D57B
102
}
330
1F
100
AcDbEntity
  8
0
  6
Continuous
 62
     5
370
    35
100
AcDbLine
 10
735.9999999999997
 20
23.00000000000011
 30
0.0
 11
836.0
 21
23.00000000000011
 31
0.0
1001
PHOENIX7010
1002
{
1070
    41
1040
1.0
1002
}
  0
LINE
  5
D551
102
{ACAD_REACTORS
330
D57B
102
}
330
1F
100
AcDbEntity
  8
0
  6
Continuous
 62
     5
370
    35
100
AcDbLine
 10
735.9999999999997
 20
23.00000000000011
 30
0.0
 11
836.0
 21
23.00000000000011
 31
0.0
1001
PHOENIX7010
1002
{
1070
    41
1040
1.0
1002
}
  0
LINE
  5
D552
102
{ACAD_REACTORS
330
D57B
102
}
330
1F
100
AcDbEntity
  8
0
  6
Continuous
 62
     1
370
    25
100
AcDbLine
 10
735.9999999999997
 20
14.00000000000011
 30
0.0
 11
836.0
 21
14.00000000000011
 31
0.0
1001
PHOENIX7010
1002
{
1070
    41
1040
1.0
1002
}
  0
LINE
  5
D553
102
{ACAD_REACTORS
330
D57B
102
}
330
1F
100
AcDbEntity
  8
0
  6
Continuous
 62
     5
100
AcDbLine
 10
771.0
 20
71.00000000000012
 30
0.0
 11
771.0
 21
37.50000000000011
 31
0.0
1001
PHOENIX7010
1002
{
1070
    62
1070
     5
1070
    41
1040
1.0
1002
}
  0
LINE
  5
D554
102
{ACAD_REACTORS
330
D57B
102
}
330
1F
100
AcDbEntity
  8
0
  6
Continuous
 62
     5
100
AcDbLine
 10
771.0
 20
28.00000000000011
 30
0.0
 11
771.0
 21
5.000000000000113
 31
0.0
1001
PHOENIX7010
1002
{
1070
    62
1070
     5
1070
    41
1040
1.0
1002
}
  0
MTEXT
  5
D555
102
{ACAD_REACTORS
330
D57B
102
}
330
1F
100
AcDbEntity
  8
0
  6
Continuous
 62
     5
370
    35
100
AcDbMText
 10
793.1764856757657
 20
29.24888752318759
 30
0.0
 40
2.5
 41
0.0
 71
     7
 72
     5
  1
Blatt/{\Q20;Sheet:   }1   /   1
 73
     1
 44
1.0
1001
PHOENIX7010
1002
{
1070
    41
1040
1.0
1002
}
1001
ACAD
1000
MTEXTBEGIN
1070
    73
1070
     1
1070
    44
1040
1.0
1070
    74
1070
     0
1000
MTEXTEND
  0
MTEXT
  5
D556
102
{ACAD_REACTORS
330
D57B
102
}
330
1F
100
AcDbEntity
  8
0
  6
Continuous
 62
     5
370
    35
100
AcDbMText
 10
772.528991264694
 20
24.52073237545153
 30
0.0
 40
2.5
 41
0.0
 71
     7
 72
     5
  1
Datum/{\Q20;Date}
 73
     1
 44
1.0
1001
PHOENIX7010
1002
{
1070
    41
1040
1.0
1002
}
1001
ACAD
1000
MTEXTBEGIN
1070
    73
1070
     1
1070
    44
1040
1.0
1070
    74
1070
     0
1000
MTEXTEND
  0
MTEXT
  5
D557
102
{ACAD_REACTORS
330
D57B
102
}
330
1F
100
AcDbEntity
  8
0
  6
Continuous
 62
     5
370
    35
100
AcDbMText
 10
796.528991264694
 20
23.72415732371144
 30
0.0
 40
2.5
 41
0.0
 71
     7
 72
     5
  1
{\T0.9;Unterschrift/\Q20;Signature}
 73
     1
 44
1.0
1001
PHOENIX7010
1002
{
1070
    41
1040
1.0
1002
}
1001
ACAD
1000
MTEXTBEGIN
1070
    73
1070
     1
1070
    44
1040
1.0
1070
    74
1070
     0
1000
MTEXTEND
  0
MTEXT
  5
D558
102
{ACAD_REACTORS
330
D57B
102
}
330
1F
100
AcDbEntity
  8
0
  6
Continuous
 62
     5
370
    35
100
AcDbMText
 10
737.5289912646938
 20
15.24888752318759
 30
0.0
 40
2.5
 41
0.0
 71
     7
 72
     5
  1
geprüft/\P{\Q20;checked}
 73
     1
 44
1.0
1001
PHOENIX7010
1002
{
1070
    41
1040
1.0
1002
}
1001
ACAD
1000
MTEXTBEGIN
1070
    73
1070
     1
1070
    44
1040
1.0
1070
    74
1070
     0
1000
MTEXTEND
  0
MTEXT
  5
D559
102
{ACAD_REACTORS
330
D57B
102
}
330
1F
100
AcDbEntity
  8
0
  6
Continuous
 62
     5
370
    35
100
AcDbMText
 10
737.5289912646938
 20
6.24888752318759
 30
0.0
 40
2.5
 41
0.0
 71
     7
 72
     5
  1
{\T0.9;Fertigungsfreigabe/\P\Q20;Production release}
 73
     1
 44
1.0
1001
PHOENIX7010
1002
{
1070
    41
1040
1.0
1002
}
1001
ACAD
1000
MTEXTBEGIN
1070
    73
1070
     1
1070
    44
1040
1.0
1070
    74
1070
     0
1000
MTEXTEND
  0
MTEXT
  5
D55A
102
{ACAD_REACTORS
330
D57B
102
}
330
1F
100
AcDbEntity
  8
0
  6
Continuous
 62
     5
370
    35
100
AcDbMText
 10
763.2178658257173
 20
33.60592166613912
 30
0.0
 40
2.5
 41
0.0
 71
     7
 72
     5
  1
2 400 024
 73
     1
 44
1.0
1001
PHOENIX7010
1002
{
1070
    41
1040
1.0
1002
}
1001
ACAD
1000
MTEXTBEGIN
1070
    73
1070
     1
1070
    44
1040
1.0
1070
    74
1070
     0
1000
MTEXTEND
  0
MTEXT
  5
D55B
102
{ACAD_REACTORS
330
D57B
102
}
330
1F
100
AcDbEntity
  8
0
  6
Continuous
 62
     5
370
    35
100
AcDbMText
 10
763.2178658257173
 20
29.24888752318759
 30
0.0
 40
2.5
 41
0.0
 71
     7
 72
     5
  1
07.08.2003 NK
 73
     1
 44
1.0
1001
PHOENIX7010
1002
{
1070
    41
1040
1.0
1002
}
1001
ACAD
1000
MTEXTBEGIN
1070
    73
1070
     1
1070
    44
1040
1.0
1070
    74
1070
     0
1000
MTEXTEND
  0
LINE
  5
D55C
102
{ACAD_REACTORS
330
D57B
102
}
330
1F
100
AcDbEntity
  8
0
  6
Continuous
 62
     5
100
AcDbLine
 10
836.0
 20
149.5000000000001
 30
0.0
 11
738.4999999999998
 21
149.5000000000001
 31
0.0
1001
PHOENIX7010
1002
{
1070
    41
1040
1.0
1002
}
  0
LINE
  5
D55D
102
{ACAD_REACTORS
330
D57B
102
}
330
1F
100
AcDbEntity
  8
0
  6
Continuous
 62
     5
370
    35
100
AcDbLine
 10
836.0
 20
169.5000000000001
 30
0.0
 11
738.4999999999998
 21
169.5000000000001
 31
0.0
1001
PHOENIX7010
1002
{
1070
    41
1040
1.0
1002
}
  0
LINE
  5
D55E
102
{ACAD_REACTORS
330
D57B
102
}
330
1F
100
AcDbEntity
  8
0
  6
Continuous
 62
     5
370
    35
100
AcDbLine
 10
836.0
 20
180.5000000000001
 30
0.0
 11
738.4999999999998
 21
180.5000000000001
 31
0.0
1001
PHOENIX7010
1002
{
1070
    41
1040
1.0
1002
}
  0
ARC
  5
D55F
102
{ACAD_REACTORS
330
D57B
102
}
330
1F
100
AcDbEntity
  8
0
  6
Continuous
 62
     5
100
AcDbCircle
 10
738.4999999999998
 20
147.0000000000001
 30
0.0
 40
2.5
100
AcDbArc
 50
90.0
 51
180.0
1001
PHOENIX7010
1002
{
1070
    41
1040
1.0
1002
}
  0
ARC
  5
D560
102
{ACAD_REACTORS
330
D57B
102
}
330
1F
100
AcDbEntity
  8
0
  6
Continuous
 62
     5
100
AcDbCircle
 10
738.4999999999998
 20
167.0000000000001
 30
0.0
 40
2.5
100
AcDbArc
 50
90.0
 51
180.0
1001
PHOENIX7010
1002
{
1070
    41
1040
1.0
1002
}
  0
ARC
  5
D561
102
{ACAD_REACTORS
330
D57B
102
}
330
1F
100
AcDbEntity
  8
0
  6
Continuous
 62
     5
100
AcDbCircle
 10
738.4999999999998
 20
178.0000000000001
 30
0.0
 40
2.5
100
AcDbArc
 50
90.0
 51
180.0
1001
PHOENIX7010
1002
{
1070
    41
1040
1.0
1002
}
  0
MTEXT
  5
D562
102
{ACAD_REACTORS
330
D57B
102
}
330
1F
100
AcDbEntity
  8
0
  6
Continuous
 62
     5
370
    35
100
AcDbMText
 10
738.4904144324186
 20
106.1420006354827
 30
0.0
 40
2.0
 41
0.0
 71
     7
 72
     5
  1
{\C1;Bem.: Erstellt nach Vorlage / \Q20;Dim.: constructed by specification:}
 73
     1
 44
1.0
1001
PHOENIX7010
1002
{
1070
    41
1040
1.0
1002
}
1001
ACAD
1000
MTEXTBEGIN
1070
    73
1070
     1
1070
    44
1040
1.0
1070
    74
1070
     0
1000
MTEXTEND
  0
MTEXT
  5
D563
102
{ACAD_REACTORS
330
D57B
102
}
330
1F
100
AcDbEntity
  8
0
  6
Continuous
 62
     5
370
    35
100
AcDbMText
 10
739.2310194173415
 20
103.0621268735634
 30
0.0
 40
2.0
 41
0.0
 71
     7
 72
     5
  1
{\C1;-}
 73
     1
 44
1.0
1001
PHOENIX7010
1002
{
1070
    41
1040
1.0
1002
}
1001
ACAD
1000
MTEXTBEGIN
1070
    73
1070
     1
1070
    44
1040
1.0
1070
    74
1070
     0
1000
MTEXTEND
  0
MTEXT
  5
D564
102
{ACAD_REACTORS
330
D57B
102
}
330
1F
100
AcDbEntity
  8
0
  6
Continuous
 62
     5
370
    35
100
AcDbMText
 10
740.2942762589884
 20
144.7604021928945
 30
0.0
 40
2.5
 41
0.0
 71
     7
 72
     5
  1
{\C1;Allg.Tol.:}
 73
     1
 44
1.0
1001
PHOENIX7010
1002
{
1070
    41
1040
1.0
1002
}
1001
ACAD
1000
MTEXTBEGIN
1070
    73
1070
     1
1070
    44
1040
1.0
1070
    74
1070
     0
1000
MTEXTEND
  0
MTEXT
  5
D565
102
{ACAD_REACTORS
330
D57B
102
}
330
1F
100
AcDbEntity
  8
0
  6
Continuous
 62
     5
370
    35
100
AcDbMText
 10
760.7913305013807
 20
145.7387216645192
 30
0.0
 40
2.5
 41
0.0
 71
     7
 72
     5
  1
DIN 1688 Bl.4 für Druckgussteil
 73
     1
 44
1.0
1001
PHOENIX7010
1002
{
1070
    41
1040
1.0
1002
}
1001
ACAD
1000
MTEXTBEGIN
1070
    73
1070
     1
1070
    44
1040
1.0
1070
    74
1070
     0
1000
MTEXTEND
  0
MTEXT
  5
D566
102
{ACAD_REACTORS
330
D57B
102
}
330
1F
100
AcDbEntity
  8
0
  6
Continuous
 62
     5
370
    35
100
AcDbMText
 10
760.7913305013807
 20
141.4898652776518
 30
0.0
 40
2.5
 41
0.0
 71
     7
 72
     5
  1
DIN ISO 2768-mk für Bearbeitung
 73
     1
 44
1.0
1001
PHOENIX7010
1002
{
1070
    41
1040
1.0
1002
}
1001
ACAD
1000
MTEXTBEGIN
1070
    73
1070
     1
1070
    44
1040
1.0
1070
    74
1070
     0
1000
MTEXTEND
  0
MTEXT
  5
D567
102
{ACAD_REACTORS
330
D57B
102
}
330
1F
100
AcDbEntity
  8
0
  6
Continuous
 62
     5
370
    35
100
AcDbMText
 10
760.7913305013807
 20
133.1355030484363
 30
0.0
 40
2.5
 41
0.0
 71
     7
 72
     5
  1
{\Q20;DIN ISO 2768-mk for machining}
 73
     1
 44
1.0
1001
PHOENIX7010
1002
{
1070
    41
1040
1.0
1002
}
1001
ACAD
1000
MTEXTBEGIN
1070
    73
1070
     1
1070
    44
1040
1.0
1070
    74
1070
     0
1000
MTEXTEND
  0
MTEXT
  5
D568
102
{ACAD_REACTORS
330
D57B
102
}
330
1F
100
AcDbEntity
  8
0
  6
Continuous
 62
     5
370
    35
100
AcDbMText
 10
760.7913305013807
 20
137.3843594353037
 30
0.0
 40
2.5
 41
0.0
 71
     7
 72
     5
  1
{\Q20;die-cast part acc. DIN 1688 Bl.4}
 73
     1
 44
1.0
1001
PHOENIX7010
1002
{
1070
    41
1040
1.0
1002
}
1001
ACAD
1000
MTEXTBEGIN
1070
    73
1070
     1
1070
    44
1040
1.0
1070
    74
1070
     0
1000
MTEXTEND
  0
MTEXT
  5
D569
102
{ACAD_REACTORS
330
D57B
102
}
330
1F
100
AcDbEntity
  8
0
  6
Continuous
 62
     5
370
    35
100
AcDbMText
 10
740.2942762589884
 20
136.406039963679
 30
0.0
 40
2.5
 41
0.0
 71
     7
 72
     5
  1
{\Q20;\C1;Gen.Tol.:}
 73
     1
 44
1.0
1001
PHOENIX7010
1002
{
1070
    41
1040
1.0
1002
}
1001
ACAD
1000
MTEXTBEGIN
1070
    73
1070
     1
1070
    44
1040
1.0
1070
    74
1070
     0
1000
MTEXTEND
  0
MTEXT
  5
D56A
102
{ACAD_REACTORS
330
D57B
102
}
330
1F
100
AcDbEntity
  8
0
  6
Continuous
 62
     5
370
    35
100
AcDbMText
 10
740.2942762589884
 20
164.7604021928945
 30
0.0
 40
2.5
 41
0.0
 71
     7
 72
     5
  1
{\C1;Werkstoff:}
 73
     1
 44
1.0
1001
PHOENIX7010
1002
{
1070
    41
1040
1.0
1002
}
1001
ACAD
1000
MTEXTBEGIN
1070
    73
1070
     1
1070
    44
1040
1.0
1070
    74
1070
     0
1000
MTEXTEND
  0
MTEXT
  5
D56B
102
{ACAD_REACTORS
330
D57B
102
}
330
1F
100
AcDbEntity
  8
0
  6
Continuous
 62
     5
370
    35
100
AcDbMText
 10
760.7913305013807
 20
164.8027118382896
 30
0.0
 40
2.5
 41
0.0
 71
     7
 72
     5
  1
AL
 73
     1
 44
1.0
1001
PHOENIX7010
1002
{
1070
    41
1040
1.0
1002
}
1001
ACAD
1000
MTEXTBEGIN
1070
    73
1070
     1
1070
    44
1040
1.0
1070
    74
1070
     0
1000
MTEXTEND
  0
MTEXT
  5
D56C
102
{ACAD_REACTORS
330
D57B
102
}
330
1F
100
AcDbEntity
  8
0
  6
Continuous
 62
     5
370
    35
100
AcDbMText
 10
740.971247442415
 20
160.5538554514222
 30
0.0
 40
2.5
 41
0.0
 71
     7
 72
     5
  1
-
 73
     1
 44
1.0
1001
PHOENIX7010
1002
{
1070
    41
1040
1.0
1002
}
1001
ACAD
1000
MTEXTBEGIN
1070
    73
1070
     1
1070
    44
1040
1.0
1070
    74
1070
     0
1000
MTEXTEND
  0
MTEXT
  5
D56D
102
{ACAD_REACTORS
330
D57B
102
}
330
1F
100
AcDbEntity
  8
0
  6
Continuous
 62
     5
370
    35
100
AcDbMText
 10
760.7913305013807
 20
156.4483496090741
 30
0.0
 40
2.5
 41
0.0
 71
     7
 72
     5
  1
{\Q20;AL}
 73
     1
 44
1.0
1001
PHOENIX7010
1002
{
1070
    41
1040
1.0
1002
}
1001
ACAD
1000
MTEXTBEGIN
1070
    73
1070
     1
1070
    44
1040
1.0
1070
    74
1070
     0
1000
MTEXTEND
  0
MTEXT
  5
D56E
102
{ACAD_REACTORS
330
D57B
102
}
330
1F
100
AcDbEntity
  8
0
  6
Continuous
 62
     5
370
    35
100
AcDbMText
 10
740.971247442415
 20
152.1994932222068
 30
0.0
 40
2.5
 41
0.0
 71
     7
 72
     5
  1
{\Q20;-}
 73
     1
 44
1.0
1001
PHOENIX7010
1002
{
1070
    41
1040
1.0
1002
}
1001
ACAD
1000
MTEXTBEGIN
1070
    73
1070
     1
1070
    44
1040
1.0
1070
    74
1070
     0
1000
MTEXTEND
  0
MTEXT
  5
D56F
102
{ACAD_REACTORS
330
D57B
102
}
330
1F
100
AcDbEntity
  8
0
  6
Continuous
 62
     5
370
    35
100
AcDbMText
 10
740.2942762589884
 20
156.406039963679
 30
0.0
 40
2.5
 41
0.0
 71
     7
 72
     5
  1
{\Q20;\C1;Material:}
 73
     1
 44
1.0
1001
PHOENIX7010
1002
{
1070
    41
1040
1.0
1002
}
1001
ACAD
1000
MTEXTBEGIN
1070
    73
1070
     1
1070
    44
1040
1.0
1070
    74
1070
     0
1000
MTEXTEND
  0
MTEXT
  5
D570
102
{ACAD_REACTORS
330
D57B
102
}
330
1F
100
AcDbEntity
  8
0
  6
Continuous
 62
     5
370
    35
100
AcDbMText
 10
740.2942762589884
 20
172.2466907925512
 30
0.0
 40
2.5
 41
0.0
 71
     7
 72
     5
  1
{\C1;Artikel-Nr./\P\Q20;Art-No.:}
 73
     1
 44
1.0
1001
PHOENIX7010
1002
{
1070
    41
1040
1.0
1002
}
1001
ACAD
1000
MTEXTBEGIN
1070
    73
1070
     1
1070
    44
1040
1.0
1070
    74
1070
     0
1000
MTEXTEND
  0
MTEXT
  5
D571
102
{ACAD_REACTORS
330
D57B
102
}
330
1F
100
AcDbEntity
  8
0
  6
Continuous
 62
     5
370
    35
100
AcDbMText
 10
764.8410013521215
 20
172.4665922501284
 30
0.0
 40
5.0
 41
0.0
 71
     7
 72
     5
  1
{\C7;-}
 73
     1
 44
1.0
1001
PHOENIX7010
1002
{
1070
    41
1040
1.0
1002
}
1001
ACAD
1000
MTEXTBEGIN
1070
    73
1070
     1
1070
    44
1040
1.0
1070
    74
1070
     0
1000
MTEXTEND
  0
INSERT
  5
D572
102
{ACAD_REACTORS
330
D57B
102
}
330
1F
100
AcDbEntity
  8
0
  6
Continuous
 62
     5
370
    35
100
AcDbBlockReference
  2
PH_GRPBLK
 10
735.9999999999997
 20
37.50000000000011
 30
0.0
1001
PHOENIX7010
1002
{
1070
    41
1040
1.0
1002
}
  0
MTEXT
  5
D573
102
{ACAD_REACTORS
330
D57B
102
}
330
1F
100
AcDbEntity
  8
0
  6
Continuous
 62
     5
370
    35
100
AcDbMText
 10
739.9304981780733
 20
89.18090043987115
 30
0.0
 40
4.0
 41
0.0
 71
     7
 72
     5
  1
{\C7;A 140}
 73
     1
 44
1.0
1001
PHOENIX7010
1002
{
1070
    41
1040
1.0
1002
}
1001
ACAD
1000
MTEXTBEGIN
1070
    73
1070
     1
1070
    44
1040
1.0
1070
    74
1070
     0
1000
MTEXTEND
  0
MTEXT
  5
D574
102
{ACAD_REACTORS
330
D57B
102
}
330
1F
100
AcDbEntity
  8
0
  6
Continuous
 62
     5
370
    35
100
AcDbMText
 10
739.9304981780733
 20
82.18090043987116
 30
0.0
 40
4.0
 41
0.0
 71
     7
 72
     5
  1
{\C7;GRUNDZEICHNUNG/\Q20;Basic drawing}
 73
     1
 44
1.0
1001
PHOENIX7010
1002
{
1070
    41
1040
1.0
1002
}
1001
ACAD
1000
MTEXTBEGIN
1070
    73
1070
     1
1070
    44
1040
1.0
1070
    74
1070
     0
1000
MTEXTEND
  0
MTEXT
  5
D575
102
{ACAD_REACTORS
330
D57B
102
}
330
1F
100
AcDbEntity
  8
0
  6
Continuous
 62
     5
370
    35
100
AcDbMText
 10
739.9304981780733
 20
75.18090043987115
 30
0.0
 40
4.0
 41
0.0
 71
     7
 72
     5
  1
{\C7;-}
 73
     1
 44
1.0
1001
PHOENIX7010
1002
{
1070
    41
1040
1.0
1002
}
1001
ACAD
1000
MTEXTBEGIN
1070
    73
1070
     1
1070
    44
1040
1.0
1070
    74
1070
     0
1000
MTEXTEND
  0
ENDSEC
  0
SECTION
  2
OBJECTS
  0
DICTIONARY
  5
C
330
0
100
AcDbDictionary
281
     1
  3
ACAD_COLOR
350
B821
  3
ACAD_GROUP
350
D
  3
ACAD_LAYOUT
350
1A
  3
ACAD_MATERIAL
350
B820
  3
ACAD_MLEADERSTYLE
350
D44B
  3
ACAD_MLINESTYLE
350
17
  3
ACAD_PLOTSETTINGS
350
19
  3
ACAD_PLOTSTYLENAME
350
E
  3
ACAD_SCALELIST
350
D439
  3
ACAD_TABLESTYLE
350
B9F5
  3
ACAD_VISUALSTYLE
350
D361
  3
ACDB_RECOMPOSE_DATA
350
D609
  3
AcDbVariableDictionary
350
3761
  3
DWGPROPS
350
D60A
  3
PH_OBJREACTOR_DICT
350
49
  3
PH_ROOTGROUP_DICT
350
4A
  3
PH_VARS
350
4B
  0
DICTIONARY
  5
D33A
330
2
100
AcDbDictionary
280
     1
281
     1
  3
ACAD_LAYERFILTERS
360
D33C
  3
ACAD_LAYERSTATES
360
D50D
  3
ACLYDICTIONARY
360
D33B
  0
DICTIONARY
  5
D583
330
10
100
AcDbDictionary
280
     1
281
     1
  3
ADSK_XREC_LAYER_RECONCILED
360
D584
  0
DICTIONARY
  5
D585
330
D338
100
AcDbDictionary
280
     1
281
     1
  3
ADSK_XREC_LAYER_RECONCILED
360
D586
  0
DICTIONARY
  5
D587
330
D391
100
AcDbDictionary
280
     1
281
     1
  3
ADSK_XREC_LAYER_RECONCILED
360
D588
  0
DICTIONARY
  5
D2FA
330
1F
100
AcDbDictionary
280
     1
281
     1
  3
ACAD_SORTENTS
360
D2FB
  0
DICTIONARY
  5
D607
330
D51D
100
AcDbDictionary
280
     1
281
     1
  3
ACAD_MTEXT_2008_RT
360
D608
  0
DICTIONARY
  5
B821
102
{ACAD_REACTORS
330
C
102
}
330
C
100
AcDbDictionary
281
     1
  0
DICTIONARY
  5
D
102
{ACAD_REACTORS
330
C
102
}
330
C
100
AcDbDictionary
281
     1
  3
*A1
350
9D8
  3
*A2
350
25B3
  3
*A3
350
4553
  3
*A4
350
8186
  3
*A5
350
AD1F
  0
DICTIONARY
  5
1A
102
{ACAD_REACTORS
330
C
102
}
330
C
100
AcDbDictionary
281
     1
  3
Layout1
350
1E
  3
Layout2
350
26
  3
Model
350
22
  0
DICTIONARY
  5
B820
102
{ACAD_REACTORS
330
C
102
}
330
C
100
AcDbDictionary
281
     1
  3
ByBlock
350
D35F
  3
ByLayer
350
D35E
  3
Global
350
D360
  0
DICTIONARY
  5
D44B
102
{ACAD_REACTORS
330
C
102
}
330
C
100
AcDbDictionary
281
     1
  3
Standard
350
D44C
  0
DICTIONARY
  5
17
102
{ACAD_REACTORS
330
C
102
}
330
C
100
AcDbDictionary
281
     1
  3
Standard
350
18
  0
DICTIONARY
  5
19
102
{ACAD_REACTORS
330
C
102
}
330
C
100
AcDbDictionary
281
     1
  0
ACDBDICTIONARYWDFLT
  5
E
102
{ACAD_REACTORS
330
C
102
}
330
C
100
AcDbDictionary
281
     1
  3
Normal
350
F
100
AcDbDictionaryWithDefault
340
F
  0
DICTIONARY
  5
D439
102
{ACAD_REACTORS
330
C
102
}
330
C
100
AcDbDictionary
281
     1
  3
A0
350
D43A
  3
A1
350
D43B
  3
A2
350
D43C
  3
A3
350
D43D
  3
A4
350
D43E
  3
A5
350
D43F
  3
A6
350
D440
  3
A7
350
D441
  3
A8
350
D442
  3
A9
350
D443
  3
B0
350
D444
  3
B1
350
D445
  3
B2
350
D446
  3
B3
350
D447
  3
B4
350
D448
  3
B5
350
D449
  3
B6
350
D44A
  0
DICTIONARY
  5
B9F5
102
{ACAD_REACTORS
330
C
102
}
330
C
100
AcDbDictionary
281
     1
  3
Standard
350
B9F6
  0
DICTIONARY
  5
D361
102
{ACAD_REACTORS
330
C
102
}
330
C
100
AcDbDictionary
281
     1
  3
2dWireframe
350
D367
  3
3D Hidden
350
D369
  3
3dWireframe
350
D368
  3
Basic
350
D366
  3
Brighten
350
D36D
  3
ColorChange
350
D371
  3
Conceptual
350
D36A
  3
Dim
350
D36C
  3
EdgeColorOff
350
D438
  3
Facepattern
350
D370
  3
Flat
350
D362
  3
FlatWithEdges
350
D363
  3
Gouraud
350
D364
  3
GouraudWithEdges
350
D365
  3
JitterOff
350
D436
  3
Linepattern
350
D36F
  3
OverhangOff
350
D437
  3
Realistic
350
D36B
  3
Thicken
350
D36E
  0
XRECORD
  5
D609
102
{ACAD_REACTORS
330
C
102
}
330
C
100
AcDbXrecord
280
     1
 90
        1
330
B9F6
330
D51D
  0
DICTIONARY
  5
3761
102
{ACAD_REACTORS
330
C
102
}
330
C
100
AcDbDictionary
281
     1
  3
CANNOSCALE
350
D5F9
  3
CMLEADERSTYLE
350
D5F7
  3
CTABLESTYLE
350
BD13
  3
DIMASSOC
350
3762
  3
INDEXCTL
350
D604
  3
LAYEREVAL
350
D5FB
  3
LAYERNOTIFY
350
D5FC
  3
LIGHTINGUNITS
350
D5FA
  3
MSLTSCALE
350
D5F8
  3
PROJECTNAME
350
B9F3
  3
SORTENTS
350
D603
  3
XCLIPFRAME
350
D605
  0
XRECORD
  5
D60A
102
{ACAD_REACTORS
330
C
102
}
330
C
100
AcDbXrecord
280
     1
  1
DWGPROPS COOKIE
  2

  3

  4

  6

  7

  8
nowak
  9

300
=
301
=
302
=
303
=
304
=
305
=
306
=
307
=
308
=
309
=
 40
0.8369398148148148
 41
2452842.567244873
 42
2455905.374909074
  1

 90
        0
  0
DICTIONARY
  5
49
102
{ACAD_REACTORS
330
C
102
}
330
C
100
AcDbDictionary
281
     1
  3
*A1
350
B494
  3
*A10
350
A2BB
  3
*A11
350
A2B9
  3
*A2
350
8F80
  3
*A3
350
8F81
  3
*A4
350
8F82
  3
*A5
350
A2BA
  3
*A6
350
B495
  3
*A7
350
B496
  3
*A8
350
B040
  3
*A9
350
B041
  0
DICTIONARY
  5
4A
102
{ACAD_REACTORS
330
C
102
}
330
C
100
AcDbDictionary
281
     1
  3
$PH$AAAM1-2
350
7CC8
  3
$PH$AABS1H
350
D465
  3
$PH$AABVSchriftfeld-Grund-Bearb
350
D576
  3
PH_GRPMEMBERS
350
394C
  0
PH_VARS
  5
4B
102
{ACAD_REACTORS
330
C
102
}
330
C
  0
DICTIONARY
  5
D33C
102
{ACAD_REACTORS
330
D33A
102
}
330
D33A
100
AcDbDictionary
281
     1
  0
DICTIONARY
  5
D50D
102
{ACAD_REACTORS
330
D33A
102
}
330
D33A
100
AcDbDictionary
281
     1
  0
DICTIONARY
  5
D33B
102
{ACAD_REACTORS
330
D33A
102
}
330
D33A
100
AcDbDictionary
281
     1
1001
ACAD
1000
<All
  0
XRECORD
  5
D584
102
{ACAD_REACTORS
330
D583
102
}
330
D583
100
AcDbXrecord
280
     1
290
     1
  0
XRECORD
  5
D586
102
{ACAD_REACTORS
330
D585
102
}
330
D585
100
AcDbXrecord
280
     1
290
     1
  0
XRECORD
  5
D588
102
{ACAD_REACTORS
330
D587
102
}
330
D587
100
AcDbXrecord
280
     1
290
     1
  0
SORTENTSTABLE
  5
D2FB
102
{ACAD_REACTORS
330
D2FA
102
}
330
D2FA
100
AcDbSortentsTable
330
1F
331
7D7F
  5
7D80
331
7D7B
  5
7D7C
331
7F79
  5
7F7A
331
7D77
  5
7D77
331
7F3E
  5
7F43
331
7D73
  5
7D73
331
7F75
  5
7F76
331
80BC
  5
80BE
331
7F3A
  5
7F3B
331
80B8
  5
80BC
331
7F71
  5
7F72
331
817D
  5
8184
331
80FB
  5
8100
331
80F7
  5
80FA
331
8175
  5
8178
331
80F3
  5
80F6
331
C24C
  5
C24F
331
7D6F
  5
7D6F
331
7F32
  5
7F33
331
7D6B
  5
7D6B
331
80B0
  5
80B2
331
7D67
  5
7D67
331
7D63
  5
7D63
331
7F61
  5
7F62
331
80A8
  5
80AA
331
80EB
  5
80EE
331
812A
  5
8133
331
80E7
  5
80EA
331
8169
  5
8175
331
8165
  5
8168
331
80E3
  5
80E6
331
8122
  5
8125
331
8161
  5
8164
331
C244
  5
C247
331
C22C
  5
C22F
331
7F26
  5
7F27
331
7F5D
  5
7F5E
331
80A4
  5
80A5
331
AE8C
  5
B816
331
809C
  5
80A3
331
7F55
  5
7F56
331
8098
  5
8099
331
7F51
  5
7F53
331
811E
  5
8121
331
811A
  5
811D
331
815D
  5
8160
331
80DB
  5
80E0
331
8116
  5
8119
331
80D7
  5
80DA
331
8159
  5
815C
331
8155
  5
8158
331
80D3
  5
80D6
331
8112
  5
8115
331
8151
  5
8154
331
C21C
  5
C225
331
B817
  5
B9FA
331
7CC7
  5
7CC7
331
8094
  5
8095
331
8090
  5
8091
331
7F49
  5
7F4A
331
7D86
  5
7D87
331
7D82
  5
7D83
331
810E
  5
8111
331
80CF
  5
80D2
331
8CAC
  5
B23E
331
814D
  5
8150
331
80CB
  5
80CE
331
810A
  5
810D
331
80C7
  5
80CA
331
8184
  5
AE8C
331
80C3
  5
80C6
331
7D7E
  5
7D7F
331
7D7A
  5
7D7B
331
80BF
  5
80C1
331
7F3D
  5
7F3E
331
80BB
  5
80BD
331
7F70
  5
7F71
331
80FE
  5
8104
331
80FA
  5
80FE
331
8178
  5
8183
331
80F6
  5
80F9
331
8135
  5
8142
331
80F2
  5
80F5
331
8170
  5
8177
331
C24F
  5
D2FD
331
C24B
  5
C24E
331
7D6E
  5
7D6E
331
80B7
  5
80BB
331
7F35
  5
7F3A
331
7D6A
  5
7D6A
331
7F31
  5
7F32
331
7D66
  5
7D66
331
80AF
  5
80B1
331
7F29
  5
7F2A
331
80AB
  5
80B0
331
7F64
  5
7F67
331
7D62
  5
7D62
331
7F60
  5
7F61
331
80EE
  5
80F4
331
80EA
  5
80ED
331
8129
  5
812C
331
8125
  5
812A
331
8168
  5
8170
331
80E6
  5
80E9
331
80E2
  5
80E5
331
8121
  5
8124
331
8160
  5
8163
331
C247
  5
C24A
331
C243
  5
C246
331
C22F
  5
C241
331
7F25
  5
7F26
331
80A7
  5
80A8
331
7D5E
  5
7D5E
331
80A3
  5
80A4
331
7F5C
  5
7F5D
331
809B
  5
809C
331
7F54
  5
7F55
331
7F50
  5
7F51
331
80DE
  5
80E2
331
811D
  5
8120
331
80DA
  5
80DE
331
815C
  5
815F
331
8119
  5
811C
331
8158
  5
815B
331
80D6
  5
80D9
331
8115
  5
8118
331
80D2
  5
80D5
331
8154
  5
8157
331
8111
  5
8114
331
C227
  5
C22A
331
C21B
  5
C21E
331
B816
  5
B9F9
331
8097
  5
8098
331
7CC6
  5
7CC6
331
8093
  5
8094
331
7F48
  5
7F49
331
808F
  5
8090
331
7D85
  5
7D86
331
7F44
  5
7F47
331
80CE
  5
80D1
331
810D
  5
8110
331
814C
  5
814F
331
80CA
  5
80CD
331
8109
  5
810C
331
8105
  5
8109
331
80C6
  5
80C9
331
80C2
  5
80C5
331
8183
  5
9F79
331
8144
  5
814C
331
8140
  5
8145
331
7D7D
  5
7D7E
331
B23E
  5
B817
331
7D79
  5
7D7A
331
7F3C
  5
7F3D
331
80BE
  5
80C0
331
80FD
  5
8103
331
80F9
  5
80FD
331
8177
  5
817E
331
80F5
  5
80F8
331
8134
  5
8140
331
C24E
  5
D2FC
331
C24A
  5
C24D
331
7F34
  5
7F35
331
7D6D
  5
7D6D
331
7F6F
  5
7F70
331
7F30
  5
7F31
331
80B2
  5
80B8
331
7D69
  5
7D69
331
7F67
  5
7F6A
331
7D65
  5
7D65
331
7F63
  5
7F64
331
80AA
  5
80AF
331
7D61
  5
7D61
331
7F28
  5
7F29
331
812C
  5
8135
331
816F
  5
8176
331
80ED
  5
80F3
331
80E9
  5
80EC
331
8128
  5
812B
331
8167
  5
816F
331
80E5
  5
80E8
331
8124
  5
8129
331
8163
  5
8166
331
80E1
  5
80E4
331
8120
  5
8123
331
C246
  5
C249
331
C242
  5
C245
331
C22E
  5
C240
331
C22A
  5
C22D
331
7F5F
  5
7F60
331
80A6
  5
80A7
331
7D5D
  5
7D5D
331
7F24
  5
7F25
331
7F20
  5
7F24
331
7F57
  5
7F5C
331
809A
  5
809B
331
7F53
  5
7F54
331
815F
  5
8162
331
80DD
  5
80E1
331
811C
  5
811F
331
8118
  5
811B
331
80D9
  5
80DD
331
815B
  5
815E
331
8157
  5
815A
331
80D5
  5
80D8
331
8114
  5
8117
331
8153
  5
8156
331
80D1
  5
80D4
331
8110
  5
8113
331
C226
  5
C229
331
C21E
  5
C227
331
B815
  5
B818
331
7F4F
  5
7F50
331
8096
  5
8097
331
7D8C
  5
7F1F
331
8092
  5
8093
331
7F4B
  5
7F4E
331
7D88
  5
7D8B
331
7D84
  5
7D85
331
7F47
  5
7F48
331
808E
  5
808F
331
7F43
  5
7F44
331
814F
  5
8152
331
80CD
  5
80D0
331
810C
  5
810F
331
80C9
  5
80CC
331
8108
  5
810B
331
80C5
  5
80C8
331
8104
  5
8108
331
8100
  5
8105
331
80C1
  5
80C4
331
BD36
  5
C21D
331
7D7C
  5
7D7D
331
7F7A
  5
808E
331
7D78
  5
7D79
331
7D74
  5
7D74
331
80BD
  5
80BF
331
7F76
  5
7F79
331
7F3B
  5
7F3C
331
7F72
  5
7F75
331
817E
  5
8CAC
331
80F8
  5
80FB
331
8137
  5
8144
331
8176
  5
817D
331
80F4
  5
80F7
331
8133
  5
8137
331
C249
  5
C24C
331
7D6C
  5
7D6C
331
7F33
  5
7F34
331
7F6A
  5
7F6F
331
80B1
  5
80B7
331
7D68
  5
7D68
331
7D64
  5
7D64
331
80A9
  5
80AB
331
7F62
  5
7F63
331
812B
  5
8134
331
80EC
  5
80F2
331
80E8
  5
80EB
331
9F79
  5
B815
331
8166
  5
8169
331
80E4
  5
80E7
331
8123
  5
8128
331
80E0
  5
80E3
331
8162
  5
8165
331
C241
  5
C244
331
C22D
  5
C230
331
7F27
  5
7F28
331
C229
  5
C22C
331
7D5C
  5
7D5C
331
80A5
  5
80A6
331
7F5E
  5
7F5F
331
7F1F
  5
7F20
331
7F56
  5
7F57
331
B818
  5
B9FB
331
8099
  5
809A
331
811F
  5
8122
331
811B
  5
811E
331
80D8
  5
80DB
331
815A
  5
815D
331
8117
  5
811A
331
8156
  5
8159
331
80D4
  5
80D7
331
8113
  5
8116
331
80D0
  5
80D3
331
8152
  5
8155
331
C225
  5
C228
331
7D8B
  5
7D8C
331
7F4E
  5
7F4F
331
8095
  5
8096
331
7F4A
  5
7F4B
331
8091
  5
8092
331
7D87
  5
7D88
331
7D83
  5
7D84
331
810F
  5
8112
331
814E
  5
8151
331
80CC
  5
80CF
331
810B
  5
810E
331
8107
  5
810A
331
80C8
  5
80CB
331
8103
  5
8107
331
8146
  5
814E
331
80C4
  5
80C7
331
80C0
  5
80C2
331
8142
  5
8146
  0
XRECORD
  5
D608
102
{ACAD_REACTORS
330
D607
102
}
330
D607
100
AcDbXrecord
280
     1
 40
46997.0
  1
\pxql;{\fArial|b1|i0|c0|p34;\W1.1;BOPLA}
  0
GROUP
  5
9D8
102
{ACAD_REACTORS
330
D
102
}
330
D
100
AcDbGroup
300

 70
     0
 71
     0
  0
GROUP
  5
25B3
102
{ACAD_REACTORS
330
D
102
}
330
D
100
AcDbGroup
300

 70
     0
 71
     0
  0
GROUP
  5
4553
102
{ACAD_REACTORS
330
D
102
}
330
D
100
AcDbGroup
300

 70
     0
 71
     0
  0
GROUP
  5
8186
102
{ACAD_REACTORS
330
D
102
}
330
D
100
AcDbGroup
300

 70
     0
 71
     0
  0
GROUP
  5
AD1F
102
{ACAD_REACTORS
330
D
102
}
330
D
100
AcDbGroup
300

 70
     0
 71
     0
  0
LAYOUT
  5
1E
102
{ACAD_XDICTIONARY
360
D60B
102
}
102
{ACAD_REACTORS
330
1A
102
}
330
1A
100
AcDbPlotSettings
  1

  2

  4

  6

 40
0.0
 41
0.0
 42
0.0
 43
0.0
 44
0.0
 45
0.0
 46
0.0
 47
0.0
 48
0.0
 49
0.0
140
0.0
141
0.0
142
1.0
143
1.0
 70
   688
 72
     0
 73
     0
 74
     5
  7
HP_SW.ctb
 75
    16
147
1.0
148
0.0
149
0.0
100
AcDbLayout
  1
Layout1
 70
     1
 71
     1
 10
0.0
 20
0.0
 11
420.0
 21
297.0
 12
0.0
 22
0.0
 32
0.0
 14
1.000000000000000E+20
 24
1.000000000000000E+20
 34
1.000000000000000E+20
 15
-1.000000000000000E+20
 25
-1.000000000000000E+20
 35
-1.000000000000000E+20
146
0.0
 13
0.0
 23
0.0
 33
0.0
 16
1.0
 26
0.0
 36
0.0
 17
0.0
 27
1.0
 37
0.0
 76
     0
330
1B
  0
LAYOUT
  5
26
102
{ACAD_XDICTIONARY
360
D60E
102
}
102
{ACAD_REACTORS
330
1A
102
}
330
1A
100
AcDbPlotSettings
  1

  2

  4

  6

 40
0.0
 41
0.0
 42
0.0
 43
0.0
 44
0.0
 45
0.0
 46
0.0
 47
0.0
 48
0.0
 49
0.0
140
0.0
141
0.0
142
1.0
143
1.0
 70
   688
 72
     0
 73
     0
 74
     5
  7
HP_SW.ctb
 75
    16
147
1.0
148
0.0
149
0.0
100
AcDbLayout
  1
Layout2
 70
     1
 71
     2
 10
0.0
 20
0.0
 11
12.0
 21
9.0
 12
0.0
 22
0.0
 32
0.0
 14
0.0
 24
0.0
 34
0.0
 15
0.0
 25
0.0
 35
0.0
146
0.0
 13
0.0
 23
0.0
 33
0.0
 16
1.0
 26
0.0
 36
0.0
 17
0.0
 27
1.0
 37
0.0
 76
     0
330
23
  0
LAYOUT
  5
22
102
{ACAD_XDICTIONARY
360
D590
102
}
102
{ACAD_REACTORS
330
1A
102
}
330
1A
100
AcDbPlotSettings
  1

  2
HP 500
  4
User1644
  6

 40
0.0
 41
0.0
 42
0.0
 43
0.0
 44
594.0
 45
420.0
 46
0.0
 47
0.2282996432818152
 48
0.0
 49
0.0
140
0.0
141
0.0
142
1.0
143
1.415824915824915
 70
 11956
 72
     1
 73
     0
 74
     2
  7
HP_SW.ctb
 75
     0
147
0.7063020214030916
148
0.0
149
0.0
100
AcDbLayout
  1
Model
 70
     1
 71
     0
 10
0.0
 20
0.0
 11
12.0
 21
9.0
 12
0.0
 22
0.0
 32
0.0
 14
0.0
 24
0.0
 34
0.0
 15
0.0
 25
0.0
 35
0.0
146
0.0
 13
0.0
 23
0.0
 33
0.0
 16
1.0
 26
0.0
 36
0.0
 17
0.0
 27
1.0
 37
0.0
 76
     0
330
1F
331
D35C
1001
ACAD_PSEXT
1000
HP 500
1000
HP DesignJet 500 42+HPGL2 Card
1000
IP_194.175.253.141
1000

1070
     0
  0
MATERIAL
  5
D35F
102
{ACAD_XDICTIONARY
360
D613
102
}
102
{ACAD_REACTORS
330
B820
102
}
330
B820
100
AcDbMaterial
  1
ByBlock
 73
     1
 78
     1
172
     1
176
     1
270
     1
274
     1
  0
MATERIAL
  5
D35E
102
{ACAD_XDICTIONARY
360
D611
102
}
102
{ACAD_REACTORS
330
B820
102
}
330
B820
100
AcDbMaterial
  1
ByLayer
 73
     1
 78
     1
172
     1
176
     1
270
     1
274
     1
  0
MATERIAL
  5
D360
102
{ACAD_XDICTIONARY
360
D615
102
}
102
{ACAD_REACTORS
330
B820
102
}
330
B820
100
AcDbMaterial
  1
Global
 73
     1
 78
     1
172
     1
176
     1
270
     1
274
     1
  0
MLEADERSTYLE
  5
D44C
102
{ACAD_REACTORS
330
D44B
102
}
330
D44B
100
AcDbMLeaderStyle
170
     2
171
     1
172
     0
 90
        2
 40
0.0
 41
0.0
173
     1
 91
-1056964608
340
14
 92
       -2
290
     1
 42
2.0
291
     1
 43
0.36
  3
Standard
 44
4.0
300

342
11
174
     1
178
     6
175
     1
176
     0
 93
-1056964608
 45
4.0
292
     0
297
     0
 46
4.0
 94
-1056964608
 47
1.0
 49
1.0
140
1.0
293
     1
141
0.0
294
     1
177
     0
142
1.0
295
     0
296
     0
143
0.125
1001
ACAD_MLEADERVER
1070
     2
  0
MLINESTYLE
  5
18
102
{ACAD_REACTORS
330
17
102
}
330
17
100
AcDbMlineStyle
  2
STANDARD
 70
     0
  3

 62
   256
 51
90.0
 52
90.0
 71
     2
 49
0.5
 62
   256
  6
BYLAYER
 49
-0.5
 62
   256
  6
BYLAYER
  0
ACDBPLACEHOLDER
  5
F
102
{ACAD_REACTORS
330
E
102
}
330
E
  0
SCALE
  5
D43A
102
{ACAD_REACTORS
330
D439
102
}
330
D439
100
AcDbScale
 70
     0
300
1:1
140
1.0
141
1.0
290
     1
  0
SCALE
  5
D43B
102
{ACAD_REACTORS
330
D439
102
}
330
D439
100
AcDbScale
 70
     0
300
1:2
140
1.0
141
2.0
290
     0
  0
SCALE
  5
D43C
102
{ACAD_REACTORS
330
D439
102
}
330
D439
100
AcDbScale
 70
     0
300
1:4
140
1.0
141
4.0
290
     0
  0
SCALE
  5
D43D
102
{ACAD_REACTORS
330
D439
102
}
330
D439
100
AcDbScale
 70
     0
300
1:5
140
1.0
141
5.0
290
     0
  0
SCALE
  5
D43E
102
{ACAD_REACTORS
330
D439
102
}
330
D439
100
AcDbScale
 70
     0
300
1:8
140
1.0
141
8.0
290
     0
  0
SCALE
  5
D43F
102
{ACAD_REACTORS
330
D439
102
}
330
D439
100
AcDbScale
 70
     0
300
1:10
140
1.0
141
10.0
290
     0
  0
SCALE
  5
D440
102
{ACAD_REACTORS
330
D439
102
}
330
D439
100
AcDbScale
 70
     0
300
1:16
140
1.0
141
16.0
290
     0
  0
SCALE
  5
D441
102
{ACAD_REACTORS
330
D439
102
}
330
D439
100
AcDbScale
 70
     0
300
1:20
140
1.0
141
20.0
290
     0
  0
SCALE
  5
D442
102
{ACAD_REACTORS
330
D439
102
}
330
D439
100
AcDbScale
 70
     0
300
1:30
140
1.0
141
30.0
290
     0
  0
SCALE
  5
D443
102
{ACAD_REACTORS
330
D439
102
}
330
D439
100
AcDbScale
 70
     0
300
1:40
140
1.0
141
40.0
290
     0
  0
SCALE
  5
D444
102
{ACAD_REACTORS
330
D439
102
}
330
D439
100
AcDbScale
 70
     0
300
1:50
140
1.0
141
50.0
290
     0
  0
SCALE
  5
D445
102
{ACAD_REACTORS
330
D439
102
}
330
D439
100
AcDbScale
 70
     0
300
1:100
140
1.0
141
100.0
290
     0
  0
SCALE
  5
D446
102
{ACAD_REACTORS
330
D439
102
}
330
D439
100
AcDbScale
 70
     0
300
2:1
140
2.0
141
1.0
290
     0
  0
SCALE
  5
D447
102
{ACAD_REACTORS
330
D439
102
}
330
D439
100
AcDbScale
 70
     0
300
4:1
140
4.0
141
1.0
290
     0
  0
SCALE
  5
D448
102
{ACAD_REACTORS
330
D439
102
}
330
D439
100
AcDbScale
 70
     0
300
8:1
140
8.0
141
1.0
290
     0
  0
SCALE
  5
D449
102
{ACAD_REACTORS
330
D439
102
}
330
D439
100
AcDbScale
 70
     0
300
10:1
140
10.0
141
1.0
290
     0
  0
SCALE
  5
D44A
102
{ACAD_REACTORS
330
D439
102
}
330
D439
100
AcDbScale
 70
     0
300
100:1
140
100.0
141
1.0
290
     0
  0
TABLESTYLE
  5
B9F6
102
{ACAD_XDICTIONARY
360
D5CB
102
}
102
{ACAD_REACTORS
330
B9F5
102
}
330
B9F5
100
AcDbTableStyle
  3
Standard
 70
     0
 71
     0
 40
1.5
 41
1.5
280
     0
281
     0
  7
Standard
140
4.5
170
     2
 62
     0
 63
     7
283
     0
274
    -2
284
     1
 64
     0
275
    -2
285
     1
 65
     0
276
    -2
286
     1
 66
     0
277
    -2
287
     1
 67
     0
278
    -2
288
     1
 68
     0
279
    -2
289
     1
 69
     0
  7
Standard
140
6.0
170
     5
 62
     0
 63
     7
283
     0
274
    -2
284
     1
 64
     0
275
    -2
285
     1
 65
     0
276
    -2
286
     1
 66
     0
277
    -2
287
     1
 67
     0
278
    -2
288
     1
 68
     0
279
    -2
289
     1
 69
     0
  7
Standard
140
4.5
170
     5
 62
     0
 63
     7
283
     0
274
    -2
284
     1
 64
     0
275
    -2
285
     1
 65
     0
276
    -2
286
     1
 66
     0
277
    -2
287
     1
 67
     0
278
    -2
288
     1
 68
     0
279
    -2
289
     1
 69
     0
  0
VISUALSTYLE
  5
D367
102
{ACAD_XDICTIONARY
360
D621
102
}
102
{ACAD_REACTORS
330
D361
102
}
330
D361
100
AcDbVisualStyle
  2
2dWireframe
 70
     4
 71
     0
 72
     2
 73
     0
 90
        0
 40
-0.6
 41
-30.0
 62
     5
 63
     7
 74
     1
 91
        4
 64
     7
 65
   257
 75
     1
175
     1
 42
1.0
 92
        0
 66
   257
 43
1.0
 76
     1
 77
     6
 78
     2
 67
     7
 79
     5
170
     0
171
     0
290
     0
174
     0
 93
        1
 44
0.0
173
     0
291
     0
 45
0.0
1001
ACAD
1000
AcDbSavedByObjectVersion
1070
     0
  0
VISUALSTYLE
  5
D369
102
{ACAD_XDICTIONARY
360
D625
102
}
102
{ACAD_REACTORS
330
D361
102
}
330
D361
100
AcDbVisualStyle
  2
3D Hidden
 70
     6
 71
     1
 72
     2
 73
     2
 90
        0
 40
-0.6
 41
-30.0
 62
     5
 63
     7
 74
     2
 91
        2
 64
     7
 65
   257
 75
     2
175
     1
 42
40.0
 92
        0
 66
   257
 43
1.0
 76
     1
 77
     6
 78
     2
 67
     7
 79
     3
170
     0
171
     0
290
     0
174
     0
 93
        1
 44
0.0
173
     0
291
     0
 45
0.0
1001
ACAD
1000
AcDbSavedByObjectVersion
1070
     0
  0
VISUALSTYLE
  5
D368
102
{ACAD_XDICTIONARY
360
D623
102
}
102
{ACAD_REACTORS
330
D361
102
}
330
D361
100
AcDbVisualStyle
  2
3dWireframe
 70
     5
 71
     0
 72
     2
 73
     0
 90
        0
 40
-0.6
 41
-30.0
 62
     5
 63
     7
 74
     1
 91
        4
 64
     7
 65
   257
 75
     1
175
     1
 42
1.0
 92
        0
 66
   257
 43
1.0
 76
     1
 77
     6
 78
     2
 67
     7
 79
     5
170
     0
171
     0
290
     0
174
     0
 93
        1
 44
0.0
173
     0
291
     0
 45
0.0
1001
ACAD
1000
AcDbSavedByObjectVersion
1070
     0
  0
VISUALSTYLE
  5
D366
102
{ACAD_XDICTIONARY
360
D61F
102
}
102
{ACAD_REACTORS
330
D361
102
}
330
D361
100
AcDbVisualStyle
  2
Basic
 70
     7
 71
     1
 72
     0
 73
     1
 90
        0
 40
-0.6
 41
-30.0
 62
     5
 63
     7
 74
     0
 91
        4
 64
     7
 65
   257
 75
     1
175
     1
 42
1.0
 92
        8
 66
     7
 43
1.0
 76
     1
 77
     6
 78
     2
 67
     7
 79
     5
170
     0
171
     0
290
     0
174
     0
 93
        1
 44
0.0
173
     0
291
     1
 45
0.0
1001
ACAD
1000
AcDbSavedByObjectVersion
1070
     0
  0
VISUALSTYLE
  5
D36D
102
{ACAD_XDICTIONARY
360
D62D
102
}
102
{ACAD_REACTORS
330
D361
102
}
330
D361
100
AcDbVisualStyle
  2
Brighten
 70
    12
 71
     2
 72
     2
 73
     0
 90
        0
 40
-0.6
 41
-30.0
 62
     5
 63
     7
 74
     1
 91
        4
 64
     7
 65
   257
 75
     1
175
     1
 42
1.0
 92
        8
 66
     7
 43
1.0
 76
     1
 77
     6
 78
     2
 67
     7
 79
     5
170
     0
171
     0
290
     0
174
     0
 93
        1
 44
50.0
173
     0
291
     1
 45
0.0
1001
ACAD
1000
AcDbSavedByObjectVersion
1070
     0
  0
VISUALSTYLE
  5
D371
102
{ACAD_XDICTIONARY
360
D635
102
}
102
{ACAD_REACTORS
330
D361
102
}
330
D361
100
AcDbVisualStyle
  2
ColorChange
 70
    16
 71
     2
 72
     2
 73
     3
 90
        0
 40
-0.6
 41
-30.0
 62
     5
 63
     8
 74
     1
 91
        4
 64
     7
 65
   257
 75
     1
175
     1
 42
1.0
 92
        8
 66
     8
 43
1.0
 76
     1
 77
     6
 78
     2
 67
     7
 79
     5
170
     0
171
     0
290
     0
174
     0
 93
        1
 44
0.0
173
     0
291
     1
 45
0.0
1001
ACAD
1000
AcDbSavedByObjectVersion
1070
     0
  0
VISUALSTYLE
  5
D36A
102
{ACAD_XDICTIONARY
360
D627
102
}
102
{ACAD_REACTORS
330
D361
102
}
330
D361
100
AcDbVisualStyle
  2
Conceptual
 70
     9
 71
     3
 72
     2
 73
     0
 90
        0
 40
-0.6
 41
-30.0
 62
     5
 63
     7
 74
     2
 91
        2
 64
     7
 65
   257
 75
     1
175
     1
 42
40.0
 92
        8
 66
     7
 43
1.0
 76
     1
 77
     6
 78
     2
 67
     7
 79
     3
170
     0
171
     0
290
     0
174
     0
 93
        1
 44
0.0
173
     0
291
     0
 45
0.0
1001
ACAD
1000
AcDbSavedByObjectVersion
1070
     0
  0
VISUALSTYLE
  5
D36C
102
{ACAD_XDICTIONARY
360
D62B
102
}
102
{ACAD_REACTORS
330
D361
102
}
330
D361
100
AcDbVisualStyle
  2
Dim
 70
    11
 71
     2
 72
     2
 73
     0
 90
        0
 40
-0.6
 41
-30.0
 62
     5
 63
     7
 74
     1
 91
        4
 64
     7
 65
   257
 75
     1
175
     1
 42
1.0
 92
        8
 66
     7
 43
1.0
 76
     1
 77
     6
 78
     2
 67
     7
 79
     5
170
     0
171
     0
290
     0
174
     0
 93
        1
 44
-50.0
173
     0
291
     1
 45
0.0
1001
ACAD
1000
AcDbSavedByObjectVersion
1070
     0
  0
VISUALSTYLE
  5
D438
102
{ACAD_XDICTIONARY
360
D63B
102
}
102
{ACAD_REACTORS
330
D361
102
}
330
D361
100
AcDbVisualStyle
  2
EdgeColorOff
 70
    22
 71
     2
 72
     2
 73
     0
 90
        0
 40
-0.6
 41
-30.0
 62
     5
 63
     7
 74
     1
 91
        4
 64
     7
 65
   257
 75
     1
175
     1
 42
1.0
 92
        8
 66
     7
 43
1.0
 76
     1
 77
     6
 78
     2
 67
     7
 79
     5
170
     0
171
     0
290
     0
174
     0
 93
        1
 44
0.0
173
     0
291
     1
 45
0.0
1001
ACAD
1000
AcDbSavedByObjectVersion
1070
     0
  0
VISUALSTYLE
  5
D370
102
{ACAD_XDICTIONARY
360
D633
102
}
102
{ACAD_REACTORS
330
D361
102
}
330
D361
100
AcDbVisualStyle
  2
Facepattern
 70
    15
 71
     2
 72
     2
 73
     0
 90
        0
 40
-0.6
 41
-30.0
 62
     5
 63
     7
 74
     1
 91
        4
 64
     7
 65
   257
 75
     1
175
     1
 42
1.0
 92
        8
 66
     7
 43
1.0
 76
     1
 77
     6
 78
     2
 67
     7
 79
     5
170
     0
171
     0
290
     0
174
     0
 93
        1
 44
0.0
173
     0
291
     1
 45
0.0
1001
ACAD
1000
AcDbSavedByObjectVersion
1070
     0
  0
VISUALSTYLE
  5
D362
102
{ACAD_XDICTIONARY
360
D617
102
}
102
{ACAD_REACTORS
330
D361
102
}
330
D361
100
AcDbVisualStyle
  2
Flat
 70
     0
 71
     2
 72
     1
 73
     1
 90
        2
 40
-0.6
 41
30.0
 62
     5
 63
     7
 74
     0
 91
        4
 64
     7
 65
   257
 75
     1
175
     1
 42
1.0
 92
        8
 66
     7
 43
1.0
 76
     1
 77
     6
 78
     2
 67
     7
 79
     5
170
     0
171
     0
290
     0
174
     0
 93
       13
 44
0.0
173
     0
291
     1
 45
0.0
1001
ACAD
1000
AcDbSavedByObjectVersion
1070
     0
  0
VISUALSTYLE
  5
D363
102
{ACAD_XDICTIONARY
360
D619
102
}
102
{ACAD_REACTORS
330
D361
102
}
330
D361
100
AcDbVisualStyle
  2
FlatWithEdges
 70
     1
 71
     2
 72
     1
 73
     1
 90
        2
 40
-0.6
 41
30.0
 62
     5
 63
     7
 74
     1
 91
        4
 64
     7
 65
   257
 75
     1
175
     1
 42
1.0
 92
        0
 66
   257
 43
1.0
 76
     1
 77
     6
 78
     2
 67
     7
 79
     5
170
     0
171
     0
290
     0
174
     0
 93
       13
 44
0.0
173
     0
291
     1
 45
0.0
1001
ACAD
1000
AcDbSavedByObjectVersion
1070
     0
  0
VISUALSTYLE
  5
D364
102
{ACAD_XDICTIONARY
360
D61B
102
}
102
{ACAD_REACTORS
330
D361
102
}
330
D361
100
AcDbVisualStyle
  2
Gouraud
 70
     2
 71
     2
 72
     2
 73
     1
 90
        2
 40
-0.6
 41
30.0
 62
     5
 63
     7
 74
     0
 91
        4
 64
     7
 65
   257
 75
     1
175
     1
 42
1.0
 92
        0
 66
     7
 43
1.0
 76
     1
 77
     6
 78
     2
 67
     7
 79
     5
170
     0
171
     0
290
     0
174
     0
 93
       13
 44
0.0
173
     0
291
     1
 45
0.0
1001
ACAD
1000
AcDbSavedByObjectVersion
1070
     0
  0
VISUALSTYLE
  5
D365
102
{ACAD_XDICTIONARY
360
D61D
102
}
102
{ACAD_REACTORS
330
D361
102
}
330
D361
100
AcDbVisualStyle
  2
GouraudWithEdges
 70
     3
 71
     2
 72
     2
 73
     1
 90
        2
 40
-0.6
 41
30.0
 62
     5
 63
     7
 74
     1
 91
        4
 64
     7
 65
   257
 75
     1
175
     1
 42
1.0
 92
        0
 66
   257
 43
1.0
 76
     1
 77
     6
 78
     2
 67
     7
 79
     5
170
     0
171
     0
290
     0
174
     0
 93
       13
 44
0.0
173
     0
291
     1
 45
0.0
1001
ACAD
1000
AcDbSavedByObjectVersion
1070
     0
  0
VISUALSTYLE
  5
D436
102
{ACAD_XDICTIONARY
360
D637
102
}
102
{ACAD_REACTORS
330
D361
102
}
330
D361
100
AcDbVisualStyle
  2
JitterOff
 70
    20
 71
     2
 72
     2
 73
     0
 90
        0
 40
-0.6
 41
-30.0
 62
     5
 63
     7
 74
     1
 91
        4
 64
     7
 65
   257
 75
     1
175
     1
 42
1.0
 92
       10
 66
     7
 43
1.0
 76
     1
 77
     6
 78
     2
 67
     7
 79
     5
170
     0
171
     0
290
     0
174
     0
 93
        1
 44
0.0
173
     0
291
     1
 45
0.0
1001
ACAD
1000
AcDbSavedByObjectVersion
1070
     0
  0
VISUALSTYLE
  5
D36F
102
{ACAD_XDICTIONARY
360
D631
102
}
102
{ACAD_REACTORS
330
D361
102
}
330
D361
100
AcDbVisualStyle
  2
Linepattern
 70
    14
 71
     2
 72
     2
 73
     0
 90
        0
 40
-0.6
 41
-30.0
 62
     5
 63
     7
 74
     1
 91
        4
 64
     7
 65
   257
 75
     7
175
     7
 42
1.0
 92
        8
 66
     7
 43
1.0
 76
     1
 77
     6
 78
     2
 67
     7
 79
     5
170
     0
171
     0
290
     0
174
     0
 93
        1
 44
0.0
173
     0
291
     1
 45
0.0
1001
ACAD
1000
AcDbSavedByObjectVersion
1070
     0
  0
VISUALSTYLE
  5
D437
102
{ACAD_XDICTIONARY
360
D639
102
}
102
{ACAD_REACTORS
330
D361
102
}
330
D361
100
AcDbVisualStyle
  2
OverhangOff
 70
    21
 71
     2
 72
     2
 73
     0
 90
        0
 40
-0.6
 41
-30.0
 62
     5
 63
     7
 74
     1
 91
        4
 64
     7
 65
   257
 75
     1
175
     1
 42
1.0
 92
        9
 66
     7
 43
1.0
 76
     1
 77
     6
 78
     2
 67
     7
 79
     5
170
     0
171
     0
290
     0
174
     0
 93
        1
 44
0.0
173
     0
291
     1
 45
0.0
1001
ACAD
1000
AcDbSavedByObjectVersion
1070
     0
  0
VISUALSTYLE
  5
D36B
102
{ACAD_XDICTIONARY
360
D629
102
}
102
{ACAD_REACTORS
330
D361
102
}
330
D361
100
AcDbVisualStyle
  2
Realistic
 70
     8
 71
     2
 72
     2
 73
     0
 90
        0
 40
-0.6
 41
-30.0
 62
     5
 63
     7
 74
     1
 91
        0
 64
     7
 65
   257
 75
     1
175
     1
 42
1.0
 92
        8
 66
     8
 43
1.0
 76
     1
 77
     6
 78
     2
 67
     7
 79
     5
170
     0
171
     0
290
     0
174
     0
 93
       13
 44
0.0
173
     0
291
     0
 45
0.0
1001
ACAD
1000
AcDbSavedByObjectVersion
1070
     0
  0
VISUALSTYLE
  5
D36E
102
{ACAD_XDICTIONARY
360
D62F
102
}
102
{ACAD_REACTORS
330
D361
102
}
330
D361
100
AcDbVisualStyle
  2
Thicken
 70
    13
 71
     2
 72
     2
 73
     0
 90
        0
 40
-0.6
 41
-30.0
 62
     5
 63
     7
 74
     1
 91
        4
 64
     7
 65
   257
 75
     1
175
     1
 42
1.0
 92
       12
 66
     7
 43
1.0
 76
     1
 77
     6
 78
     2
 67
     7
 79
     5
170
     0
171
     0
290
     0
174
     0
 93
        1
 44
0.0
173
     0
291
     1
 45
0.0
1001
ACAD
1000
AcDbSavedByObjectVersion
1070
     0
  0
DICTIONARYVAR
  5
D5F9
102
{ACAD_REACTORS
330
3761
102
}
330
3761
100
DictionaryVariables
280
     0
  1
1:1
  0
DICTIONARYVAR
  5
D5F7
102
{ACAD_REACTORS
330
3761
102
}
330
3761
100
DictionaryVariables
280
     0
  1
STANDARD
  0
DICTIONARYVAR
  5
BD13
102
{ACAD_REACTORS
330
3761
102
}
330
3761
100
DictionaryVariables
280
     0
  1
STANDARD
  0
DICTIONARYVAR
  5
3762
102
{ACAD_REACTORS
330
3761
102
}
330
3761
100
DictionaryVariables
280
     0
  1
1
  0
DICTIONARYVAR
  5
D604
102
{ACAD_REACTORS
330
3761
102
}
330
3761
100
DictionaryVariables
280
     0
  1
0
  0
DICTIONARYVAR
  5
D5FB
102
{ACAD_REACTORS
330
3761
102
}
330
3761
100
DictionaryVariables
280
     0
  1
1
  0
DICTIONARYVAR
  5
D5FC
102
{ACAD_REACTORS
330
3761
102
}
330
3761
100
DictionaryVariables
280
     0
  1
15
  0
DICTIONARYVAR
  5
D5FA
102
{ACAD_REACTORS
330
3761
102
}
330
3761
100
DictionaryVariables
280
     0
  1
0
  0
DICTIONARYVAR
  5
D5F8
102
{ACAD_REACTORS
330
3761
102
}
330
3761
100
DictionaryVariables
280
     0
  1
0
  0
DICTIONARYVAR
  5
B9F3
102
{ACAD_REACTORS
330
3761
102
}
330
3761
100
DictionaryVariables
280
     0
  1

  0
DICTIONARYVAR
  5
D603
102
{ACAD_REACTORS
330
3761
102
}
330
3761
100
DictionaryVariables
280
     0
  1
127
  0
DICTIONARYVAR
  5
D605
102
{ACAD_REACTORS
330
3761
102
}
330
3761
100
DictionaryVariables
280
     0
  1
0
  0
PH_ENTDIMREACTOR
  5
B494
102
{ACAD_REACTORS
330
49
102
}
330
49
  0
PH_DIMENTREACTOR
  5
A2BB
102
{ACAD_REACTORS
330
49
102
}
330
49
  0
PH_ENTDIMREACTOR
  5
A2B9
102
{ACAD_REACTORS
330
49
102
}
330
49
  0
PH_ENTDIMREACTOR
  5
8F80
102
{ACAD_REACTORS
330
49
102
}
330
49
  0
PH_ENTDIMREACTOR
  5
8F81
102
{ACAD_REACTORS
330
49
102
}
330
49
  0
PH_DIMENTREACTOR
  5
8F82
102
{ACAD_REACTORS
330
49
102
}
330
49
  0
PH_ENTDIMREACTOR
  5
A2BA
102
{ACAD_REACTORS
330
49
102
}
330
49
  0
PH_ENTDIMREACTOR
  5
B495
102
{ACAD_REACTORS
330
49
102
}
330
49
  0
PH_DIMENTREACTOR
  5
B496
102
{ACAD_REACTORS
330
49
102
}
330
49
  0
PH_ENTDIMREACTOR
  5
B040
102
{ACAD_REACTORS
330
49
102
}
330
49
  0
PH_DIMENTREACTOR
  5
B041
102
{ACAD_REACTORS
330
49
102
}
330
49
  0
DICTIONARY
  5
7CC8
102
{ACAD_REACTORS
330
4A
102
}
330
4A
100
AcDbDictionary
281
     1
  3
PH_GRPMEMBERS
350
7CCA
  0
DICTIONARY
  5
D465
102
{ACAD_REACTORS
330
4A
102
}
330
4A
100
AcDbDictionary
281
     1
  3
$PH$AAAA1-2
350
D466
  3
PH_GRPMEMBERS
350
D468
  0
DICTIONARY
  5
D576
102
{ACAD_REACTORS
330
4A
102
}
330
4A
100
AcDbDictionary
281
     1
  3
$PH$AAAA
350
D577
  3
PH_GRPMEMBERS
350
D57B
  0
PH_GROUP
  5
394C
102
{ACAD_REACTORS
330
4A
102
}
330
4A
  0
DICTIONARY
  5
D60B
330
1E
100
AcDbDictionary
280
     1
281
     1
  3
ACAD_XREC_ROUNDTRIP
360
D60C
  0
DICTIONARY
  5
D60E
330
26
100
AcDbDictionary
280
     1
281
     1
  3
ACAD_XREC_ROUNDTRIP
360
D60F
  0
DICTIONARY
  5
D590
330
22
100
AcDbDictionary
280
     1
281
     1
  3
ACAD_XREC_ROUNDTRIP
360
D60D
  3
ADSK_XREC_LAYOUTTHUMBNAIL
360
D591
  0
DICTIONARY
  5
D613
330
D35F
100
AcDbDictionary
280
     1
281
     1
  3
ACAD_XREC_ROUNDTRIP
360
D614
  0
DICTIONARY
  5
D611
330
D35E
100
AcDbDictionary
280
     1
281
     1
  3
ACAD_XREC_ROUNDTRIP
360
D612
  0
DICTIONARY
  5
D615
330
D360
100
AcDbDictionary
280
     1
281
     1
  3
ACAD_XREC_ROUNDTRIP
360
D616
  0
DICTIONARY
  5
D5CB
330
B9F6
100
AcDbDictionary
280
     1
281
     1
  3
ACAD_ROUNDTRIP_2008_TABLESTYLE_CELLSTYLEMAP
360
D606
  3
ACAD_XREC_ROUNDTRIP
360
D610
  0
DICTIONARY
  5
D621
330
D367
100
AcDbDictionary
280
     1
281
     1
  3
ACAD_XREC_ROUNDTRIP
360
D622
  0
DICTIONARY
  5
D625
330
D369
100
AcDbDictionary
280
     1
281
     1
  3
ACAD_XREC_ROUNDTRIP
360
D626
  0
DICTIONARY
  5
D623
330
D368
100
AcDbDictionary
280
     1
281
     1
  3
ACAD_XREC_ROUNDTRIP
360
D624
  0
DICTIONARY
  5
D61F
330
D366
100
AcDbDictionary
280
     1
281
     1
  3
ACAD_XREC_ROUNDTRIP
360
D620
  0
DICTIONARY
  5
D62D
330
D36D
100
AcDbDictionary
280
     1
281
     1
  3
ACAD_XREC_ROUNDTRIP
360
D62E
  0
DICTIONARY
  5
D635
330
D371
100
AcDbDictionary
280
     1
281
     1
  3
ACAD_XREC_ROUNDTRIP
360
D636
  0
DICTIONARY
  5
D627
330
D36A
100
AcDbDictionary
280
     1
281
     1
  3
ACAD_XREC_ROUNDTRIP
360
D628
  0
DICTIONARY
  5
D62B
330
D36C
100
AcDbDictionary
280
     1
281
     1
  3
ACAD_XREC_ROUNDTRIP
360
D62C
  0
DICTIONARY
  5
D63B
330
D438
100
AcDbDictionary
280
     1
281
     1
  3
ACAD_XREC_ROUNDTRIP
360
D63C
  0
DICTIONARY
  5
D633
330
D370
100
AcDbDictionary
280
     1
281
     1
  3
ACAD_XREC_ROUNDTRIP
360
D634
  0
DICTIONARY
  5
D617
330
D362
100
AcDbDictionary
280
     1
281
     1
  3
ACAD_XREC_ROUNDTRIP
360
D618
  0
DICTIONARY
  5
D619
330
D363
100
AcDbDictionary
280
     1
281
     1
  3
ACAD_XREC_ROUNDTRIP
360
D61A
  0
DICTIONARY
  5
D61B
330
D364
100
AcDbDictionary
280
     1
281
     1
  3
ACAD_XREC_ROUNDTRIP
360
D61C
  0
DICTIONARY
  5
D61D
330
D365
100
AcDbDictionary
280
     1
281
     1
  3
ACAD_XREC_ROUNDTRIP
360
D61E
  0
DICTIONARY
  5
D637
330
D436
100
AcDbDictionary
280
     1
281
     1
  3
ACAD_XREC_ROUNDTRIP
360
D638
  0
DICTIONARY
  5
D631
330
D36F
100
AcDbDictionary
280
     1
281
     1
  3
ACAD_XREC_ROUNDTRIP
360
D632
  0
DICTIONARY
  5
D639
330
D437
100
AcDbDictionary
280
     1
281
     1
  3
ACAD_XREC_ROUNDTRIP
360
D63A
  0
DICTIONARY
  5
D629
330
D36B
100
AcDbDictionary
280
     1
281
     1
  3
ACAD_XREC_ROUNDTRIP
360
D62A
  0
DICTIONARY
  5
D62F
330
D36E
100
AcDbDictionary
280
     1
281
     1
  3
ACAD_XREC_ROUNDTRIP
360
D630
  0
PH_GROUP
  5
7CCA
102
{ACAD_REACTORS
330
7CC8
102
}
330
7CC8
  0
DICTIONARY
  5
D466
102
{ACAD_REACTORS
330
D465
102
}
330
D465
100
AcDbDictionary
281
     1
  3
PH_GRPMEMBERS
350
D467
  0
PH_GROUP
  5
D468
102
{ACAD_REACTORS
330
D465
102
}
330
D465
  0
DICTIONARY
  5
D577
102
{ACAD_REACTORS
330
D576
102
}
330
D576
100
AcDbDictionary
281
     1
  3
$PH$AAAA
350
D578
  3
PH_GRPMEMBERS
350
D57A
  0
PH_GROUP
  5
D57B
102
{ACAD_REACTORS
330
D576
102
}
330
D576
  0
XRECORD
  5
D60C
102
{ACAD_REACTORS
330
D60B
102
}
330
D60B
100
AcDbXrecord
280
     1
102
SHADEPLOT
 70
     0
102
SHADEPLOTRESLEVEL
 70
     2
102
SHADEPLOTCUSTOMDPI
 70
   300
  0
XRECORD
  5
D60F
102
{ACAD_REACTORS
330
D60E
102
}
330
D60E
100
AcDbXrecord
280
     1
102
SHADEPLOT
 70
     0
102
SHADEPLOTRESLEVEL
 70
     2
102
SHADEPLOTCUSTOMDPI
 70
   300
  0
XRECORD
  5
D60D
102
{ACAD_REACTORS
330
D590
102
}
330
D590
100
AcDbXrecord
280
     1
102
SHADEPLOT
 70
     0
102
SHADEPLOTRESLEVEL
 70
     2
102
SHADEPLOTCUSTOMDPI
 70
   300
  0
XRECORD
  5
D591
102
{ACAD_REACTORS
330
D590
102
}
330
D590
100
AcDbXrecord
280
     1
310
28000000000100007600000001000800000000000076000000000000000000000001000000000000F0FCFE0000000000FFFFFF000000000000000000000000000000000000000000000000000000000000000000330000006600000099000000CC000000FF00000000330000333300006633000099330000CC330000FF3300
310
0000660000336600006666000099660000CC660000FF66000000990000339900006699000099990000CC990000FF99000000CC000033CC000066CC000099CC0000CCCC0000FFCC000000FF000033FF000066FF000099FF0000CCFF0000FFFF000000003300330033006600330099003300CC003300FF003300003333003333
310
33006633330099333300CC333300FF33330000663300336633006666330099663300CC663300FF66330000993300339933006699330099993300CC993300FF99330000CC330033CC330066CC330099CC3300CCCC3300FFCC330000FF330033FF330066FF330099FF3300CCFF3300FFFF330000006600330066006600660099
310
006600CC006600FF00660000336600333366006633660099336600CC336600FF33660000666600336666006666660099666600CC666600FF66660000996600339966006699660099996600CC996600FF99660000CC660033CC660066CC660099CC6600CCCC6600FFCC660000FF660033FF660066FF660099FF6600CCFF6600
310
FFFF660000009900330099006600990099009900CC009900FF00990000339900333399006633990099339900CC339900FF33990000669900336699006666990099669900CC669900FF66990000999900339999006699990099999900CC999900FF99990000CC990033CC990066CC990099CC9900CCCC9900FFCC990000FF99
310
0033FF990066FF990099FF9900CCFF9900FFFF99000000CC003300CC006600CC009900CC00CC00CC00FF00CC000033CC003333CC006633CC009933CC00CC33CC00FF33CC000066CC003366CC006666CC009966CC00CC66CC00FF66CC000099CC003399CC006699CC009999CC00CC99CC00FF99CC0000CCCC0033CCCC0066CC
310
CC0099CCCC00CCCCCC00FFCCCC0000FFCC0033FFCC0066FFCC0099FFCC00CCFFCC00FFFFCC000000FF003300FF006600FF009900FF00CC00FF00FF00FF000033FF003333FF006633FF009933FF00CC33FF00FF33FF000066FF003366FF006666FF009966FF00CC66FF00FF66FF000099FF003399FF006699FF009999FF00CC
310
99FF00FF99FF0000CCFF0033CCFF0066CCFF0099CCFF00CCCCFF00FFCCFF0000FFFF0033FFFF0066FFFF0099FFFF00CCFFFF00FFFFFF00000000000D0D0D001A1A1A00282828003535350043434300505050005D5D5D006B6B6B00787878008686860093939300A1A1A100AEAEAE00BBBBBB00C9C9C900D6D6D600E4E4E400
310
F1F1F100FFFFFF0000000000000000000000000000000000000000000000000000000000000000000000000000000000E1E1E1E1E1E1E1E1E1E1E1E1E1E1E1E1E1E1E1E1E1E1E1E1E1E1E1E1E1E1E1E1E1E1E1E1E1E1E1E1E1E1E1E1E1BEBEBEBEBEBEBEBEBEBEBEBEBEBEBEBEBEBEBEBEBEBEBEBEBEBEBEBEBEBEBEBEBEBE
310
BEBEBEBEBEBEBEBEBEBEBEBEBEBEBEBEBEBEBEBEBEBEBEBEBEBEBEBEBEBEBEBEBEBEBEBEBEBEBEBEBEBEBEBEBEBEBEBEBEBEBEBEBEBEBEBEBEBEBEBEBEBEBEBEBEBEBEBEBEBEBEBEBEBEBEBEBEBEBEBEBEBEBEBEBEBEBEBEBEBEBEBEBEBEBEBEBEBEBEBEBEBEBEBEBEBEBEBEBEBEBEBEBEBEBEBEBEBEBEBEBEBEBEBEBEBEBE
310
BEBEBEBEBEE1E1E1E1E1E1E1E1E1E1E1E1E1E1E1E1E1E1E1E1E1E1E1E1E1E1E1E1E1E1E1E1E1E1E1E1E1E1E1E1E1E1E1E1E1E1E1E1E1E1E1E1E1E1E1E1E1E1E1E1E1E1E1E1E1E1E1E1E1E1E1E1E1E1E1E1E1E1E1E1E1E1E1E1E1E1E1E1E1E1BEE1E12828282828282828282828282828282828282828282828282828282828
310
28282828282828282828282828282828282828282828282828282828282828282828282828282828282828282828282828282828282828282828282828282828282828282828282828282828282828282828282828282828282828282828282828282828282828282828282828282828280F0F0F0F0F0F0F0F28282828BE28
310
28282828282828E1E1E1E1E1E1E1E1E1E1E1E1E1E1E1E1E1E1E1E1E1E1E1E1E1E1E1E1E1E1E1E1E1E1E1E1E1E1E1E1E1E1E1E1E1E1E1E1E1E1E1E1E1E1E1E1E1E1E1E1E1E1E1E1E1E1E1E1E1E1E1E1E1E1E1E1E1E1E1E1E1E1E1E1E1E1E1E1E1E1BEE1E128E1E1E1E1E1E1E1E1E1E1E1E1E1E1E1E1E1E1E1E1E1E1E1E1E1E1
310
E1E1E1E1E1E1E1E1E1E1E1E1E1E1E1E1E1E1E1E1E1E1E1E1E1E1E1E1E1E1E1E1E1E1E1E1E1E1E1E1E1E1E1E1E1E1E1E1E1E1E1E1E1E1E1E1E1E1E1E1E1E1E1E1E1E1E1E1E1E1E1E1E1E1E1E1E1E1E1E1E1E1E1E1E1E1E1E1E1E1E1E1E1E1E1E1E1E1E1E1E1E1E1E1E1E1E1E1E1E1E1E1E1E1E10F0F0F0F0F0F0F0FE1E1E1E1
310
BEE1E1E1E1E1E1E128E1E1E1E1E1E1E1E1E1E1E1E1E1E1E1E1E1E1E1E1E1E1E1E1E1E1E1E1E1E1E1E1E1E1E1E1E1E1E1E1E1E1E1E1E1E1E1E1E1E1E1E1E1E1E1E1E1E1E1E1E1E1E1E1E1E1E1E1E1E1E1E1E1E1E1E1E1E1E1E1E1E1E1E1E1E1E1E1E1E1BEE1E128E1E1E1E1E1E1E1E1E1E1E1E1E1E1E1E1E1E1E1E1E1E1E1E1
310
E1E1E1E1E1E1E1E1E1E1E1E1E1E1E1E1E1E1E1E1E1E1E1E1E1E1E1E1E1E1E1E1E1E1E1E1E1E1E1E1E1E1E1E1E1E1E1E1E1E1E1E1E1E1E1E1E1E1E1E1E1E1E1E1E1E1E1E1E1E1E1E1E1E1E1E1E1E1E1E1E1E1E1E1E1E1E1E1E1E1E1E1E1E1E1E1E1E1E1E1E1E1E1E1E1E1E1E1E1E1E1E1E1E1E1E1E10F0F0F0F0F0F0F0FBEBE
310
BEBEBEBEBEBEBEBEBEBEBEE1E1E1E1E1E1E1E1E1E1E1E1E1E1E1E1E1E1E1E1E1E1E1E1E1E1E1E1E1E1E1E1E1E1E1E1E1E1E1E1E1E1E1E1E1E1E1E1E1E1E1E1E1E1E1E1E1E1E1E1E1E1E1E1E1E1E1E1E1E1E1E1E1E1E1E1E1E1E1E1E1E1E1E1E1E1E1E1E1E1BEE1E128E1E1E1E1E1E1E1E1E1E1E1E1E1E1E1E1E1E1E1E1E1E1
310
E1E1E1E1E1E1E1E1E1E1E1E1E1E1E1E1E1E1E1E1E1E1E1E1E1E1E1E1E1E1E1E1E1E1E1E1E1E1E1E1E1E1E1E1E1E1E1E1E1E1E1E1E1E1E1E1E1E1E1E1E1E1E1E1E1E1E1E1E1E1E1E1E1E1E1E1E1E1E1E1E1E1E1E1E1E1E1E1E1E1E1E1E1E1E1E1E1E1E1E1E1E1E1E1E1E1E1E1E1E1E1E1E1E1E1E1E1E1E10F0F0F0FE1E1E10F
310
E1E1E1E1BEE1E1E1E1E1E1E128E1E1E1E1E1E1E1E1E1E1E1E1E1E1E1E1E1E1E1E1E1E1E1E1E1E1E1E1E1E1E1E1E1E1E1E1E1E1E1E1E1E1E1E1E1E1E1E1E1E1E1E1E1E1E1E1E1E1E1E1E1E1E1E1E1E1E1E1E1E1E1E1E1E1E1E1E1E1E1E1E1E1E1E1E1E1E1E1E1E1BEE1E128E1E1E1E1E1E1E1E1E1E1E1E1E1E1E1E1E1E1E1E1
310
E1E1E1E1E1E1E1E1E1E1E1E1E1E1E1E1E1E1E1E1E1E1E1E1E1E1E1E1E1E1E1E1E1E1E1E1E1E1E1E1E1E1E1E1E1E1E1E1E1E1E1E1E1E1E1E1E1E1E1E1E1E1E1E1E1E1E1E1E1E1E1E1E1E1E1E1E1E1E1E1E1E1E1E1E1E1E1E1E1E1E1E1E1E1E1E1E1E1E1E1E1E1E1E1E1E1E1E1E1E1E1E1E1E1E1E1E1E1E1E1E10F0F0F0F0F0F
310
0F0F0F0F0F0FBE0F0F0F0F0F0F0F0FE1E1E1E1E1E1E1E1E1E1E1E1E1E1E1E1E1E1E1E1E1E1E1E1E1E1E1E1E1E1E1E1E1E1E1E1E1E1E1E1E1E1E1E1E1E1E1E1E1E1E1E1E1E1E1E1E1E1E1E1E1E1E1E1E1E1E1E1E1E1E1E1E1E1E1E1E1E1E1E1E1E1E1E1E1E1E1E1E1E1BEE1E128E1E1E1E1E1E1E1E1E1E1E1E1E1E1E1E1E1E1
310
E1E1E1E1E1E1E1E1E1E1E1E1E1E1E1E1E1E1E1E1E1E1E1E1E1E1E1E1E1E1E1E1E1E1E1E1E1E1E1E1E1E1E1E1E1E1E1E1E1E1E1E1E1E1E1E1E1E1E1E1E1E1E1E1E1E1E1E1E1E1E1E1E1E1E1E1E1E1E1E1E1E1E1E1E1E1E1E1E1E1E1E1E1E1E1E1E1E1E1E1E1E1E1E1E1E1E1E1E1E1E1E1E1E1E1E1E1E1E1E1E1E1E10F0F0F0F
310
0F0F0F0F0F0F0F0FBE0F0F0F0F0F0F0F0FE1E1E1E1E1E1E1E1E1E1E1E1E1E1E1E1E1E1E1E1E1E1E1E1E1E1E1E1E1E1E1E1E1E1E1E1E1E1E1E1E1E1E1E1E1E1E1E1E1E1E1E1E1E1E1E1E1E1E1E1E1E1E1E1E1E1E1E1E1E1E1E1E1E1E1E1E1E1E1E1E1E1E1E1E1E1E1E1E1E1BEE1E128E1E1E1E1E1E1E1E1E1E1E1E1E1E1E1E1
310
E1E1E1E1E1E1E1E1E1E1E1E1E1E1E1E1E1E1E1E1E1E1E1E1E1E1E1E1E1E1E1E1E1E1E1E1E1E1E1E1E1E1E1E1E1E1E1E1E1E1E1E1E1E1E1E1E1E1E1E1E1E1E1E1E1E1E1E1E1E1E1E1E1E1E1E1E1E1E1E1E1E1E1E1E1E1E1E1E1E1E1E1E1E1E1E1E1E1E1E1E1E1E1E1E1E1E1E1E1E1E1E1E1E1E1E1E1E1E1E1E1E1E1E1E10F0F
310
0FE1E10F0F0F0F0FE1E1E1E1E1E1E1E1E1E128E1E1E1E1E1E1E1E1E1E1E1E1E1E1E1E1E1E1E1E1E1E1E1E1E1E1E1E1E1E1E1E1E1E1E1E1E1E1E1E1E1E1E1E1E1E1E1E1E1E1E1E1E1E1E1E1E1E1E1E1E1E1E1E1E1E1E1E1E1E1E1E1E1E1E1E1E1E1E1E1E1E1E1E1E1E1E1E1E1E1BEE1E128E1E1E1E1E1E1E1E1E1E1E1E1E1E1
310
E1E1E1E1E1E1E1E1E1E1E1E1E1E1E1E1E1E1E1E1E1E1E1E1E1E1E1E1E1E1E1E1E1E1E1E1E1E1E1E1E1E1E1E1E1E1E1E1E1E1E1E1E1E1E1E1E1E1E1E1E1E1E1E1E1E1E1E1E1E1E1E1E1E1E1E1E1E1E1E1E1E1E1E1E1E1E1E1E1E1E1E1E1E1E1E1E1E1E1E1E1E1E1E1E1E1E1E1E1E1E1E1E1E1E1E1E1E1E1E1E1E1E1E1E1E1E1
310
0F0F0F0F0F0F0F0F0F0F0F0F0F0F0F0F0F0F0F0F0FE1E1E1E1E1E1E1E1E1E1E1E1E1E1E1E1E1E1E1E1E1E1E1E1E1E1E1E1E1E1E1E1E1E1E1E1E1E1E1E1E1E1E1E1E1E1E1E1E1E1E1E1E1E1E1E1E1E1E1E1E1E1E1E1E1E1E1E1E1E1E1E1E1E1E1E1E1E1E1E1E1E1E1E1E1E1E1E1E1E1BEE1E128E1E1E1E1E1E1E1E1E1E1E1E1
310
E1E1E1E1E1E1E1E1E1E1E1E1E1E1E1E1E1E1E1E1E1E1E1E1E1E1E1E1E1E1E1E1E1E1E1E1E1E1E1E1E1E1E1E1E1E1E1E1E1E1E1E1E1E1E1E1E1E1E1E1E1E1E1E1E1E1E1E1E1E1E1E1E1E1E1E1E1E1E1E1E1E1E1E1E1E1E1E1E1E1E1E1E1E1E1E1E1E1E1E1E1E1E1E1E1E1E1E1E1E1E1E1E1E1E1E1E1E1E1E1E1E1E1E1E1E1E1
310
E1E1BEBEBEBEBEBEBE0FE1E1E1E1E1E1E1E2E2E2E2E128E1E1E1E1E1E1E1E1E1E1E1E1E1E1E1E1E1E1E1E1E1E1E1E1E1E1E1E1E1E1E1E1E1E1E1E1E1E1E1E1E1E1E1E1E1E1E1E1E1E1E1E1E1E1E1E1E1E1E1E1E1E1E1E1E1E1E1E1E1E1E1E1E1E1E1E1E1E1E1E1E1E1E1E1E1E1E1E1E1E1BEE1E128E1E1E1E1E1E1E1E1E1E1
310
E1E1E1E1E1E1E1E1E1E1E1E1E1E1E1E1E1E1E1E1E1E2E2E2E2E2E2E2E2E2E2E2E2E2E2E2E2E2E2E2E2E2E2E2BEE2E2E2E2E2E2E2E2E2E2E2E2E2E2E2E2E2E2E2E2E20FBEBEBEBEBE0FE1E1E1E1E1E1E1E1E1E1E1E1E1E1E1E1E1E1E1E1E1E1E1E1E1E1E1E1E1E1E1E1E1E1E1E1E1E1E1E1E1E1E1E1E1E1E1E1E1E1E1E1E1E1
310
E1E1E1E10FE1BEBEE1E1E10FE1E1E1E1E1E1E1E1BEE2BEBE28E1E1E1E1E1E1E1E1E1E1E1E1E1E1E1E1E1E1E1E1E1E1E1E1E1E1E1E1E1E1E1E1E1E1E1E1E1E1E1E1E1E1E1E1E1E1E1E1E1E1E1E1E1E1E1E1E1E1E1E1E1E1E1E1E1E1E1E1E1E1E1E1E1E1E1E1E1E1E1E1E1E1E1E1E1E1E1E1E1E1BEE1E1BEE1E1E1E1E1E1E1E1
310
E1E1E1E1E1E1E1E1E1E1E1E1E1E1E1E1E1E1E1E1E1E1E1E2E10F0F0F0F0F0F0F0F0F0F0F0F0F0F0F0F0F0F0F0F0FBE0F0F0F0F0F0F0F0F0F0F0F0F0F0F0F0F0F0F0F0F0FE1E2E1BEBEBEBEE1E1E1E1E1E1E1E1E1E1E1E1E1E1E1E1E1E1E1E1E1E1E1E1E1E1E1E1E1E1E1E1E1E1E1E1E1E1E1E1E1E1E1E1E1E1E1E1E1E1E1E1
310
E1E1E1E1E1E10FE1BEBEE1E1E10FE1E1E1E1E1E1E1E1BEBEBEBE28E1E1E1E1E1E1E1E1E1E1E1E1E1E1E1E1E1E1E1E1E1E1E1E1E1E1E1E1E1E1E1E1E1E1E1E1E1E1E1E1E1E1E1E1E1E1E1E1E1E1E1E1E1E1E1E1E1E1E1E1E1E1E1E1E1E1E1E1E1E1E1E1E1E1E1E1E1E1E1E1E1E1E1E1E1E1E1E1E1E1BEE1E1BEE1E1E1E1E1E1
310
E1E1E1E1E1E1E1E1E1E1E1E1E1E1E1E1E1E1E1E1E1E1E1E1E1E20FE1E1E1E1E1E10FE1E1E1E1E1E1E1E1E1E1E1E1E1E1BEE1E1E1E1E1E1E1E1E1E1E1E10FE1E1E1E1E1E1E10FE1E20F0FBEE1BEE1E1E1E1E1E1E1E1E1E1E1E1E1E1E1E1E1E1E1E1E1E1E1E1E1E1E1E1E1E1E1E1E1E1E1E1E1E1E1E1E1E1E1E1E1E1E1E1E1E1
310
E1E1E1E1E1E1E1E10FE1BEBEE1E1E10FE1E1E1E1E1E1E1E1BEBEBEBE28E1E1E1E1E1E1E1E1E1E1E1E1E1E1E1E1E1E1E1E1E1E1E1E1E1E1E1E1E1E1E1E1E1E1E1E1E1E1E1E1E1E1E1E1E1E1E1E1E1E1E1E1E1E1E1E1E1E1E1E1E1E1E1E1E1E1E1E1E1E1E1E1E1E1E1E1E1E1E1E1E1E1E1E1E1E1E1E1E1E1BEE1E1BEE1E1E1E1
310
E1E1E1E1E1E1E1E1E1E1E1E1E1E1E1E1E1E1E1E1E1E1E1E1E1E1E1E20FE1E1E1E1E1E10FE1E1E1E1E1E1E1E1E1E1E1E1E1E1BEE1E1E1E1E1E1E1E1E1E1E1E10F0F0F0F0F0FE1E10FE1E20F0FBEE1BEE1E1E1E1E1E1E1E1E1E1E1E1E1E1E1E1E1E1E1E1E1E1E1E1E1E1E1E1E1E1E1E1E1E1E1E1E1E1E1E1E1E1E1E1E1E1E1E1
310
E1E1E1E1E1E1E1E1E1E1BEE1BEBEE1E1E10FE1E1E1E1E1E1E1E1E1E1E1E128E1E1E1E1E1E1E1E1E1E1E1E1E1E1E1E1E1E1E1E1E1E1E1E1E1E1E1E1E1E1E1E1E1E1E1E1E1E1E1E1E1E1E1E1E1E1E1E1E1E1E1E1E1E1E1E1E1E1E1E1E1E1E1E1E1E1E1E1E1E1E1E1E1E1E1E1E1E1E1E1E1E1E1E1E1E1E1E1E1E1BEE1E1BEE1E1
310
E1E1E1E1E1E1E1E1E1E1E1E1E1E1E1E1E1E1E1E1E1E1E1E1E1E1E1E1E1E20FE2E2E2E2E20F0FE2E2E2E2E2E2E2E2E2E2E2E2E2E2BEE2E2E2E2E2E2E2E2E2E2E2E2E2E20F0FE2E2E2E20F0F0FBEBE0FE1BEE1E1E1E1E1E1E1E1E1E1E1E1E1E1E1E1E1E1E1E1E1E1E1E1E1E1E1E1E1E1E1E1E1E1E1E1E1E1E1E1E1E1E1E1E1E1
310
E1E1E1E1E1E1E1E1E1E1E1E10F0F0FBE0F0F0F0F0F0F0F0F0F0F0F0F0F0F0F0F0FE1E1E1E1E1E1E1E1E1E1E1E1E1E1E1E1E1E1E1E1E1E1E1E1E1E1E1E1E1E1E1E1E1E1E1E1E1E1E1E1E1E1E1E1E1E1E1E1E1E1E1E1E1E1E1E1E1E1E1E1E1E1E1E1E1E1E1E1E1E1E1E1E1E1E1E1E1E1E1E1E1E1E1E1E1E1E1E1E1E1BEE1E1BE
310
E1E1E1E1E1E1E1E1E1E1E1E1E1E1E1E1E1E1E1E1E1E1E1E1E1E1E1E1E1E1E1E20FE2E2E2E2E20FE2E2E2E2E2E2E2E2E2E2E2E2E2E2E2BEE2E2E2E2E2E2E2E2E2E2E2E2E2E2E20FE2E2E2E2E20FE2E1E1E1E1BEE1E1E1E1E1E1E1E1E1E1E1E1E1E1E1E1E1E1E1E1E1E1E1E1E1E1E1E1E1E1E1E1E1E1E1E1E1E1E1E1E1E1E1E1
310
E1E1E1E1E1E1E1E1E1E1E1E1E1E10FE2E1E1E1E1E1E1E1E1E1E1E1E1E1E1E1E1E1E128E1E1E1E1E1E1E1E1E1E1E1E1E1E1E1E1E1E1E1E1E1E1E1E1E1E1E1E1E1E1E1E1E1E1E1E1E1E1E1E1E1E1E1E1E1E1E1E1E1E1E1E1E1E1E1E1E1E1E1E1E1E1E1E1E1E1E1E1E1E1E1E1E1E1E1E1E1E1E1E1E1E1E1E1E1E1E1E1E1E1BEE1
310
E1BEE1E1E1E1E1E1E1E1E1E1E1E1E1E1E1E1E1E1E1E1E1E1E1E1E1E1E1E1E1E1E1E20FE1E1E1E1E10FE1E1E1E1E1E1E1E1E1E1E1E1E1E1E1BEE1E1E1E1E1E1E1E1E1E1E1E1E1E1E10FE1E1E1E1E10FE2E1E1E1E1BEE1E1E1E1E1E1E1E1E1E1E1E1E1E1E1E1E1E1E1E1E1E1E1E1E1E1E1E1E1E1E1E1E1E1E1E1E1E1E1E1E1E1
310
E1E1E1E1E1E1E1E1E1E1E1E1E1E1E1E10FE1E1E1E1E1E1E1E1E1E1E1E1E1E1E1E1E1E2E228E1E1E1E1E1E1E1E1E1E1E1E1E1E1E1E1E1E1E1E1E1E1E1E1E1E1E1E1E1E1E1E1E1E1E1E1E1E1E1E1E1E1E1E1E1E1E1E1E1E1E1E1E1E1E1E1E1E1E1E1E1E1E1E1E1E1E1E1E1E1E1E1E1E1E1E1E1E1E1E1E1E1E1E1E1E1E1E1E1E1
310
BEE1E1BEE1E1E1E1E1E1E1E1E1E1E1E1E1E1E1E1E1E1E1E1E1E1E1E1E1E1E1E1E1E1E1E20FE1E1E1E1E10FE1E1E1E1E1E1E1E1E1E1E1E1E1E1E1BEE1E1E1E1E1E1E1E1E1E1E1E1E1E1E10FE1E1E1E1E10FE2E1E1E1E1BEE1E1E1E1E1E1E1E1E1E1E1E1E1E1E1E1E1E1E1E1E1E1E1E1E1E1E1E1E1E1E1E1E1E1E1E1E1E1E1E1
310
E1E1E1E1E1E1E1E1E1E1E1E1E1E1E1E1E1E10FE2E2E2E2E2E2E2E2E2E2E2E2E2E2E2E2E2E2E228E1E1E1E1E1E1E1E1E1E1E1E1E1E1E1E1E1E1E1E1E1E1E1E1E1E1E1E1E1E1E1E1E1E1E1E1E1E1E1E1E1E1E1E1E1E1E1E1E1E1E1E1E1E1E1E1E1E1E1E1E1E1E1E1E1E1E1E1E1E1E1E1E1E1E1E1E1E1E1E1E1E1E1E1E1E1E1E1
310
E1E1BEE1E1BEE1E1E1E1E1E1E1E1E1E1E1E1E1E1E1E1E1E1E1E1E1E1E1E1E1E1E1E1E1E1E1E20FE1E1E1E1E10FE1E1E1E1E1E1E1E1E1E1E1E1E1E1E1BEE1E1E1E1E1E1E1E1E1E1E1E1E1E1E10FE1E1E1E1E10FE2E1E1E1E1BEE1E1E1E1E1E1E1E1E1E1E1E1E1E1E1E1E1E1E1E1E1E1E1E1E1E1E1E1E1E1E1E1E1E1E1E1E1E1
310
E1E1E1E1E1E1E1E1E1E1E1E1E1E1E1E1E1E1E1E10FE2E2E2E1E1E1E1E1E1E1E1E1E1E1E1E1E1E1E128E1E1E1E1E1E1E1E1E1E1E1E1E1E1E1E1E1E1E1E1E1E1E1E1E1E1E1E1E1E1E1E1E1E1E1E1E1E1E1E1E1E1E1E1E1E1E1E1E1E1E1E1E1E1E1E1E1E1E1E1E1E1E1E1E1E1E1E1E1E1E1E1E1E1E1E1E1E1E1E1E1E1E1E1E1E1
310
E1E1E1E1BEE1E1BEE1E1E1E1E1E1E1E1E1E1E1E1E1E1E1E1E1E1E1E1E1E1E1E1E1E1E1E1E1E1E1E20FE1E1E1E1E10FE1E1E1E1E1E1E1E1E1E1E1E1E1E1E1BEE1E1E1E1E1E1E1E1E1E1E1E1E1E1E10FE1E1E1E1E10FE2E1E1E1E1BEE1E1E1E1E1E1E1E1E1E1E1E1E1E1E1E1E1E1E1E1E1E1E1E1E1E1E1E1E1E1E1E1E1E1E1E1
310
E1E1E1E1E1E1E1E1E1E1E1E1E1E1E1E1E1E1E1E1E1E10FE2E2E2E2E2E2E2E2E2E2E1E1E1E1E1E1E1E1E128E1E1E1E1E1E1E1E1E1E1E1E1E1E1E1E1E1E1E1E1E1E1E1E1E1E1E1E1E1E1E1E1E1E1E1E1E1E1E1E1E1E1E1E1E1E1E1E1E1E1E1E1E1E1E1E1E1E1E1E1E1E1E1E1E1E1E1E1E1E1E1E1E1E1E1E1E1E1E1E1E1E1E1E1
310
E1E1E1E1E1E1BEE1E1BEE1E1E1E1E1E1E1E1E1E1E1E1E1E1E1E1E1E1E1E1E1E1E1E1E1E1E1E1E1E1E1E20FE1E1E1E1E10FE1E1E1E1E1E1E1E1E1E1E1E1E1E1E1BEE1E1E1E1E1E1E1E1E1E1E1E1E1E1E10FE1E1E1E1E10FE2E1E1E10FBEE1E1E1E1E1E1E1E1E1E1E1E1E1E1E1E1E1E1E1E1E1E1E1E1E1E1E1E1E1E1E1E1E1E1
310
E1E1E1E1E1E1E1E1E1E1E1E1E1E1E1E1E1E1E1E1E1E1E1E10FE2E2E2E2E20FE2E2E20F0F0F0F0F0F0F0F0F0F0FE1E1E1E1E1E1E1E1E1E1E1E1E1E1E1E1E1E1E1E1E1E1E1E1E1E1E1E1E1E1E1E1E1E1E1E1E1E1E1E1E1E1E1E1E1E1E1E1E1E1E1E1E1E1E1E1E1E1E1E1E1E1E1E1E1E1E1E1E1E1E1E1E1E1E1E1E1E1E1E1E1E1
310
E1E1E1E1E1E1E1E1BEE1E1BEE1E1E1E1E1E1E1E1E1E1E1E1E1E1E1E1E1E1E1E1E1E1E1E1E1E1E1E1E1E1E1E20FE1E1E1E1E10FE1E1E1E1E1E1E1E1E1E1E1E1E1E1E1BEE1E1E1E1E1E1E1E1E1E1E1E1E1E1E10FE1E1E1E1E10FE2E1E10F0FBEE1E1E1E1E1E1E1E1E1E1E1E1E1E1E1E1E1E1E1E1E1E1E1E1E1E1E1E1E1E1E1E1
310
E1E1E1E1E1E1E1E1E1E1E1E1E1E1E1E1E1E1E1E1E1E1E1E1E1E1BEBEBEBEBEBEBEBEBEBEBEBEBEBEBEBEBEBEBEE128E1E1E1E1E1E1E1E1E1E1E1E1E1E1E1E1E1E1E1E1E1E1E1E1E1E1E1E1E1E1E1E1E1E1E1E1E1E1E1E1E1E1E1E1E1E1E1E1E1E1E1E1E1E1E1E1E1E1E1E1E1E1E1E1E1E1E1E1E1E1E1E1E1E1E1E1E1E1E1E1
310
E1E1E1E1E1E1E1E1E1E1BEE1E1BEE1E1E1E1E1E1E1E1E1E1E1E1E1E1E1E1E1E1E1E1E1E1E1E1E1E1E1E1E1E1E1E20FE1E1E1E1E10FE1E1E1E1E1E1E1E1E1E1E1E1E1E1E1BEE1E1E1E1E1E1E1E1E1E1E1E1E1E1E10FE1E1E1E1E10FE2E1E10F0FBEE1E1E1E1E1E1E1E1E1E1E1E1E1E1E1E1E1E1E1E1E1E1E1E1E1E1E1E1E1E1
310
E1E1E1E1E1E1E1E1E1E1E1E1E1E1E1E1E1E1E1E1E1E1E1E1E1E1E1E1BEBEBEBEBEE2E2E2E2E2E2E2E2BEBEE1BEBEBEE128E1E1E1E1E1E1E1E1E1E1E1E1E1E1E1E1E1E1E1E1E1E1E1E1E1E1E1E1E1E1E1E1E1E1E1E1E1E1E1E1E1E1E1E1E1E1E1E1E1E1E1E1E1E1E1E1E1E1E1E1E1E1E1E1E1E1E1E1E1E1E1E1E1E1E1E1E1E1
310
E1E1E1E1E1E1E1E1E1E1E1E1BEE1E1BEE1E1E1E1E1E1E1E1E1E1E1E1E1E1E1E1E1E1E1E1E1E1E1E1E1E1E1E1E1E1E1E20FE1E1E1E1E10FE1E1E1E1E1E1E1E1E1E1E1E1E1E1E1BEE1E1E1E1E1E1E1E1E1E1E1E1E1E1E10FE1E1E1E1E10FE2E1E1E1E1BEE1E1E1E1E1E1E1E1E1E1E1E1E1E1E1E1E1E1E1E1E1E1E1E1E1E1E1E1
310
E1E1E1E1E1E1E1E1E1E1E1E1E1E1E1E1E1E1E1E1E1E1E1E1E1E1E1E1E1E10F0F0F0F0FE2E2E2E2E2E2E2E20FE1E1E1E1E1E128E1E1E1E1E1E1E1E1E1E1E1E1E1E1E1E1E1E1E1E1E1E1E1E1E1E1E1E1E1E1E1E1E1E1E1E1E1E1E1E1E1E1E1E1E1E1E1E1E1E1E1E1E1E1E1E1E1E1E1E1E1E1E1E1E1E1E1E1E1E1E1E1E1E1E1E1
310
E1E1E1E1E1E1E1E1E1E1E1E1E1E1BEE1E1BEE1E1E1E1E1E1E1E1E1E1E1E1E1E1E1E1E1E1E1E1E1E1E1E1E1E1E1E1E1E1E1E20FE1E1E1E1E10FE1E1E1E1E1E1E1E1E1E1E1E1E1E1E1BEE1E1E1E1E1E1E1E1E1E1E1E1E1E10FE1E1E1E1E1E1E2E1E1E1E1E1BEE1E1E1E1E1E1E1E1E1E1E1E1E1E1E1E1E1E1E1E1E1E1E1E1E1E1
310
E1E1E1E1E1E1E1E1E1E1E1E1E1E1E1E1E1E1E1E1E1E1E1E1E1E1E1E1E1E1E1E10F0F0F0F0F0F0F0F0F0F0F0F0F0F0F0F0F0F0F0F0FE1E1E1E1E1E1E1E1E1E1E1E1E1E1E1E1E1E1E1E1E1E1E1E1E1E1E1E1E1E1E1E1E1E1E1E1E1E1E1E1E1E1E1E1E1E1E1E1E1E1E1E1E1E1E1E1E1E1E1E1E1E1E1E1E1E1E1E1E1E1E1E1E1E1
310
E1E1E1E1E1E1E1E1E1E1E1E1E1E1E1E1BEE1E1BEE1E1E1E1E1E1E1E1E1E1E1E1E1E1E1E1E1E1E1E1E1E1E1E1E1E1E1E1E1E1E1E20FE1E1E1E1E10FE1E1E1E1E1E1E1E1E1E1E1E1E1E1E1BEE1E1E1E1E1E1E1E1E1E1E1E1E1E10FE1E1E1E1E1E1E2E1E1E1E1E1BEE1E1E1E1E1E1E1E1E1E1E1E1E1E1E1E1E1E1E1E1E1E1E1E1
310
E1E1E1E1E1E1E1E1E1E1E1E1E1E1E1E1E1E1E1E1E1E1E1E1E1E1E1E1E1E1E1E1E1E10FBEBEBEE1E2E2E1E1E1E1E1E1E1E1E10F0FBEBEBEE1E1E1E1E1E1E1E1E1E1E1E1E1E1E1E1E1E1E1E1E1E1E1E1E1E1E1E1E1E1E1E1E1E1E1E1E1E1E1E1E1E1E1E1E1E1E1E1E1E1E1E1E1E1E1E1E1E1E1E1E1E1E1E1E1E1E1E1E1E1E1E1
310
E1E1E1E1E1E1E1E1E1E1E1E1E1E1E1E1E1E1BEE1E1BEE1E1E1E1E1E1E1E1E1E1E1E1E1E1E1E1E1E1E1E1E1E1E1E1E1E1E1E1E1E1E1E20FE1E1E1E1E10FE1E1E1E1E1E1E1E1E1E1E1E1E1E1E1BEE1E1E1E1E1E1E1E1E1E1E1E1E1E10FE1E1E1E1E1E1E2E1E1E1E1E1BEE1E1E1E1E1E1E1E1E1E1E1E1E1E1E1E1E1E1E1E1E1E1
310
E1E1E1E1E1E1E1E1E1E1E1E1E1E1E1E1E1E1E1E1E1E1E1E1E1E1E1E1E1E1E1E1E1E1E1E10FBEBEBEBEE2E2E1E1E1E1E1E1E1E10FE10F0F0F28E1E1E1E1E1E1E1E1E1E1E1E1E1E1E1E1E1E1E1E1E1E1E1E1E1E1E1E1E1E1E1E1E1E1E1E1E1E1E1E1E1E1E1E1E1E1E1E1E1E1E1E1E1E1E1E1E1E1E1E1E1E1E1E1E1E1E1E1E1E1
310
E1E1E1E1E1E1E1E1E1E1E1E1E1E1E1E1E1E1E1E1BEE1E1BEE1E1E1E1E1E1E1E1E1E1E1E1E1E1E1E1E1E1E1E1E1E1E1E1E1E1E1E1E1E1E1E20FE1E1E1E1E10FE1E1E1E1E1E1E1E1E1E1E1E1E1E1E1BEE1E1E1E1E1E1E1E1E1E1E1E1E1E10FE1E1E1E1E1E1E2E1E1E1E1E1BEE1E1E1E1E1E1E1E1E1E1E1E1E1E1E1E1E1E1E1E1
310
E1E1E1E1E1E1E1E1E1E1E1E1E1E1E1E1E1E1E1E1E1E1E1E1E1E1E1E1E1E1E1E1E1E1E1E1E1E10FBEBEBEBE0F0F0F0F0F0F0F0F0F0F0F0FE1E1E128E1E1E1E1E1E1E1E1E1E1E1E1E1E1E1E1E1E1E1E1E1E1E1E1E1E1E1E1E1E1E1E1E1E1E1E1E1E1E1E1E1E1E1E1E1E1E1E1E1E1E1E1E1E1E1E1E1E1E1E1E1E1E1E1E1E1E1E1
310
E1E1E1E1E1E1E1E1E1E1E1E1E1E1E1E1E1E1E1E1E1E1BEE1E1BEE1E1E1E1E1E1E1E1E1E1E1E1E1E1E1E1E1E1E1E1E1E1E1E1E1E1E1E1E1E1E1E20FE1E1E1E1E10FE1E1E1E1E1E1E1E1E1E1E1E1E1E1E1BEE1E1E1E1E1E1E1E1E1E1E1E1E1E10FE1E1E1E1E1E1E2E1E1E1E1E1BEE1E1E1E1E1E1E1E1E1E1E1E1E1E1E1E1E1E1
310
E1E1E1E1E1E1E1E1E1E1E1E1E1E1E1E1E1E1E1E1E1E1E1E1E1E1E1E1E1E1E1E1E1E1E1E1E1E1E1E10FE1E1E1E10F0F0F0F0F0F0F0F0F0F0F0FE1E1E128E1E1E1E1E1E1E1E1E1E1E1E1E1E1E1E1E1E1E1E1E1E1E1E1E1E1E1E1E1E1E1E1E1E1E1E1E1E1E1E1E1E1E1E1E1E1E1E1E1E1E1E1E1E1E1E1E1E1E1E1E1E1E1E1E1E1
310
E1E1E1E1E1E1E1E1E1E1E1E1E1E1E1E1E1E1E1E1E1E1E1E1BEE1E1BEE1E1E1E1E1E1E1E1E1E1E1E1E1E1E1E1E1E1E1E1E1E1E1E1E1E1E1E1E1E1E1E20FE1E1E1E1E10FE1E1E1E1E1E1E1E1E1E1E1E1E1E1E1BEE1E1E1E1E1E1E1E1E1E1E1E1E1E10FE1E1E1E1E1E1E2E1E1E1E1E1BEE1E1E1E1E1E1E1E1E1E1E1E1E1E1E1E1
310
E1E1E1E1E1E1E1E1E1E1E1E1E1E1E1E1E1E1E1E1E1E1E1E1E1E1E1E1E1E1E1E1E1E1E1E1E1E1E1E1E1E10FBEBEBEBE0F0F0F0F0F0F0F0F0F0F0F0FE1E1E128E1E1E1E1E1E1E1E1E1E1E1E1E1E1E1E1E1E1E1E1E1E1E1E1E1E1E1E1E1E1E1E1E1E1E1E1E1E1E1E1E1E1E1E1E1E1E1E1E1E1E1E1E1E1E1E1E1E1E1E1E1E1E1E1
310
E1E1E1E1E1E1E1E1E1E1E1E1E1E1E1E1E1E1E1E1E1E1E1E1E1E1BEE1E1BEE1E1E1E1E1E1E1E1E1E1E1E1E1E1E1E1E1E1E1E1E1E1E1E1E1E1E1E1E1E1E1E20FE1E1E10F0F0F0F0F0F0F0F0F0F0F0F0F0F0F0F0F0F0F0F0F0F0F0F0F0F0F0F0F0F0F0F0F0F0F0F0FE1E1E1E2E1E1E1E1E1BEE1E1E1E1E1E1E1E1E1E1E1E1E1E1
310
E1E1E1E1E1E1E1E1E1E1E1E1E1E1E1E1E1E1E1E1E1E1E1E1E1E1E1E1E1E1E1E1E1E1E1E1E1E1E1E1E1E1E1E10F0F0F0F0F0F0F0F0F0F0F0F0F0F0F0F0F0F0F0F0FE1E1E1E1E1E1E1E1E1E1E1E1E1E1E1E1E1E1E1E1E1E1E1E1E1E1E1E1E1E1E1E1E1E1E1E1E1E1E1E1E1E1E1E1E1E1E1E1E1E1E1E1E1E1E1E1E1E1E1E1E1E1
310
E1E1E1E1E1E1E1E1E1E1E1E1E1E1E1E1E1E1E1E1E1E1E1E1E1E1E1E1BEE1E1BEE1E1E1E1E1E1E1E1E1E1E1E1E1E1E1E1E1E1E1E1E1E1E1E1E1E1E1E1E1E1E1E20F0F0F0F0F0F0F0F0F0F0F0F0F0F0F0F0F0F0F0F0F0FBE0F0F0F0F0F0F0F0F0F0F0F0F0F0F0F0F0F0F0F0F0F0FE1E1E1E1BEBEE1E1E1E1E1E1E1E1E1E1E1E1
310
E1E1E1E1E1E1E1E1E1E1E1E1E1E1E1E1E1E1E1E1E1E1E1E1E1E1E1E1E1E1E1E1E1E1E1E1E1E1E1E1E1E1E1E1E1E10FBEBEBEBE0F0FE1E1E1E1E1E1E1E1E1E1E1E1E128E1E1E1E1E1E1E1E1E1E1E1E1E1E1E1E1E1E1E1E1E1E1E1E1E1E1E1E1E1E1E1E1E1E1E1E1E1E1E1E1E1E1E1E1E1E1E1E1E1E1E1E1E1E1E1E1E1E1E1E1
310
E1E1E1E1E1E1E1E1E1E1E1E1E1E1E1E1E1E1E1E1E1E1E1E1E1E1E1E1E1E1BEE1E1BEE1E1E1E1E1E1E1E1E1E1E1E1E1E1E1E1E1E1E1E1E1E1E1E1E1E1E1E1E1E1E1E2E2E2E2E2E2E2E2E2E2E2E2E2E2E2E2E2E2E2E2E2E2E2BEE2E2E2E2E2E2E2E2E2E2E2E2E2E2E2E2E2E2E2E2E20FBEBEBEBEBEBEE1E1E1E1E1E1E1E1E1E1
310
E1E1E1E1E1E1E1E1E1E1E1E1E1E1E1E1E1E1E1E1E1E1E1E1E1E1E1E1E1E1E1E1E1E1E1E1E1E1E1E1E1E1E1E1E1E1E1E10F0FE1E1E1E1E1E1E1E1E1E1E1E1E1E1E1E1E1E128E1E1E1E1E1E1E1E1E1E1E1E1E1E1E1E1E1E1E1E1E1E1E1E1E1E1E1E1E1E1E1E1E1E1E1E1E1E1E1E1E1E1E1E1E1E1E1E1E1E1E1E1E1E1E1E1E1E1
310
E1E1E1E1E1E1E1E1E1E1E1E1E1E1E1E1E1E1E1E1E1E1E1E1E1E1E1E1E1E1E1E1BEE1E1BEE1E1E1E1E1E1E1E1E1E1E1E1E1E1E1E1E1E1E1E1E1E1E1E1E1E1E1E1E1E10F0F0FE10FE1E1E1E1E1E1E1E1E1E1E1E1E1E1E1E1E1E1E1E1E1E1E1E1E1E1E1E1E1E1E1E1E1E1E1E1E1E1E1E1E1E1E1E1E1E1E1E1E1E1E1E1E1E1E1E1
310
E1E1E1E1E1E1E1E1E1E1E1E1E1E1E1E1E1E1E1E1E1E1E1E1E1E1E1E1E1E1E1E1E1E1E1E1E1E1E1E1E1E1E1E1E1E1E1E1E1E10FBEBEBEBE0F0F0F0F0F0F0F0F0F0F0F0F0F0F0F0FE1E1E1E1E1E1E1E1E1E1E1E1E1E1E1E1E1E1E1E1E1E1E1E1E1E1E1E1E1E1E1E1E1E1E1E1E1E1E1E1E1E1E1E1E1E1E1E1E1E1E1E1E1E1E1E1
310
E1E1E1E1E1E1E1E1E1E1E1E1E1E1E1E1E1E1E1E1E1E1E1E1E1E1E1E1E1E1E1E1E1E1BEE1E1BEE1E1E1E1E1E1E1E1E1E1E1E1E1E1E1E1E1E1E1E1E1E1E1E1E1E1E1E1E1E10F0F0F0F0FE1E1E1E1E1E1E1E1E1E1E1E1E1E1E1E1E1E1E1E1E1E1E1E1E1E1E1E1E1E1E1E1E1E1E1E1E1E1E1E1E1E1E1E1E1E1E1E1E1E1E1E1E1E1
310
E1E1E1E1E1E1E1E1E1E1E1E1E1E1E1E1E1E1E1E1E1E1E1E1E1E1E1E1E1E1E1E1E1E1E1E1E1E1E1E1E1E1E1E1E1E1E1E1E1E1E1E10FBEBEBEBEE1E2E1E1E1E1E1E1E1E1E1E1E1E1E128E1E1E1E1E1E1E1E1E1E1E1E1E1E1E1E1E1E1E1E1E1E1E1E1E1E1E1E1E1E1E1E1E1E1E1E1E1E1E1E1E1E1E1E1E1E1E1E1E1E1E1E1E1E1
310
E1E1E1E1E1E1E1E1E1E1E1E1E1E1E1E1E1E1E1E1E1E1E1E1E1E1E1E1E1E1E1E1E1E1E1E1BEE1E1BEE1E1E1E1E1E1E1E1E1E1E1E1E1E1E1E1E1E1E1E1E1E1E1E1E1E1E1E1E1E10F0F0F0F0F0FE1E1E1E1E1E1E1E1E1E1E1E1E1E1E1E1E1E1E1E1E1E1E1E1E1E1E1E1E1E1E1E1E1E1E1E1E1E1E1E1E1E1E1E1E1E1E1E1E1E1E1
310
E1E1E1E1E1E1E1E1E1E1E1E1E1E1E1E1E1E1E1E1E1E1E1E1E1E1E1E1E1E1E1E1E1E1E1E1E1E1E1E1E1E1E1E1E1E1E1E1E1E1E1E1E1E10FBEBEBEBEBEE1E1E1E1E1E1E1E1E1E1E1E1E1E128E1E1E1E1E1E1E1E1E1E1E1E1E1E1E1E1E1E1E1E1E1E1E1E1E1E1E1E1E1E1E1E1E1E1E1E1E1E1E1E1E1E1E1E1E1E1E1E1E1E1E1E1
310
E1E1E1E1E1E1E1E1E1E1E1E1E1E1E1E1E1E1E1E1E1E1E1E1E1E1E1E1E1E1E1E1E1E1E1E1E1E1BEE1E1BEE1E1E1E1E1E1E1E1E1E1E1E1E1E1E1E1E1E1E1E1E1E1E1E1E1E1E1E1E1E10F0F0F0F0F0FE1E1E1E1E1E1E1E1E1E1E1E1E1E1E1E1E1E1E1E1E1E1E1E1E1E1E1E1E1E1E1E1E1E1E1E1E1E1E1E1E1E1E1E1E1E1E1E1E1
310
E1E1E1E1E1E1E1E1E1E1E1E1E1E1E1E1E1E1E1E1E1E1E1E1E1E1E1E1E1E1E1E1E1E1E1E1E1E1E1E1E1E1E1E1E1E1E1E1E1E1E1E1E1E1E1E10F0F0F0F0F0F0F0F0F0F0F0F0F0F0F0F0F0F0F0F0FE1E1E1E1E1E1E1E1E1E1E1E1E1E1E1E1E1E1E1E1E1E1E1E1E1E1E1E1E1E1E1E1E1E1E1E1E1E1E1E1E1E1E1E1E1E1E1E1E1E1
310
E1E1E1E1E1E1E1E1E1E1E1E1E1E1E1E1E1E1E1E1E1E1E1E1E1E1E1E1E1E1E1E1E1E1E1E1E1E1E1E1BEE1E1BEE1E1E1E1E1E1E1E1E1E1E1E1E1E1E1E1E1E1E1E1E1E1E1E1E1E1E1E1E1E1E1BEBEBEBEBEBEBEBEBEBEBEBEBEBEBEBEBEBEBEBEBEBE0F0F0FBEBEBEBEBEBEBEBEBEBEBEBEBEBEBEBEBEBEBEBEBE0FE1E1E1E1E1
310
E1E1E1E1E1E1E1E1E1E1E1E1E1E1E1E1E1E1E1E1E1E1E1E1E1E1E1E1E1E1BE0F0F0F0F0FBEBEBEE1E1E1E1E1E1E1E1E1E1E1E1E1E1E1E1E1E1E1E1E1E1E1E1E1E1E1E1E1E1E1E1E1E1E1E1E1E1E128E1E1E1E1E1E1E1E1E1E1E1E1E1E1E1E1E1E1E1E1E1E1E1E1E1E1E1E1E1E1E1E1E1E1E1E1E1E1E1E1E1E1E1E1E1E1E1E1
310
E1E1E1E1E1E1E1E1E1E1E1E1E1E1E1E1E1E1E1E1E1E1E1E1E1E1E1E1E1E1E1E1E1E1E1E1E1E1E1E1E1E1BEE1E1BEE1E1E1E1E1E1E1E1E1E1E1E1E1E1E1E1E1E1E1E1E1E1E1E1E1E1E1E1E1E1E1BEE1E1E1E1E1E1E1E1E1E1E1E1E1E1E1E1E1E1E1E1E10F0F0FE1E1E1E1E1E1E1E1E1E1E1E1E1E1E1E1E1E1E1E1E1BEE1E1E1
310
E1E1E1E1E1E1E1E1E1E1E1E1E1E1E1E1E1E1E1E1E1E1E1E1E1E1E1E1E1E1E1E1E10F0F0F0FBEE1BEE1E1E1E1E1E1E1E1E1E1E1E1E1E1E1E1E1E1E1E1E1E1E1E1E1E1E1E1E1E1E1E1E1E1E1E1E1E1E1E128E1E1E1E1E1E1E1E1E1E1E1E1E1E1E1E1E1E1E1E1E1E1E1E1E1E1E1E1E1E1E1E1E1E1E1E1E1E1E1E1E1E1E1E1E1E1
310
E1E1E1E1E1E1E1E1E1E1E1E1E1E1E1E1E1E1E1E1E1E1E1E1E1E1E1E1E1E1E1E1E1E1E1E1E1E1E1E1E1E1E1E1BEE1E1BEE1E1E1E1E1E1E1E1E1E1E1E1E1E1E1E1E1E1E1E1E1E1E1E1E1E1E1E1E1E1E1BEE1E1E1E1E1E1E1E1E1E1E1E1E1E1E1E1E1E1E1E1E1E1E1E1E1E1E1E1E1E1E1E1E1E1E1E1E1E1E1E1E1E1E1E1E1BEE1
310
E1E1E1E1E1E1E1E1E1E1E1E1E1E1E1E1E1E1E1E1E1E1E1E1E1E1E1E1E1E1E1E1E1E1E1E1E1E1E1BEE1BEE1E1E1E1E1E1E1E1E1E1E1E1E1E1E1E1E1E1E1E1E1E1E1E1E1E1E1E1E1E1E1E1E1E1E1E1E1E1E1E128E1E1E1E1E1E1E1E1E1E1E1E1E1E1E1E1E1E1E1E1E1E1E1E1E1E1E1E1E1E1E1E1E1E1E1E1E1E1E1E1E1E1E1E1
310
E1E1E1E1E1E1E1E1E1E1E1E1E1E1E1E1E1E1E1E1E1E1E1E1E1E1E1E1E1E1E1E1E1E1E1E1E1E1E1E1E1E1E1E1E1E1BEE1E1BEE1E1E1E2E2E2E2E2E2E2E2E2E2E2E2E2E2E2E2E2E2E2E2E2E2E2E1E1E1E1E1BEE2E2E2E2E2E2E2E2E2E2E2E2E2E2E2E2E2E2E2E2E2E2BEE2E2E2E2E2E2E2E2E2E2E2E2E2E2E2E2E2E2E2E20FBE
310
BEBEBE0FE1E1E2E2E2E2E2E2E2E2E2E2E2E2E2E2E2E2E2E2E2E2E2E2E1E1E1E1E1E1E2E2BEE2E2E2E2BEE2BEE2E2E2E2E2E2E2E2E2E2E2E2BEE2E2E2E2E2E2E2E2E2E2E2E2E2E2E2E2E2E2E2E2BEE2E1E1E1E1E128E1E1E1E1E1E1E1E1E1E1E1E1E1E1E1E1E1E1E1E1E1E1E1E1E1E1E1E1E1E1E1E1E1E1E1E1E1E1E1E1E1E1
310
E1E1E1E1E1E1E1E1E1E1E1E1E1E1E1E1E1E1E1E1E1E1E1E1E1E1E1E1E1E1E1E1E1E1E1E1E1E1E1E1E1E1E1E1E1E1E1E1BEE1E1BEE1E1E1E20F0F0F0F0F0F0F0F0F0F0F0F0F0F0F0F0F0F0F0F0FE2E1E1E1E1E1BEE2BEE2E1E1E1E10F0F0F0F0F0F0F0F0F0F0F0F0F0F0FBE0F0F0F0F0F0F0F0F0F0F0F0F0F0F0FE1E1E1E1E2
310
BEE1BEE1BEBEE1E1E20F0F0F0F0F0F0F0F0F0F0F0F0F0F0F0FE20F0F0FE2E1E1E1E1E1E1E2E2E2E10FE2E1BE0FBE0F0F0F0F0F0F0F0F0F0F0F0FBE0F0F0F0F0F0F0F0F0F0F0F0F0F0F0F0FE10F0FE2E2E2E2E1E1E1E128E1E1E1E1E1E1E1E1E1E1E1E1E1E1E1E1E1E1E1E1E1E1E1E1E1E1E1E1E1E1E1E1E1E1E1E1E1E1E1E1
310
E1E1E1E1E1E1E1E1E1E1E1E1E1E1E1E1E1E1E1E1E1E1E1E1E1E1E1E1E1E1E1E1E1E1E1E1E1E1E1E1E1E1E1E1E1E1E1E1E1E1BEE1E1BEE1E1E1E20FE1E1E2E2E1E1E1E1E1E1E1E1E1E1E1E1E10FE10FE2E1E1E1E1E10FBEBEBEBEE1E1E10FE1E1E1E1E1E1E1E1E1E1E1E1E1E1BEE1E1E1E1E1E1E1E1E1E1E1E1E1E10FE1E1E1
310
BEBEBEBE0FE1E1BEE1E1E20F0FE1E1E1E1E1E1E1E1E1E1E1E1E1E1E2E1E1E10FE1E1E1E1E1E2BEE2E2BEBEBEBEBEBEBEBEE1E1E1BEE1E1E1E1E1E1E1BEE1E1E1E1E1E1E1BEE1E1E1BEE1E1BE0F0FE20FE2BEE2BEE1E1E1E128E1E1E1E1E1E1E1E1E1E1E1E1E1E1E1E1E1E1E1E1E1E1E1E1E1E1E1E1E1E1E1E1E1E1E1E1E1E1
310
E1E1E1E1E1E1E1E1E1E1E1E1E1E1E1E1E1E1E1E1E1E1E1E1E1E1E1E1E1E1E1E1E1E1E1E1E1E1E1E1E1E1E1E1E1E1E1E1E1E1E1E1BEE1E128E1E1E1E20FE1E1E2E2E1E1E1E1E1E1E1E1E1E1E1E1E10FE10FE2E1E1E1E1E1E2E2BEE2E1E1E10FE1E1E1E1E1E1E1E1E1E1E1E1E1E1E1BEE1E1E1E1E1E1E1E1E1E1E1E1E1E10FE1
310
E1E1E1E2BEE1E2E1E1BEE1E1E20F0FE1E1E1E1E1E1E1E1E1E1E1E1E1E1E2E1E1E10FE1E1E1E1E1E2E1BEE2E1E2E20F0F0F0FBEBEE1E10F0FE1E1E1E1E1BEBEBEE1E1E1E1E1BE0F0FE1BEBEBE0F0F0F0F0F0FE2E2E2E2E1E1E1E128E1E1E1E1E1E1E1E1E1E1E1E1E1E1E1E1E1E1E1E1E1E1E1E1E1E1E1E1E1E1E1E1E1E1E1E1
310
E1E1E1E1E1E1E1E1E1E1E1E1E1E1E1E1E1E1E1E1E1E1E1E1E1E1E1E1E1E1E1E1E1E1E1E1E1E1E1E1E1E1E1E1E1E1E1E1E1E1E1E1E1E1BEE1E128E1E1E1E20FE1E10F0F0F0F0F0F0F0F0F0F0F0F0F0F0F0F0F0FE2E1E1E1E1E1E2E1BEE1E1E10F0FE1E1E1E1E1E1E1E1E1E1E1E1E1E1E1BEE1E1E1E1E1E1E1E1E1E1E1E1E1E1
310
E10F0FE1E1E1BEE1E2E1E1BEE1E1E20F0F0F0F0F0F0F0F0F0F0F0F0F0F0F0F0FE1E1E10FE1E1E1E1E1E2E10FBE0F0FBE0F0F0F0F0F0F0F0F0F0F0F0F0F0F0F0FBEBE0F0F0F0F0F0F0F0F0F0F0F0FBE0F0F0FBE0F0FBE0FE2E1E1E1E128E1E1E1E1E1E1E1E1E1E1E1E1E1E1E1E1E1E1E1E1E1E1E1E1E1E1E1E1E1E1E1E1E1E1
310
E1E1E1E1E1E1E1E1E1E1E1E1E1E1E1E1E1E1E1E1E1E1E1E1E1E1E1E1E1E1E1E1E1E1E1E1E1E1E1E1E1E1E1E1E1E1E1E1E1E1E1E1E1E1E1E1BEE1E128E1E1E1E20F0F0F0FE2E1E1E1E1E1E1E1E1E1E1E1E1E1E1E10FE2E1E1E1E1E1E20F0F0F0F0FE1E1E1E1E1E1E1E1E1E1E1E1E1E1E1E1E1BEE1E1E1E1E1E1E1E1E1E1E1E1
310
E1E1E1E1E10F0F0F0FE1E2E1E1BEE1E1E20FE1E1E1E1E1E1E1E1E1E1E1E1E1E1E10F0F0F0F0FE1E1E1E1E1E20F0FE1E1E1E1E1E1E1E1E1E1E1E1E1E1E1E1E1E1E1E1BEE1E1E1E1E1E1E1E1E1E1E1E1E1E1E1E1E1E1E1E1E10FE2E1E1E1E128E1E1E1E1E1E1E1E1E1E1E1E1E1E1E1E1E1E1E1E1E1E1E1E1E1E1E1E1E1E1E1E1
310
E1E1E1E1E1E1E1E1E1E1E1E1E1E1E1E1E1E1E1E1E1E1E1E1E1E1E1E1E1E1E1E1E1E1E1E1E1E1E1E1E1E1E1E1E1E1E1E1E1E1E1E1E1E1E1E1E1E1BEE1E128E1E1E1E20FE1E1E2E2E1E1E1E1E1E1E1E1E1E1E1E1E1E1E10FE2E1E1E1E1E1E20FE1E1E1E1E1E1E1E1E1E1E1E1E1E1E1E1E1E1E1E1E1BEE1E1E1E1E1E1E1E1E1E1
310
E1E1E1E1E1E1E1E1E1E10FE1E2E1E1BEE1E1E20FE1E1E1E1E1E1E1E1E1E1E1E1E1E1E1E2E1E1E10FE1E1E1E1E1E20FE1E1E1E1E1E1E1E1E1E1E1E1E1E1E1E1E1E1E1E1E1BEE1E1E1E1E1E1E1E1E1E1E1E1E1E1E1E1E1E1E1E1E10FE2E1E1E1E128E1E1E1E1E1E1E1E1E1E1E1E1E1E1E1E1E1E1E1E1E1E1E1E1E1E1E1E1E1E1
310
E1E1E1E1E1E1E1E1E1E1E1E1E1E1E1E1E1E1E1E1E1E1E1E1E1E1E1E1E1E1E1E1E1E1E1E1E1E1E1E1E1E1E1E1E1E1E1E1E1E1E1E1E1E1E1E1E1E1E1E1BEE1E128E1E1E1E20FE1E1E2E2E1E1E1E1E1E1E1E1E1E1E1E1E1E1E10FE2E1E1E1E1E1E20FE1E1E1E1E1E1E1E1E1E1E1E1E1E1E1E1E1E1E1E1E1BEE1E1E1E1E1E1E1E1
310
E1E1E1E1E1E1E1E1E1E1E1E10FE1E2E1E1BEE1E1E20FE1E1E1E1E1E1E1E1E1E1E1E1E1E1E1E2E1E1E10FE1E1E1E1E1E20FE1E1E1E1E1E1E1E1E1E1E1E1E1E1E1E1E1E1E1E1E1BEE1E1E1E1E1E1E1E1E1E1E1E1E1E1E1E1E1E1E1E1E10FE2E1E1E1E128E1E1E1E1E1E1E1E1E1E1E1E1E1E1E1E1E1E1E1E1E1E1E1E1E1E1E1E1
310
E1E1E1E1E1E1E1E1E1E1E1E1E1E1E1E1E1E1E1E1E1E1E1E1E1E1E1E1E1E1E1E1E1E1E1E1E1E1E1E1E1E1E1E1E1E1E1E1E1E1E1E1E1E1E1E1E1E1E1E1E1E1BEE1E128E1E1E1E20FE1E1E2E2E1E1E1E1E1E1E1E1E1E1E1E1E1E1E10FE2E1E1E1E1E1E20FE1E1E1E1E1E1E1E1E1E1E1E1E1E1E1E1E1E1E1E1E1BEE1E1E1E1E1E1
310
E1E1E1E1E1E1E1E1E1E1E1E1E1E10FE1E2E1E1BEE1E1E20FE1E1E1E1E1E1E1E1E1E1E1E1E1E1E1E2E1E1E10FE1E1E1E1E1E20FE1E1E1E1E1E1E1E1E1E1E1E1E1E1E1E1E1E1E1E1E1BEE1E1E1E1E1E1E1E1E1E1E1E1E1E1E1E1E1E1E1E1E10FE2E1E1E1E128E1E1E1E1E1E1E1E1E1E1E1E1E1E1E1E1E1E1E1E1E1E1E1E1E1E1
310
E1E1E1E1E1E1E1E1E1E1E1E1E1E1E1E1E1E1E1E1E1E1E1E1E1E1E1E1E1E1E1E1E1E1E1E1E1E1E1E1E1E1E1E1E1E1E1E1E1E1E1E1E1E1E1E1E1E1E1E1E1E1E1E1BEE1E128E1E1E1E20FE1E1E2E2E1E1E1E1E1E1E1E1E1E1E1E1E1E1E10FE2E1E1E1E1E1E20FE1E1E1E1E1E1E1E1E1E1E1E1E1E1E1E1E1E1E1E1E1BEE1E1E1E1
310
E1E1E1E1E1E1E1E1E1E1E1E1E1E1E1E10FE1E2E1E1BEE1E1E20FE1E1E1E1E1E1E1E1E1E1E1E1E1E1E1E2E1E1E10FE1E1E1E1E1E20FE1E1E1E1E1E1E1E1E1E1E1E1E1E1E1E1E1E1E1E1E1BEE1E1E1E1E1E1E1E1E1E1E1E1E1E1E1E1E1E1E1E1E10FE2E1E1E1E128E1E1E1E1E1E1E1E1E1E1E1E1E1E1E1E1E1E1E1E1E1E1E1E1
310
E1E1E1E1E1E1E1E1E1E1E1E1E1E1E1E1E1E1E1E1E1E1E1E1E1E1E1E1E1E1E1E1E1E1E1E1E1E1E1E1E1E1E1E1E1E1E1E1E1E1E1E1E1E1E1E1E1E1E1E1E1E1E1E1E1E1BEE1E128E1E1E1E20FE1E1E2E2E1E1E1E1E1E1E1E1E1E1E1E1E1E1E10FE2E1E1E1E1E1E20FE1E1E1E1E1E1E1E1E1E1E1E1E1E1E1E1E1E1E1E1E1BEE1E1
310
E1E1E1E1E1E1E1E1E1E1E1E1E1E1E1E1E1E10FE1E2E1E1BEE1E1E20FE1E1E1E1E1E1E1E1E1E1E1E1E1E1E1E2E1E1E10FE1E1E1E1E1E20FE1E1E1E1E1E1E1E1E1E1E1E1E1E1E1E1E1E1E1E1E1BEE1E1E1E1E1E1E1E1E1E1E1E1E1E1E1E1E1E1E1E1E10FE2E1E1E1E128E1E1E1E1E1E1E1E1E1E1E1E1E1E1E1E1E1E1E1E1E1E1
310
E1E1E1E1E1E1E1E1E1E1E1E1E1E1E1E1E1E1E1E1E1E1E1E1E1E1E1E1E1E1E1E1E1E1E1E1E1E1E1E1E1E1E1E1E1E1E1E1E1E1E1E1E1E1E1E1E1E1E1E1E1E1E1E1E1E1E1E1BEE1E128E1E1E1E20FE1E1E2E2E1E1E1E1E1E1E1E1E1E1E1E1E1E1E10FE2E1E1E1E1E1E20FE1E1E1E1E1E1E1E1E1E1E1E1E1E1E1E1E1E1E1E1E1BE
310
E1E1E1E1E1E1E1E1E1E1E1E1E1E1E1E1E1E1E1E10FE1E2E1E1BEE1E1E20FE1E1E1E1E1E1E1E1E1E1E1E1E1E1E1E2E1E1E10FE1E1E1E1E1E20FE1E1E1E1E1E1E1E1E1E1E1E1E1E1E1E1E1E1E1E1E1BEE1E1E1E1E1E1E1E1E1E1E1E1E1E1E1E1E1E1E1E1E10FE2E1E1E1E128E1E1E1E1E1E1E1E1E1E1E1E1E1E1E1E1E1E1E1E1
310
E1E1E1E1E1E1E1E1E1E1E1E1E1E1E1E1E1E1E1E1E1E1E1E1E1E1E1E1E1E1E1E1E1E1E1E1E1E1E1E1E1E1E1E1E1E1E1E1E1E1E1E1E1E1E1E1E1E1E1E1E1E1E1E1E1E1E1E1E1E1BEE1E128E1E1E1E20FE1E1E2E2E1E1E1E1E1E1E1E1E1E1E1E1E1E1E10FE2E1E1E1E1E1E20FE1E1E1E1E1E1E1E1E1E1E1E1E1E1E1E1E1E1E1E1
310
E1BEE1E1E1E1E1E1E1E1E1E1E1E1E1E1E1E1E1E1E1E10FE1E2E1E1BEE1E1E20FE1E1E1E1E1E1E1E1E1E1E1E1E1E1E1E2E1E1E10FE1E1E1E1E1E20FE1E1E1E1E1E1E1E1E1E1E1E1E1E1E1E1E1E1E1E1E1BEE1E1E1E1E1E1E1E1E1E1E1E1E1E1E1E1E1E1E1E1E10FE2E1E1E1E128E1E1E1E1E1E1E1E1E1E1E1E1E1E1E1E1E1E1
310
E1E1E1E1E1E1E1E1E1E1E1E1E1E1E1E1E1E1E1E1E1E1E1E1E1E1E1E1E1E1E1E1E1E1E1E1E1E1E1E1E1E1E1E1E1E1E1E1E1E1E1E1E1E1E1E1E1E1E1E1E1E1E1E1E1E1E1E1E1E1E1E1BEE1E128E1E1E1E20FE1E1E2E2E1E1E1E1E1E1E1E1E1E1E1E1E1E1E10FE2E1E1E1E1E1E20FE1E1E1E1E1E1E1E1E1E1E1E1E1E1E1E1E1E1
310
E1E1E1BEE1E1E1E1E1E1E1E1E1E1E1E1E1E1E1E1E1E1E1E10FE1E2E1E1BEE1E1E20FE1E1E1E1E1E1E1E1E1E1E1E1E1E1E1E2E1E1E10FE1E1E1E1E1E20FE1E1E1E1E1E1E1E1E1E1E1E1E1E1E1E1E1E1E1E1E1BEE1E1E1E1E1E1E1E1E1E1E1E1E1E1E1E1E1E1E1E1E10FE2E1E1E1E128E1E1E1E1E1E1E1E1E1E1E1E1E1E1E1E1
310
E1E1E1E1E1E1E1E1E1E1E1E1E1E1E1E1E1E1E1E1E1E1E1E1E1E1E1E1E1E1E1E1E1E1E1E1E1E1E1E1E1E1E1E1E1E1E1E1E1E1E1E1E1E1E1E1E1E1E1E1E1E1E1E1E1E1E1E1E1E1E1E1E1E1BEE1E128E1E1E1E20FE1E1E2E2E1E1E1E1E1E1E1E1E1E1E1E1E1E1E10FE2E1E1E1E1E1E20FE1E1E1E1E1E1E1E1E1E1E1E1E1E1E1E1
310
E1E1E1E1E1BEE1E1E1E1E1E1E1E1E1E1E1E1E1E1E1E1E1E1E1E10FE1E2E1E1BEE1E1E20FE1E1E1E1E1E1E1E1E1E1E1E1E1E1E1E2E1E1E10FE1E1E1E1E1E20FE1E1E1E1E1E1E1E1E1E1E1E1E1E1E1E1E1E1E1E1E1BEE1E1E1E1E1E1E1E1E1E1E1E1E1E1E1E1E1E1E1E1E10FE2E1E1E1E128E1E1E1E1E1E1E1E1E1E1E1E1E1E1
310
E1E1E1E1E1E1E1E1E1E1E1E1E1E1E1E1E1E1E1E1E1E1E1E1E1E1E1E1E1E1E1E1E1E1E1E1E1E1E1E1E1E1E1E1E1E1E1E1E1E1E1E1E1E1E1E1E1E1E1E1E1E1E1E1E1E1E1E1E1E1E1E1E1E1E1E1BEE1E128E1E1E1E20FE1E1E2E2E1E1E1E1E1E1E1E1E1E1E1E1E1E1E10FE2E1E1E1E1E1E20FE1E1E1E1E1E1E1E1E1E1E1E1E1E1
310
E1E1E1E1E1E1E1BEE1E1E1E1E1E1E1E1E1E1E1E1E1E1E1E1E1E1E1E10FE1E2E1E1BEE1E1E20FE1E1E1E1E1E1E1E1E1E1E1E1E1E1E1E2E1E1E10FE1E1E1E1E1E20FE1E1E1E1E1E1E1E1E1E1E1E1E1E1E1E1E1E1E1E1E1BEE1E1E1E1E1E1E1E1E1E1E1E1E1E1E1E1E1E1E1E1E10FE2E1E1E1E128E1E1E1E1E1E1E1E1E1E1E1E1
310
E1E1E1E1E1E1E1E1E1E1E1E1E1E1E1E1E1E1E1E1E1E1E1E1E1E1E1E1E1E1E1E1E1E1E1E1E1E1E1E1E1E1E1E1E1E1E1E1E1E1E1E1E1E1E1E1E1E1E1E1E1E1E1E1E1E1E1E1E1E1E1E1E1E1E1E1E1E1BEE1E128E1E1E1E20FE1E1E2E2E1E1E1E1E1E1E1E1E1E1E1E1E1E1E10FE2E1E1E1E1E1E20FE1E1E1E1E1E1E1E1E1E1E1E1
310
E1E1E1E1E1E1E1E1E1BEE1E1E1E1E1E1E1E1E1E1E1E1E1E1E1E1E1E1E1E10FE1E2E1E1BEE1E1E20FE1E1E1E1E1E1E1E1E1E1E1E1E1E1E1E2E1E1E10FE1E1E1E1E1E20FE1E1E1E1E1E1E1E1E1E1E1E1E1E1E1E1E1E1E1E1E1BEE1E1E1E1E1E1E1E1E1E1E1E1E1E1E1E1E1E1E1E1E10FE2E1E1E1E128E1E1E1E1E1E1E1E1E1E1
310
E1E1E1E1E1E1E1E1E1E1E1E1E1E1E1E1E1E1E1E1E1E1E1E1E1E1E1E1E1E1E1E1E1E1E1E1E1E1E1E1E1E1E1E1E1E1E1E1E1E1E1E1E1E1E1E1E1E1E1E1E1E1E1E1E1E1E1E1E1E1E1E1E1E1E1E1E1E1E1E1BEE1E128E1E1E1E20FE1E1E2E2E1E1E1E1E1E1E1E1E1E1E1E1E1E1E10FE2E1E1E1E1E1E20FE1E1E1E1E1E1E1E1E1E1
310
E1E1E1E1E1E1E1E1E1E1E1BEE1E1E1E1E1E1E1E1E1E1E1E1E1E1E1E1E1E1E1E10FE1E2E1E1BEE1E1E20FE1E1E1E1E1E1E1E1E1E1E1E1E1E1E1E2E1E1E10FE1E1E1E1E1E20FE1E1E1E1E1E1E1E1E1E1E1E1E1E1E1E1E1E1E1E1E1BEE1E1E1E1E1E1E1E1E1E1E1E1E1E1E1E1E1E1E1E1E10FE2E1E1E1E128E1E1E1E1E1E1E1E1
310
E1E1E1E1E1E1E1E1E1E1E1E1E1E1E1E1E1E1E1E1E1E1E1E1E1E1E1E1E1E1E1E1E1E1E1E1E1E1E1E1E1E1E1E1E1E1E1E1E1E1E1E1E1E1E1E1E1E1E1E1E1E1E1E1E1E1E1E1E1E1E1E1E1E1E1E1E1E1E1E1E1E1BEE1E128E1E1E1E20FE1E1E2E2E1E1E1E1E1E1E1E1E1E1E1E1E1E1E10FE2E1E1E1E1E1E20FE1E1E1E1E1E1E1E1
310
E1E1E1E1E1E1E1E1E1E1E1E1E1BEE1E1E1E1E1E1E1E1E1E1E1E1E1E1E1E1E1E1E1E10FE1E2E1E1BEE1E1E20FE1E1E1E1E1E1E1E1E1E1E1E1E1E1E1E2E1E1E10FE1E1E1E1E1E20FE1E1E1E1E1E1E1E1E1E1E1E1E1E1E1E1E1E1E1E1E1BEE1E1E1E1E1E1E1E1E1E1E1E1E1E1E1E1E1E1E1E1E10FE2E1E1E1E128E1E1E1E1E1E1
310
E1E1E1E1E1E1E1E1E1E1E1E1E1E1E1E1E1E1E1E1E1E1E1E1E1E1E1E1E1E1E1E1E1E1E1E1E1E1E1E1E1E1E1E1E1E1E1E1E1E1E1E1E1E1E1E1E1E1E1E1E1E1E1E1E1E1E1E1E1E1E1E1E1E1E1E1E1E1E1E1E1E1E1E1BEE1E128E1E1E1E20FE1E1E2E2E1E1E1E1E1E1E1E1E1E1E1E1E1E1E10FE2E1E1E1E1E1E20FE1E1E1E1E1E1
310
E1E1E1E1E1E1E1E1E1E1E1E1E1E1E1BEE1E1E1E1E1E1E1E1E1E1E1E1E1E1E1E1E1E1E1E10FE1E20F0FBEE1E1E20FE1E1E1E1E1E1E1E1E1E1E1E1E1E1E1E2E1E1E10FE1E1E1E1E1E20FE1E1E1E1E1E1E1E1E1E1E1E1E1E1E1E1E1E1E1E1E1BEE1E1E1E1E1E1E1E1E1E1E1E1E1E1E1E1E1E1E1E1E10FE2E1E1E1E128E1E1E1E1
310
E1E1E1E1E1E1E1E1E1E1E1E1E1E1E1E1E1E1E1E1E1E1E1E1E1E1E1E1E1E1E1E1E1E1E1E1E1E1E1E1E1E1E1E1E1E1E1E1E1E1E1E1E1E1E1E1E1E1E1E1E1E1E1E1E1E1E1E1E1E1E1E1E1E1E1E1E1E1E1E1E1E1E1E1E1E1BEE1E128E1E1E1BEBEBEBEBEBEBEBEBEBEBEBEBEBEBEBEBEBEBEBEBEBEBEE1E1E1E1E1BEBEBEBEBEBE
310
BEBEBEBEBEBEBEBEBEBEBEBEBEBEBEBEBEBEBEBEBEBEBEBEBEBEBEBEBEBEBEBEBEBEBEBEBEBEBEBEBE0F0FBEE1BEBEBEBEBEBEBEBEBEBEBEBEBEBEBEBEBEBEBEBEBEBEBEBEE1E1E1E1BEBEBEBEBEBEBEBEBEBEBEBEBEBEBEBEBEBEBEBEBEBEBEBEBEBEBEBEBEBEBEBEBEBEBEBEBEBEBEBEBEBEBEBEBEBEBEBEE1E1E128E1E1
310
E1E1E1E1E1E1E1E1E1E1E1E1E1E1E1E1E1E1E1E1E1E1E1E1E1E1E1E1E1E1E1E1E1E1E1E1E1E1E1E1E1E1E1E1E1E1E1E1E1E1E1E1E1E1E1E1E1E1E1E1E1E1E1E1E1E1E1E1E1E1E1E1E1E1E1E1E1E1E1E1E1E1E1E1E1E1E1E1BEE1E128E1E1E1E20FE1E1E2E2E1E1E1E1E1E1E1E1E1E1E1E1E1E1E10FE2E1E1E1E1E1E20FE1E1
310
E1E1E1E1E1E1E1E1E1E1E1E1E1E1E1E1E1E1E1BEE1E1E1E1E1E1E1E1E1E1E1E1E1E1E1E1E1E1E1E10FE1E20F0FBEE1E1E20FE1E1E1E1E1E1E1E1E1E1E1E1E1E1E1E2E1E1E10FE1E1E1E1E1E20FE1E1E1E1E1E1E1E1E1E1E1E1E1E1E1E1E1E1E1E1E1BEE1E1E1E1E1E1E1E1E1E1E1E1E1E1E1E1E1E1E1E1E10FE2E1E1E1E128
310
E1E1E1E1E1E1E1E1E1E1E1E1E1E1E1E1E1E1E1E1E1E1E1E1E1E1E1E1E1E1E1E1E1E1E1E1E1E1E1E1E1E1E1E1E1E1E1E1E1E1E1E1E1E1E1E1E1E1E1E1E1E1E1E1E1E1E1E1E1E1E1E1E1E1E1E1E1E1E1E1E1E1E1E1E1E1E1E1E1E1BEE1E128E1E1E1E20FE1E1E2E2E1E1E1E1E1E1E1E1E1E1E1E1E1E1E10FE2E1E1E1E1E1E20F
310
E1E1E1E1E1E1E1E1E1E1E1E1E1E1E1E1E1E1E1E1E1BEE1E1E1E1E1E1E1E1E1E1E1E1E1E1E1E1E1E1E1E10FE1E2E1E1BEE1E1E20FE1E1E1E1E1E1E1E1E1E1E1E1E1E1E1E2E1E1E10FE1E1E1E1E1E20FE1E1E1E1E1E1E1E1E1E1E1E1E1E1E1E1E1E1E1E1E1BEE1E1E1E1E1E1E1E1E1E1E1E1E1E1E1E1E1E1E1E1E10FE2E1E1E1
310
E128E1E1E1E1E1E1E1E1E1E1E1E1E1E1E1E1E1E1E1E1E1E1E1E1E1E1E1E1E1E1E1E1E1E1E1E1E1E1E1E1E1E1E1E1E1E1E1E1E1E1E1E1E1E1E1E1E1E1E1E1E1E1E1E1E1E1E1E1E1E1E1E1E1E1E1E1E1E1E1E1E1E1E1E1E1E1E1E1E1E1BEE1E128E1E1E1E20FE1E1E2E2E1E1E1E1E1E1E1E1E1E1E1E1E1E1E10FE2E1E1E1E1E1
310
E20FE1E1E1E1E1E1E1E1E1E1E1E1E1E1E1E1E1E1E1E1E1BEE1E1E1E1E1E1E1E1E1E1E1E1E1E1E1E1E1E1E1E10FE1E2E1E1BEE1E1E20FE1E1E1E1E1E1E1E1E1E1E1E1E1E1E1E2E1E1E10FE1E1E1E1E1E20FE1E1E1E1E1E1E1E1E1E1E1E1E1E1E1E1E1E1E1E1E1BEE1E1E1E1E1E1E1E1E1E1E1E1E1E1E1E1E1E1E1E1E10FE2E1
310
E1E1E128E1E1E1E1E1E1E1E1E1E1E1E1E1E1E1E1E1E1E1E1E1E1E1E1E1E1E1E1E1E1E1E1E1E1E1E1E1E1E1E1E1E1E1E1E1E1E1E1E1E1E1E1E1E1E1E1E1E1E1E1E1E1E1E1E1E1E1E1E1E1E1E1E1E1E1E1E1E1E1E1E1E1E1E1E1E1E1E1E1E1BEE1E128E1E1E1E20FE1E1E2E2E1E1E1E1E1E1E1E1E1E1E1E1E1E1E10FE2E1E1E1
310
E1E1E20FE1E1E1E1E1E1E1E1E1E1E1E1E1E1E1E1E1E1E1E1E1BEE1E1E1E1E1E1E1E1E1E1E1E1E1E1E1E1E1E1E1E10FE1E2E1E1BEE1E1E20FE1E1E1E1E1E1E1E1E1E1E1E1E1E1E1E2E1E1E10FE1E1E1E1E1E20FE1E1E1E1E1E1E1E1E1E1E1E1E1E1E1E1E1E1E1E1E1BEE1E1E1E1E1E1E1E1E1E1E1E1E1E1E1E1E1E1E1E1E10F
310
E2E1E1E1E128E1E1E1E1E1E1E1E1E1E1E1E1E1E1E1E1E1E1E1E1E1E1E1E1E1E1E1E1E1E1E1E1E1E1E1E1E1E1E1E1E1E1E1E1E1E1E1E1E1E1E1E1E1E1E1E1E1E1E1E1E1E1E1E1E1E1E1E1E1E1E1E1E1E1E1E1E1E1E1E1E1E1E1E1E1E1E1E1E1E1BEE1E128E1E1E1E20FE1E1E2E2E1E1E1E1E1E1E1E1E1E1E1E1E1E1E10FE2E1
310
E1E1E1E1E20FE1E1E1E1E1E1E1E1E1E1E1E1E1E1E1E1E1E1E1E1E1BEE1E1E1E1E1E1E1E1E1E1E1E1E1E1E1E1E1E1E1E10FE1E2E1E1BEE1E1E20FE1E1E1E1E1E1E1E1E1E1E1E1E1E1E1E2E1E1E10FE1E1E1E1E1E20FE1E1E1E1E1E1E1E1E1E1E1E1E1E1E1E1E1E1E1E1E1BEE1E1E1E1E1E1E1E1E1E1E1E1E1E1E1E1E1E1E1E1
310
E10FE2E1E1E1E128E1E1E1E1E1E1E1E1E1E1E1E1E1E1E1E1E1E1E1E1E1E1E1E1E1E1E1E1E1E1E1E1E1E1E1E1E1E1E1E1E1E1E1E1E1E1E1E1E1E1E1E1E1E1E1E1E1E1E1E1E1E1E1E1E1E1E1E1E1E1E1E1E1E1E1E1E1E1E1E1E1E1E1E1E1E1E1E1E1E1BEE1E128E1E1E1E20FE1E1E2E2E1E1E1E1E1E1E1E1E1E1E1E1E1E1E10F
310
E2E1E1E1E1E1E20FE1E1E1E1E1E1E1E1E1E1E1E1E1E1E1E1E1E1E1E1E1BEE1E1E1E1E1E1E1E1E1E1E1E1E1E1E1E1E1E1E1E10FE1E2E1E1BEE1E1E20FE1E1E1E1E1E1E1E1E1E1E1E1E1E1E1E2E1E1E10FE1E1E1E1E1E20FE1E1E1E1E1E1E1E1E1E1E1E1E1E1E1E1E1E1E1E1E1BEE1E1E1E1E1E1E1E1E1E1E1E1E1E1E1E1E1E1
310
E1E1E10FE2E1E1E1E128E1E1E1E1E1E1E1E1E1E1E1E1E1E1E1E1E1E1E1E1E1E1E1E1E1E1E1E1E1E1E1E1E1E1E1E1E1E1E1E1E1E1E1E1E1E1E1E1E1E1E1E1E1E1E1E1E1E1E1E1E1E1E1E1E1E1E1E1E1E1E1E1E1E1E1E1E1E1E1E1E1E1E1E1E1E1E1E1E1E1BEE1E128E1E1E1E20FE1E1E2E2E1E1E1E1E1E1E1E1E1E1E1E1E1E1
310
E10FE2E1E1E1E1E1E20FE1E1E1E1E1E1E1E1E1E1E1E1E1E1E1E1E1E1E1E1E1BEE1E1E1E1E1E1E1E1E1E1E1E1E1E1E1E1E1E1E1E10FE1E2E1E1BEE1E1E20FE1E1E1E1E1E1E1E1E1E1E1E1E1E1E1E2E1E1E10FE1E1E1E1E1E20FE1E1E1E1E1E1E1E1E1E1E1E1E1E1E1E1E1E1E1E1E1BEE1E1E1E1E1E1E1E1E1E1E1E1E1E1E1E1
310
E1E1E1E1E10FE2E1E1E1E128E1E1E1E1E1E1E1E1E1E1E1E1E1E1E1E1E1E1E1E1E1E1E1E1E1E1E1E1E1E1E1E1E1E1E1E1E1E1E1E1E1E1E1E1E1E1E1E1E1E1E1E1E1E1E1E1E1E1E1E1E1E1E1E1E1E1E1E1E1E1E1E1E1E1E1E1E1E1E1E1E1E1E1E1E1E1E1E1E1E1BEE1E128E1E1E1E20FE1E1E2E2E1E1E1E1E1E1E1E1E1E1E1E1
310
E1E1E10FE2E1E1E1E1E1E20FE1E1E1E1E1E1E1E1E1E1E1E1E1E1E1E1E1E1E1E1E1BEE1E1E1E1E1E1E1E1E1E1E1E1E1E1E1E1E1E1E1E10FE1E2E1E1BEE1E1E20FE1E1E1E1E1E1E1E1E1E1E1E1E1E1E1E2E1E1E10FE1E1E1E1E1E20FE1E1E1E1E1E1E1E1E1E1E1E1E1E1E1E1E1E1E1E1E1BEE1E1E1E1E1E1E1E1E1E1E1E1E1E1
310
E1E1E1E1E1E1E10FE2E1E1E1E128E1E1E1E1E1E1E1E1E1E1E1E1E1E1E1E1E1E1E1E1E1E1E1E1E1E1E1E1E1E1E1E1E1E1E1E1E1E1E1E1E1E1E1E1E1E1E1E1E1E1E1E1E1E1E1E1E1E1E1E1E1E1E1E1E1E1E1E1E1E1E1E1E1E1E1E1E1E1E1E1E1E1E1E1E1E1E1E1E1E1BEE1E128E1E1E1E20FE1E1E2E2E1E1E1E1E1E1E1E1E1E1
310
E1E1E1E1E10FE2E1E1E1E1E1E20FE1E1E1E1E1E1E1E1E1E1E1E1E1E1E1E1E1E1E1E1E1BEE1E1E1E1E1E1E1E1E1E1E1E1E1E1E1E1E1E1E1E10FE1E2E1E1BEE1E1E20FE1E1E1E1E1E1E1E1E1E1E1E1E1E1E1E2E1E1E10FE1E1E1E1E1E20FE1E1E1E1E1E1E1E1E1E1E1E1E1E1E1E1E1E1E1E1E1BEE1E1E1E1E1E1E1E1E1E1E1E1
310
E1E1E1E1E1E1E1E1E10FE2E1E1E1E128E1E1E1E1E1E1E1E1E1E1E1E1E1E1E1E1E1E1E1E1E1E1E1E1E1E1E1E1E1E1E1E1E1E1E1E1E1E1E1E1E1E1E1E1E1E1E1E1E1E1E1E1E1E1E1E1E1E1E1E1E1E1E1E1E1E1E1E1E1E1E1E1E1E1E1E1E1E1E1E1E1E1E1E1E1E1E1E1E1E1BEE1E128E1E1E1E20FE1E1E2E2E1E1E1E1E1E1E1E1
310
E1E1E1E1E1E1E10FE2E1E1E1E1E1E20FE1E1E1E1E1E1E1E1E1E1E1E1E1E1E1E1E1E1E1E1E1BEE1E1E1E1E1E1E1E1E1E1E1E1E1E1E1E1E1E1E1E10FE1E2E1E1BEE1E1E20FE1E1E1E1E1E1E1E1E1E1E1E1E1E1E1E2E1E1E10FE1E1E1E1E1E20FE1E1E1E1E1E1E1E1E1E1E1E1E1E1E1E1E1E1E1E1E1BEE1E1E1E1E1E1E1E1E1E1
310
E1E1E1E1E1E1E1E1E1E1E10FE2E1E1E1E128E1E1E1E1E1E1E1E1E1E1E1E1E1E1E1E1E1E1E1E1E1E1E1E1E1E1E1E1E1E1E1E1E1E1E1E1E1E1E1E1E1E1E1E1E1E1E1E1E1E1E1E1E1E1E1E1E1E1E1E1E1E1E1E1E1E1E1E1E1E1E1E1E1E1E1E1E1E1E1E1E1E1E1E1E1E1E1E1E1E1BEE1E128E1E1E1E20FE1E1E2E2E1E1E1E1E1E1
310
E1E1E1E1E1E1E1E1E10FE2E1E1E1E1E1E20FE1E1E1E1E1E1E1E1E1E1E1E1E1E1E1E1E1E1E1E1E1BEE1E1E1E1E1E1E1E1E1E1E1E1E1E1E1E1E1E1E1E10FE1E2E1E1BEE1E1E20FE1E1E1E1E1E1E1E1E1E1E1E1E1E1E1E2E1E1E10FE1E1E1E1E1E20FE1E1E1E1E1E1E1E1E1E1E1E1E1E1E1E1E1E1E1E1E1BEE1E1E1E1E1E1E1E1
310
E1E1E1E1E1E1E1E1E1E1E1E1E10FE2E1E1E1E128E1E1E1E1E1E1E1E1E1E1E1E1E1E1E1E1E1E1E1E1E1E1E1E1E1E1E1E1E1E1E1E1E1E1E1E1E1E1E1E1E1E1E1E1E1E1E1E1E1E1E1E1E1E1E1E1E1E1E1E1E1E1E1E1E1E1E1E1E1E1E1E1E1E1E1E1E1E1E1E1E1E1E1E1E1E1E1E1E1E1BEE1E128E1E1E1E20FE1E1E2E2E1E1E1E1
310
E1E1E1E1E1E1E1E1E1E1E10FE2E1E1E1E1E1E20FE1E1E1E1E1E1E1E1E1E1E1E1E1E1E1E1E1E1E1E1E1BEE1E1E1E1E1E1E1E1E1E1E1E1E1E1E1E1E1E1E1E10FE1E2E1E1BEE1E1E20FE1E1E1E1E1E1E1E1E1E1E1E1E1E1E1E2E1E1E10FE1E1E1E1E1E20FE1E1E1E1E1E1E1E1E1E1E1E1E1E1E1E1E1E1E1E1E1BEE1E1E1E1E1E1
310
E1E1E1E1E1E1E1E1E1E1E1E1E1E1E10FE2E1E1E1E128E1E1E1E1E1E1E1E1E1E1E1E1E1E1E1E1E1E1E1E1E1E1E1E1E1E1E1E1E1E1E1E1E1E1E1E1E1E1E1E1E1E1E1E1E1E1E1E1E1E1E1E1E1E1E1E1E1E1E1E1E1E1E1E1E1E1E1E1E1E1E1E1E1E1E1E1E1E1E1E1E1E1E1E1E1E1E1E1E1E1BEE1E128E1E1E1E20FE1E1E2E2E1E1
310
E1E1E1E1E1E1E1E1E1E1E1E1E10FE2E1E1E1E1E1E20FE1E1E1E1E1E1E1E1E1E1E1E1E1E1E1E1E1E1E1E1E1BEE1E1E1E1E1E1E1E1E1E1E1E1E1E1E1E1E1E1E1E10FE1E2E1E1BEE1E1E20FE1E1E1E1E1E1E1E1E1E1E1E1E1E1E1E2E1E1E10FE1E1E1E1E1E20FE1E1E1E1E1E1E1E1E1E1E1E1E1E1E1E1E1E1E1E1E1BEE1E1E1E1
310
E1E1E1E1E1E1E1E1E1E1E1E1E1E1E1E1E10FE2E1E1E1E128E1E1E1E1E1E1E1E1E1E1E1E1E1E1E1E1E1E1E1E1E1E1E1E1E1E1E1E1E1E1E1E1E1E1E1E1E1E1E1E1E1E1E1E1E1E1E1E1E1E1E1E1E1E1E1E1E1E1E1E1E1E1E1E1E1E1E1E1E1E1E1E1E1E1E1E1E1E1E1E1E1E1E1E1E1E1E1E1E1E1BEE1E128E1E1E1E20FE1E1E2E2
310
E1E1E1E1E1E1E1E1E1E1E1E1E1E1E10FE2E1E1E1E1E1E20FE1E1E1E1E1E1E1E1E1E1E1E1E1E1E1E1E1E1E1E1E1BEE1E1E1E1E1E1E1E1E1E1E1E1E1E1E1E1E1E1E1E10FE1E2E1E1BEE1E1E20FE1E1E1E1E1E1E1E1E1E1E1E1E1E1E1E2E1E1E10FE1E1E1E1E1E20FE1E1E1E1E1E1E1E1E1E1E1E1E1E1E1E1E1E1E1E1E1BEE1E1
310
E1E1E1E1E1E1E1E1E1E1E1E1E1E1E1E1E1E1E10FE2E1E1E1E128E1E1E1E1E1E1E1E1E1E1E1E1E1E1E1E1E1E1E1E1E1E1E1E1E1E1E1E1E1E1E1E1E1E1E1E1E1E1E1E1E1E1E1E1E1E1E1E1E1E1E1E1E1E1E1E1E1E1E1E1E1E1E1E1E1E1E1E1E1E1E1E1E1E1E1E1E1E1E1E1E1E1E1E1E1E1E1E1E1E1BEE1E128E1E1E1E20F0F0F
310
0F0F0F0F0F0F0F0F0F0F0F0F0F0F0F0F0F0FE2E1E1E1E1E1E20F0F0F0F0F0FE1E1E1E1E1E1E1E1E1E1E1E1E1E1E1E1BEE1E1E1E1E1E1E1E1E1E1E1E10FBE0F0F0F0F0F0F0FE1E2E1E1BEE1E1E20F0F0F0F0F0F0F0F0F0F0F0F0F0F0F0F0F0F0F0F0FE1E1E1E1E1E20F0F0F0F0F0F0F0FBE0F0F0F0F0F0F0F0F0F0F0F0F0FBE
310
0F0F0F0F0F0F0F0F0F0F0F0F0F0FBE0F0F0F0F0F0F0FE2E1E1E1E128E1E1E1E1E1E1E1E1E1E1E1E1E1E1E1E1E1E1E1E1E1E1E1E1E1E1E1E1E1E1E1E1E1E1E1E1E1E1E1E1E1E1E1E1E1E1E1E1E1E1E1E1E1E1E1E1E1E1E1E1E1E1E1E1E1E1E1E1E1E1E1E1E1E1E1E1E1E1E1E1E1E1E1E1E1E1E1E1E1E1BEE1E128E1E1E1E20F
310
E10FE2E2E1E1E1E1E1E1E1E1E1E1E1E1E10FE10FE2E1E1E1E1E1E2E1BEE1E1E1E10FE1E1E1E1E1E1E1E1E1E1E1E1E1E1E1BEE1E1E1E1E1E1E1E1E1E1E1E1BEBEBE0FE1E1E1E1BEE1E2E1E1BEE1E1E20F0FE1E1E1E1E1E1E1E1E1E1E1E1E1E1E2E1E1E10FE1E1E1E1E1E2E1E2E2E10F0F0FBEBEBEBE0FE1E1BEBEE1E1E1E1E1
310
BE0F0FE1E1E1E1E1BEBEBEE1BEBE0FBEBEBE0F0F0FE2E2E1E2E1E1E1E128E1E1E1E1E1E1E1E1E1E1E1E1E1E1E1E1E1E1E1E1E1E1E1E1E1E1E1E1E1E1E1E1E1E1E1E1E1E1E1E1E1E1E1E1E1E1E1E1E1E1E1E1E1E1E1E1E1E1E1E1E1E1E1E1E1E1E1E1E1E1E1E1E1E1E1E1E1E1E1E1E1E1E1E1E1E1E1E1E1E1BEE1E128E1E1E1
310
E20FE10FE2E2E1E1E1E1E1E1E1E1E1E1E1E1E10FE10FE2E1E1E1E1E1E2BEBEBEBEE1E10F0FE1E1E1E1E1E1E1E1E1E1E1E1E1E1BEE1E1E1E1E1E1E1E1E1E1E1E10FBE0FE1E1E1BEBEBEBEE2E1E1BEE1E1E20F0FE1E1E1E1E1E1E1E1E1E1E1E1E1E1E2E1E1E10FE1E1E1E1E1E2E2E2E20F0F0F0FE1BEE1BE0FE1E1BE0FE1E1E1
310
E1E1E10F0FE1E1E1E1E1E1BE0FE1E1BEE1BEBE0FBEBEBEBEE2E2BEE1E1E1E128E1E1E1E1E1E1E1E1E1E1E1E1E1E1E1E1E1E1E1E1E1E1E1E1E1E1E1E1E1E1E1E1E1E1E1E1E1E1E1E1E1E1E1E1E1E1E1E1E1E1E1E1E1E1E1E1E1E1E1E1E1E1E1E1E1E1E1E1E1E1E1E1E1E1E1E1E1E1E1E1E1E1E1E1E1E1E1E1E1E1BEE1E128E1
310
E1E1E20F0F0F0FE2E1E1E10F0F0F0F0F0F0F0F0F0F0F0F0FE2E1E1E1E1E1E2E2BEE2E1E1E1E10F0F0F0F0F0F0F0F0F0F0F0F0F0F0FBE0F0F0F0F0F0F0F0F0F0F0F0F0F0F0FE1E1E1E1E2BEE1E2E1E1BEE1E1E20F0F0F0F0F0F0F0F0F0F0F0F0FE1E1E10F0F0F0F0FE1E1E1E1E1E2E2E2E2E10F0F0F0FE1E1E1E1E1E1E1E1E1
310
E1E1E1E1E1BEE1E1E1E1E1E1E1E1E1E1E1E1E1E10F0F0FE2E2BEE2BEE2E1E1E1E128E1E1E1E1E1E1E1E1E1E1E1E1E1E1E1E1E1E1E1E1E1E1E1E1E1E1E1E1E1E1E1E1E1E1E1E1E1E1E1E1E1E1E1E1E1E1E1E1E1E1E1E1E1E1E1E1E1E1E1E1E1E1E1E1E1E1E1E1E1E1E1E1E1E1E1E1E1E1E1E1E1E1E1E1E1E1E1E1E1E1BEE1E1
310
28E1E1E1E2E1E1E1E2E20F0F0FE1E1E1E1E1E2E2E2E2E2E2E2E2E2E1E1E1E1E1E2E2BEE1E1E1E1E1E1E1E1E1E1E1E1E1E1E1E1E1E1E1E1BEE1E1E1E1E1E1E1E1E1E1E1E1E1E1E1E1E1E1E1E1BEE2E2E1BEBEE1E1E2E2E2E2E2E2E2E2E2E1E1E1E1E10F0F0FE2E1E1E1E2E1E1E1E1E1E1E2E2E2E1E10FE10F0F0F0F0F0F0F0F
310
0F0F0F0F0F0F0FBE0F0F0F0F0F0F0F0F0F0F0F0F0F0F0FE1E10FE1E1E2E2E2E1E1E1E128E1E1E1E1E1E1E1E1E1E1E1E1E1E1E1E1E1E1E1E1E1E1E1E1E1E1E1E1E1E1E1E1E1E1E1E1E1E1E1E1E1E1E1E1E1E1E1E1E1E1E1E1E1E1E1E1E1E1E1E1E1E1E1E1E1E1E1E1E1E1E1E1E1E1E1E1E1E1E1E1E1E1E1E1E1E1E1E1E1E1BE
310
E1E128E1E1E1E1E2E2E2E2E2E2E2E2E2E2E2E2E2E1E1E1E1E1E1E1E1E1E1E1E1E1E1E1E1E2E2E2E2E2E2E2E2E2E2E2E2E2E2E2E2E2E2E2E2E2BEE2E2E2E2E2E2E2E2E2E2E2E2E2E2E2E2E2E2E2E20FBEBEBEBEBEE1E1E1E1E1E1E1E1E1E1E1E2E2E2E2E2E2E2E2E2E2E2E2E2E1E1E1E1E1E1E1E2E2E2E2E2E2E2E2E2E2E2E2
310
E2E2E2E2E2E2E2E2E2BEE2E2E2E2E2E2E2E2E2E2E2E2E2E2E2E2E2E2E2E2E2E1E1E1E1E1E128E1E1E1E1E1E1E1E1E1E1E1E1E1E1E1E1E1E1E1E1E1E1E1E1E1E1E1E1E1E1E1E1E1E1E1E1E1E1E1E1E1E1E1E1E1E1E1E1E1E1E1E1E1E1E1E1E1E1E1E1E1E1E1E1E1E1E1E1E1E1E1E1E1E1E1E1E1E1E1E1E1E1E1E1E1E1E1E1E1
310
E1BEE1E128E1E10F0F0F0F0FE1E1E1E1E1E1E1E1E1E1E1E1E1E1E1E1E1E1E1E1E1E1E10F0F0F0F0F0F0F0FE1E1E1E1E1E1E1E1E1E1E1E1E1E1E1E1E1E1E1E1E1E1E1E1E1E1E1E1E1E1E1E1E1E1E1E1E1E1E1E1E1E1E1E10F0F0F0FE1E1E1E1E1E1E1E1E1E1E1E1E1E1E1E1E1E1E1E1E1E1E10F0F0F0F0F0F0F0F0F0FE1E1E1
310
E1E1E1E1E1E1E1E1E1E1E1E1E1E1E1E1E1E1E1E1E1E1E1E1E1E1E1E1E1E1E1E1E1E1E1E1E1E1E128E1E1E1E1E1E1E1E1E1E1E1E1E1E1E1E1E1E1E1E1E1E1E1E1E1E1E1E1E1E1E1E1E1E1E1E1E1E1E1E1E1E1E1E1E1E1E1E1E1E1E1E1E1E1E1E1E1E1E1E1E1E1E1E1E1E1E1E1E1E1E1E1E1E1E1E1E1E1E1E1E1E1E1E1E1E1E1
310
E1E1E1BEE1E128E1E1E10F0FE10FE1E1E1E1E1E1E1E1E1E1E1E1E1E1E1E1E1E1E1E1E1E1E10F0F0F0F0F0F0F0F0FE1E1E1E1E1E1E1E1E1E1E1E1E1E1E1E1E1E1E1E1E1E1E1E1E1E1E1E1E1E1E1E1E1E1E1E1E1E1E1E1E1E1E10F0F0F0F0FE1E1E1E1E1E1E1E1E1E1E1E1E1E1E1E1E1E1E1E1E1E1E10F0F0F0FE10F0F0F0FE1
310
E1E1E1E1E1E1E1E1E1E1E1E1E1E1E1E1E1E1E1E1E1E1E1E1E1E1E1E1E1E1E1E1E1E1E1E1E1E1E1E1E128E1E1E1E1E1E1E1E1E1E1E1E1E1E1E1E1E1E1E1E1E1E1E1E1E1E1E1E1E1E1E1E1E1E1E1E1E1E1E1E1E1E1E1E1E1E1E1E1E1E1E1E1E1E1E1E1E1E1E1E1E1E1E1E1E1E1E1E1E1E1E1E1E1E1E1E1E1E1E1E1E1E1E1E1E1
310
E1E1E1E1E1BEE1E128E1E10F0F0F0F0F0F0FE1E1E1E1E1E1E1E1E1E1E1E1E1E1E1E1E1E1E1E1E10F0F0F0F0F0F0F0F0F0F0F0FE1E1E1E1E1E1E1E1E1E1E1E1E1E1E1E1E1E1E1E1E1E1E1E1E1E1E1E1E1E1E1E1E1E1E1E1E1E1E1E10F0F0F0F0F0FE1E1E1E1E1E1E1E1E1E1E1E1E1E1E1E1E1E1E1E1E10F0F0F0F0F0F0F0F0F
310
0F0F0FE1E1E1E1E1E1E1E1E1E1E1E1E1E1E1E1E1E1E1E1E1E1E1E1E1E1E1E1E1E1E1E1E1E1E1E1E1E1E1E128E1E1E1E1E1E1E1E1E1E1E1E1E1E1E1E1E1E1E1E1E1E1E1E1E1E1E1E1E1E1E1E1E1E1E1E1E1E1E1E1E1E1E1E1E1E1E1E1E1E1E1E1E1E1E1E1E1E1E1E1E1E1E1E1E1E1E1E1E1E1E1E1E1E1E1E1E1E1E1E1E1E1E1
310
E1E1E1E1E1E1E1BEE1E128E1E1E1E1E1E1E1E1E1E1E1E1E1E1E1E1E1E1E1E1E1E1E1E1E1E1E1E1E1E10FE10FE1E10F0FE10FE10F0F0FE1E1E1E1E1E1E1E1E1E1E1E1E1E1E1E1E1E1E1E1E1E1E1E1E1E1E1E1E1E1E1E1E1E1E1E1E1E1E1E1E1E1E1E1E1E1E1E1E1E1E1E1E1E1E1E1E1E1E1E1E1E1E1E1E1E10F0F0F0FE10F0F
310
0FE10FE10F0FE1E1E1E1E1E1E1E1E1E1E1E1E1E1E1E1E1E1E1E1E1E1E1E1E1E1E1E1E1E1E1E1E1E1E1E1E1E1E128E1E1E1E1E1E1E1E1E1E1E1E1E1E1E1E1E1E1E1E1E1E1E1E1E1E1E1E1E1E1E1E1E1E1E1E1E1E1E1E1E1E1E1E1E1E1E1E1E1E1E1E1E1E1E1E1E1E1E1E1E1E1E1E1E1E1E1E1E1E1E1E1E1E1E1E1E1E1E1E1E1
310
E1E1E1E1E1E1E1E1E1BEE1E128E1E1E1E1E1E1E1E1E1E1E1E1E1E1E1E1E1E1E1E1E1E1E1E1E1E1E1E1E1E1E1E1E1E1E1E1E1E1E1E1E1E1E1E1E1E1E1E1E1E1E1E1E1E1E1E1E1E1E1E1E1E1E1E1E1E1E1E1E1E1E1E1E1E1E1E1E1E1E1E1E1E1E1E1E1E1E1E1E1E1E1E1E1E1E1E1E1E1E1E1E1E1E1E1E1E1E1E1E1E1E1E1E1E1
310
E1E1E1E1E1E1E1E1E1E1E1E1E1E1E1E1E1E1E1E1E1E1E1E1E1E1E1E1E1E1E1E1E1E1E1E1E1E1E1E1E1E1E1E1E1E1E128E1E1E1E1E1E1E1E1E1E1E1E1E1E1E1E1E1E1E1E1E1E1E1E1E1E1E1E1E1E1E1E1E1E1E1E1E1E1E1E1E1E1E1E1E1E1E1E1E1E1E1E1E1E1E1E1E1E1E1E1E1E1E1E1E1E1E1E1E1E1E1E1E1E1E1E1E1E1E1
310
E1E1E1E1E1E1E1E1E1E1E1BEE1E128E1E1E1E1E1E1E1E1E1E1E1E1E1E1E1E1E1E1E1E1E1E1E1E1E1E1E1E1E1E1E1E1E1E1E1E1E1E1E1E1E1E1E1E1E1E1E1E1E1E1E1E1E1E1E1E1E1E1E1E1E1E1E1E1E1E1E1E1E1E1E1E1E1E1E1E1E1E1E1E1E1E1E1E1E1E1E1E1E1E1E1E1E1E1E1E1E1E1E1E1E1E1E1E1E1E1E1E1E1E1E1E1
310
E1E1E1E1E1E1E1E1E1E1E1E1E1E1E1E1E1E1E1E1E1E1E1E1E1E1E1E1E1E1E1E1E1E1E1E1E1E1E1E1E1E1E1E1E1E1E1E1E128E1E1E1E1E1E1E1E1E1E1E1E1E1E1E1E1E1E1E1E1E1E1E1E1E1E1E1E1E1E1E1E1E1E1E1E1E1E1E1E1E1E1E1E1E1E1E1E1E1E1E1E1E1E1E1E1E1E1E1E1E1E1E1E1E1E1E1E1E1E1E1E1E1E1E1E1E1
310
E1E1E1E1E1E1E1E1E1E1E1E1E1BEE1E128E1E1E1E1E1E1E1E1E1E1E1E1E1E1E1E1E1E1E1E1E1E1E1E1E1E1E1E1E1E1E1E1E2E2E2E2E2E2E2E2E2E2E2E2E2E2E2E2E2E2E2E2E2E2BEE2E2E2E2E2E2E2E2E2E2E2E2E2E2E2E2E2E2E2E2E2E2E1E1E1E1E1E1E1E1E1E1E1E1E1E1E1E1E1E1E1E1E1E1E1E1E1E1E1E1E1E1E1E1E1
310
E1E1E1E1E1E1E1E1E1E1E1E1E1E1E1E1E1E1E1E1E1E1E1E1E1E1E1E1E1E1E1E1E1E1E1E1E1E1E1E1E1E1E1E1E1E1E1E1E1E1E128E1E1E1E1E1E1E1E1E1E1E1E1E1E1E1E1E1E1E1E1E1E1E1E1E1E1E1E1E1E1E1E1E1E1E1E1E1E1E1E1E1E1E1E1E1E1E1E1E1E1E1E1E1E1E1E1E1E1E1E1E1E1E1E1E1E1E1E1E1E1E1E1E1E1E1
310
E1E1E1E1E1E1E1E1E1E1E1E1E1E1E1BEE1E128E1E1E1E1E1E1E1E1E1E1E1E1E1E1E1E1E1E1E1E1E1E1E1E1E1E1E1E1E1E1E1E20F0F0F0F0F0F0F0F0F0F0F0F0F0F0F0F0F0F0F0F0F0FBE0F0F0F0F0F0F0F0F0F0F0F0F0F0F0F0F0F0F0F0F0FE2E1E1E1E1E1E1E1E1E1E1E1E1E1E1E1E1E1E1E1E1E1E1E1E1E1E1E1E1E1E1E1
310
E1E1E1E1E1E1E1E1E1E1E1E1E1E1E1E1E1E1E1E1E1E1E1E1E1E1E1E1E1E1E1E1E1E1E1E1E1E1E1E1E1E1E1E1E1E1E1E1E1E1E1E1E128E1E1E1E1E1E1E1E1E1E1E1E1E1E1E1E1E1E1E1E1E1E1E1E1E1E1E1E1E1E1E1E1E1E1E1E1E1E1E1E1E1E1E1E1E1E1E1E1E1E1E1E1E1E1E1E1E1E1E1E1E1E1E1E1E1E1E1E1E1E1E1E1E1
310
E1E1E1E1E1E1E1E1E1E1E1E1E1E1E1E1E1BEE1E128E1E1E1E1E1E1E1E1E1E1E1E1E1E1E1E1E1E1E1E1E1E1E1E1E1E1E1E1E1E1E1E20FE1E1E1E1E1E1E1E1E1E1E1E1E1E1E1E1E1E1E1E1E1BEE1E1E1E1E1E1E1E1E1E1E1E1E1E1E1E1E1E1E1E1E10FE1E1E1E1E1E1E1E1E1E1E1E1E1E1E1E1E1E1E1E1E1E1E1E1E1E1E1E1E1
310
E1E1E1E1E1E1E1E1E1E1E1E1E1E1E1E1E1E1E1E1E1E1E1E1E1E1E1E1E1E1E1E1E1E1E1E1E1E1E1E1E1E1E1E1E1E1E1E1E1E1E1E1E1E1E128E1E1E1E1E1E1E1E1E1E1E1E1E1E1E1E1E1E1E1E1E1E1E1E1E1E1E1E1E1E1E1E1E1E1E1E1E1E1E1E1E1E1E1E1E1E1E1E1E1E1E1E1E1E1E1E1E1E1E1E1E1E1E1E1E1E1E1E1E1E1E1
310
E1E1E1E1E1E1E1E1E1E1E1E1E1E1E1E1E1E1E1BEE1E128E1E1E1E1E1E1E1E1E1E1E1E1E1E1E1E1E1E1E1E1E1E1E1E1E1E1E1E1E1E1E1E20FE1E1E10F0F0F0F0F0F0F0F0F0F0F0F0F0F0F0F0F0FBE0F0F0F0F0F0F0F0F0F0F0F0F0F0F0F0F0F0FE1E1E10FE1E1E1E1E1E1E1E1E1E1E1E1E1E1E1E1E1E1E1E1E1E1E1E1E1E1E1
310
E1E1E1E1E1E1E1E1E1E1E1E1E1E1E1E1E1E1E1E1E1E1E1E1E1E1E1E1E1E1E1E1E1E1E1E1E1E1E1E1E1E1E1E1E1E1E1E1E1E1E1E1E1E1E1E1E128E1E1E1E1E1E1E1E1E1E1E1E1E1E1E1E1E1E1E1E1E1E1E1E1E1E1E1E1E1E1E1E1E1E1E1E1E1E1E1E1E1E1E1E1E1E1E1E1E1E1E1E1E1E1E1E1E1E1E1E1E1E1E1E1E1E1E1E1E1
310
E1E1E1E1E1E1E1E1E1E1E1E1E1E1E1E1E1E1E1E1E1BEE1E128E1E1E1E1E1E1E1E1E1E1E1E1E1E1E1E1E1E1E1E1E1E1E1E1E1E1E1E1E1E1E1E20FE1E1E1E1E10FE1E1E1E1E1E1E1E1E1E1E1E1E1E1E1BEE1E1E1E1E1E1E1E1E1E1E1E1E1E10FE1E1E1E1E1E10FE1E1E1E1E1E1E1E1E1E1E1E1E1E1E1E1E1E1E1E1E1E1E1E1E1
310
E1E1E1E1E1E1E1E1E1E1E1E1E1E1E1E1E1E1E1E1E1E1E1E1E1E1E1E1E1E1E1E1E1E1E1E1E1E1E1E1E1E1E1E1E1E1E1E1E1E1E1E1E1E1E1E1E1E1E128E1E1E1E1E1E1E1E1E1E1E1E1E1E1E1E1E1E1E1E1E1E1E1E1E1E1E1E1E1E1E1E1E1E1E1E1E1E1E1E1E1E1E1E1E1E1E1E1E1E1E1E1E1E1E1E1E1E1E1E1E1E1E1E1E1E1E1
310
E1E1E1E1E1E1E1E1E1E1E1E1E1E1E1E1E1E1E1E1E1E1E1BEE1E128E1E1E1E1E1E1E1E1E1E1E1E1E1E1E1E1E1E1E1E1E1E1E1E1E1E1E1E1E1E1E1E20FE1E1E1E1E10FE1E1E1E1E1E1E1E1E1E1E1E1E1E1E1BEE1E1E1E1E1E1E1E1E1E1E1E1E1E10FE1E1E1E1E1E10FE1E1E1E1E1E1E1E1E1E1E1E1E1E1E1E1E1E1E1E1E1E1E1
310
E1E1E1E1E1E1E1E1E1E1E1E1E1E1E1E1E1E1E1E1E1E1E1E1E1E1E1E1E1E1E1E1E1E1E1E1E1E1E1E1E1E1E1E1E1E1E1E1E1E1E1E1E1E1E1E1E1E1E1E1E128E1E1E1E1E1E1E1E1E1E1E1E1E1E1E1E1E1E1E1E1E1E1E1E1E1E1E1E1E1E1E1E1E1E1E1E1E1E1E1E1E1E1E1E1E1E1E1E1E1E1E1E1E1E1E1E1E1E1E1E1E1E1E1E1E1
310
E1E1E1E1E1E1E1E1E1E1E1E1E1E1E1E1E1E1E1E1E1E1E1E1E1BEE1E128E1E1E1E1E1E1E1E1E1E1E1E1E1E1E1E1E1E1E1E1E1E1E1E1E1E1E1E1E1E1E1E20FE1E1E1E1E10FE1E1E1E1E1E1E1E1E1E1E1E1E1E1E1BEE1E1E1E1E1E1E1E1E1E1E1E1E1E10FE1E1E1E1E1E10FE1E1E1E1E1E1E1E1E1E1E1E1E1E1E1E1E1E1E1E1E1
310
E1E1E1E1E1E1E1E1E1E1E1E1E1E1E1E1E1E1E1E1E1E1E1E1E1E1E1E1E1E1E1E1E1E1E1E1E1E1E1E1E1E1E1E1E1E1E1E1E1E1E1E1E1E1E1E1E1E1E1E1E1E1E128E1E1E1E1E1E1E1E1E1E1E1E1E1E1E1E1E1E1E1E1E1E1E1E1E1E1E1E1E1E1E1E1E1E1E1E1E1E1E1E1E1E1E1E1E1E1E1E1E1E1E1E1E1E1E1E1E1E1E1E1E1E1E1
310
E1E1E1E1E1E1E1E1E1E1E1E1E1E1E1E1E1E1E1E1E1E1E1E1E1E1E1BEE1E128E1E1E1E1E1E1E1E1E1E1E1E1E1E1E1E1E1E1E1E1E1E1E1E1E1E1E1E1E1E1E1E20FE1E1E1E1E10FE1E1E1E1E1E1E1E1E1E1E1E1E1E1E1BEE1E1E1E1E1E1E1E1E1E1E1E1E1E10FE1E1E1E1E1E10FE1E1E1E1E1E1E1E1E1E1E1E1E1E1E1E1E1E1E1
310
E1E1E1E1E1E1E1E1E1E1E1E1E1E1E1E1E1E1E1E1E1E1E1E1E1E1E1E1E1E1E1E1E1E1E1E1E1E1E1E1E1E1E1E1E1E1E1E1E1E1E1E1E1E1E1E1E1E1E1E1E1E1E1E1E128E1E1E1E1E1E1E1E1E1E1E1E1E1E1E1E1E1E1E1E1E1E1E1E1E1E1E1E1E1E1E1E1E1E1E1E1E1E1E1E1E1E1E1E1E1E1E1E1E1E1E1E1E1E1E1E1E1E1E1E1E1
310
E1E1E1E1E1E1E1E1E1E1E1E1E1E1E1E1E1E1E1E1E1E1E1E1E1E1E1E1E1BEE1E128E1E1E1E1E1E1E1E1E1E1E1E1E1E1E1E1E1E1E1E1E1E1E1E1E1E1E1E1E1E1E1E20FE1E1E1E1E10FE1E1E1E1E1E1E1E1E1E1E1E1E1E1E1BEE1E1E1E1E1E1E1E1E1E1E1E1E1E10FE1E1E1E1E1E10FE1E1E1E1E1E1E1E1E1E1E1E1E1E1E1E1E1
310
E1E1E1E1E1E1E1E1E1E1E1E1E1E1E1E1E1E1E1E1E1E1E1E1E1E1E1E1E1E1E1E1E1E1E1E1E1E1E1E1E1E1E1E1E1E1E1E1E1E1E1E1E1E1E1E1E1E1E1E1E1E1E1E1E1E1E128E1E1E1E1E1E1E1E1E1E1E1E1E1E1E1E1E1E1E1E1E1E1E1E1E1E1E1E1E1E1E1E1E1E1E1E1E1E1E1E1E1E1E1E1E1E1E1E1E1E1E1E1E1E1E1E1E1E1E1
310
E1E1E1E1E1E1E1E1E1E1E1E1E1E1E1E1E1E1E1E1E1E1E1E1E1E1E1E1E1E1E1BEE1E128E1E1E1E1E1E1E1E1E1E1E1E1E1E1E1E1E1E1E1E1E1E1E1E1E1E1E1E1E1E1E1E20FE1E1E1E1E10FE1E1E1E1E1E1E1E1E1E1E1E1E1E1E1BEE1E1E1E1E1E1E1E1E1E1E1E1E1E1E10FE1E1E1E1E10FE1E1E1E1E1E1E1E1E1E1E1E1E1E1E1
310
E1E1E1E1E1E1E1E1E1E1E1E1E1E1E1E1E1E1E1E1E1E1E1E1E1E1E1E1E1E1E1E1E1E1E1E1E1E1E1E1E1E1E1E1E1E1E1E1E1E1E1E1E1E1E1E1E1E1E1E1E1E1E1E1E1E1E1E1E128E1E1E1E1E1E1E1E1E1E1E1E1E1E1E1E1E1E1E1E1E1E1E1E1E1E1E1E1E1E1E1E1E1E1E1E1E1E1E1E1E1E1E1E1E1E1E1E1E1E1E1E1E1E1E1E1E1
310
E1E1E1E1E1E1E1E1E1E1E1E1E1E1E1E1E1E1E1E1E1E1E1E1E1E1E1E1E1E1E1E1E1BEE1E128E1E1E1E1E1E1E1E1E1E1E1E1E1E1E1E1E1E1E1E1E1E1E1E1E1E1E1E1E1E1E1E20FE1E1E1E1E10FE1E1E1E1E1E1E1E1E1E1E1E1E1E1E1BEE1E1E1E1E1E1E1E1E1E1E1E1E1E1E10FE1E1E1E1E10FE2E1E1E1E1E1E1E1E1E1E1E1E1
310
E1E1E1E1E1E1E1E1E1E1E1E1E1E1E1E1E1E1E1E1E1E1E1E1E1E1E1E1E1E1E1E1E1E1E1E1E1E1E1E1E1E1E1E1E1E1E1E1E1E1E1E1E1E1E1E1E1E1E1E1E1E1E1E1E1E1E1E1E1E1E128E1E1E1E1E1E1E1E1E1E1E1E1E1E1E1E1E1E1E1E1E1E1E1E1E1E1E1E1E1E1E1E1E1E1E1E1E1E1E1E1E1E1E1E1E1E1E1E1E1E1E1E1E1E1E1
310
E1E1E1E1E1E1E1E1E1E1E1E1E1E1E1E1E1E1E1E1E1E1E1E1E1E1E1E1E1E1E1E1E1E1E1BEE1E128E1E1E1E1E1E1E1E1E1E1E1E1E1E1E1E1E1E1E1E1E1E1E1E1E1E1E1E1E1E1E1E20FE1E1E1E1E10FE1E1E1E1E1E1E1E1E1E1E1E1E1E1E1BEE1E1E1E1E1E1E1E1E1E1E1E1E1E1E10FE1E1E1E1E10FE2E1E1E1E1E1E1E1E1E1E1
310
E1E1E1E1E1E1E1E1E1E1E1E1E1E1E1E1E1E1E1E1E1E1E1E1E1E1E1E1E1E1E1E1E1E1E1E1E1E1E1E1E1E1E1E1E1E1E1E1E1E1E1E1E1E1E1E1E1E1E1E1E1E1E1E1E1E1E1E1E1E1E1E1E128E1E1E1E1E1E1E1E1E1E1E1E1E1E1E1E1E1E1E1E1E1E1E1E1E1E1E1E1E1E1E1E1E1E1E1E1E1E1E1E1E1E1E1E1E1E1E1E1E1E1E1E1E1
310
E1E1E1E1E1E1E1E1E1E1E1E1E1E1E1E1E1E1E1E1E1E1E1E1E1E1E1E1E1E1E1E1E1E1E1E1E1BEE1E128E1E1E1E1E1E1E1E1E1E1E1E1E1E1E1E1E1E1E1E1E1E1E1E1E1E1E1E1E1E1E1E20FE1E1E1E1E10FE1E1E1E1E1E1E1E1E1E1E1E1E1E1E1BEE1E1E1E1E1E1E1E1E1E1E1E1E1E1E10FE1E1E1E1E10FE2E1E1E1E1E1E1E1E1
310
E1E1E1E1E1E1E1E1E1E1E1E1E1E1E1E1E1E1E1E1E1E1E1E1E1E1E1E1E1E1E1E1E1E1E1E1E1E1E1E1E1E1E1E1E1E1E1E1E1E1E1E1E1E1E1E1E1E1E1E1E1E1E1E1E1E1E1E1E1E1E1E1E1E1E128E1E1E1E1E1E1E1E1E1E1E1E1E1E1E1E1E1E1E1E1E1E1E1E1E1E1E1E1E1E1E1E1E1E1E1E1E1E1E1E1E1E1E1E1E1E1E1E1E1E1E1
310
E1E1E1E1E1E1E1E1E1E1E1E1E1E1E1E1E1E1E1E1E1E1E1E1E1E1E1E1E1E1E1E1E1E1E1E1E1E1E1BEE1E128E1E1E1E1E1E1E1E1E1E1E1E1E1E1E1E1E1E1E1E1E1E1E1E1E1E1E1E1E1E1E1E20FE1E1E1E1E10FE1E1E1E1E1E1E1E1E1E1E1E1E1E1E1BEE1E1E1E1E1E1E1E1E1E1E1E1E1E1E10FE1E1E1E1E10FE2E1E1E1E1E1E1
310
E1E1E1E1E1E1E1E1E1E1E1E1E1E1E1E1E1E1E1E1E1E1E1E1E1E1E1E1E1E1E1E1E1E1E1E1E1E1E1E1E1E1E1E1E1E1E1E1E1E1E1E1E1E1E1E1E1E1E1E1E1E1E1E1E1E1E1E1E1E1E1E1E1E1E1E1E128E1E1E1E1E1E1E1E1E1E1E1E1E1E1E1E1E1E1E1E1E1E1E1E1E1E1E1E1E1E1E1E1E1E1E1E1E1E1E1E1E1E1E1E1E1E1E1E1E1
310
E1E1E1E1E1E1E1E1E1E1E1E1E1E1E1E1E1E1E1E1E1E1E1E1E1E1E1E1E1E1E1E1E1E1E1E1E1E1E1E1E1BEE1E128E1E1E1E1E1E1E1E1E1E1E1E1E1E1E1E1E1E1E1E1E1E1E1E1E1E1E1E1E1E1E1E20FE1E1E1E1E10FE1E1E1E1E1E1E1E1E1E1E1E1E1E1E1BEE1E1E1E1E1E1E1E1E1E1E1E1E1E1E10FE1E1E1E1E10FE2E1E1E1E1
310
E1E1E1E1E1E1E1E1E1E1E1E1E1E1E1E1E1E1E1E1E1E1E1E1E1E1E1E1E1E1E1E1E1E1E1E1E1E1E1E1E1E1E1E1E1E1E1E1E1E1E1E1E1E1E1E1E1E1E1E1E1E1E1E1E1E1E1E1E1E1E1E1E1E1E1E1E1E1E128E1E1E1E1E1E1E1E1E1E1E1E1E1E1E1E1E1E1E1E1E1E1E1E1E1E1E1E1E1E1E1E1E1E1E1E1E1E1E1E1E1E1E1E1E1E1E1
310
E1E1E1E1E1E1E1E1E1E1E1E1E1E1E1E1E1E1E1E1E1E1E1E1E1E1E1E1E1E1E1E1E1E1E1E1E1E1E1E1E1E1E1BEE1E128E1E1E1E1E1E1E1E1E1E1E1E1E1E1E1E1E1E1E1E1E1E1E1E1E1E1E1E1E1E1E1E20FE1E1E1E1E10FE1E1E1E1E1E1E1E1E1E1E1E1E1E1E1BEE1E1E1E1E1E1E1E1E1E1E1E1E1E1E10FE1E1E1E1E10FE2E1E1
310
E1E1E1E1E1E1E1E1E1E1E1E1E1E1E1E1E1E1E1E1E1E1E1E1E1E1E1E1E1E1E1E1E1E1E1E1E1E1E1E1E1E1E1E1E1E1E1E1E1E1E1E1E1E1E1E1E1E1E1E1E1E1E1E1E1E1E1E1E1E1E1E1E1E1E1E1E1E1E1E1E128E1E1E1E1E1E1E1E1E1E1E1E1E1E1E1E1E1E1E1E1E1E1E1E1E1E1E1E1E1E1E1E1E1E1E1E1E1E1E1E1E1E1E1E1E1
310
E1E1E1E1E1E1E1E1E1E1E1E1E1E1E1E1E1E1E1E1E1E1E1E1E1E1E1E1E1E1E1E1E1E1E1E1E1E1E1E1E1E1E1E1E1BEE1E128E1E1E1E1E1E1E1E1E1E1E1E1E1E1E1E1E1E1E1E1E1E1E1E1E1E1E1E1E1E1E1E20FE1E1E1E1E10FE1E1E1E1E1E1E1E1E1E1E1E1E1E1E1BEE1E1E1E1E1E1E1E1E1E1E1E1E1E1E10FE1E1E1E1E10FE2
310
E1E1E1E1E1E1E1E1E1E1E1E1E1E1E1E1E1E1E1E1E1E1E1E1E1E1E1E1E1E1E1E1E1E1E1E1E1E1E1E1E1E1E1E1E1E1E1E1E1E1E1E1E1E1E1E1E1E1E1E1E1E1E1E1E1E1E1E1E1E1E1E1E1E1E1E1E1E1E1E1E1E1E128E1E1E1E1E1E1E1E1E1E1E1E1E1E1E1E1E1E1E1E1E1E1E1E1E1E1E1E1E1E1E1E1E1E1E1E1E1E1E1E1E1E1E1
310
E1E1E1E1E1E1E1E1E1E1E1E1E1E1E1E1E1E1E1E1E1E1E1E1E1E1E1E1E1E1E1E1E1E1E1E1E1E1E1E1E1E1E1E1E1E1E1BEE1E128E1E1E1E1E1E1E1E1E1E1E1E1E1E1E1E1E1E1E1E1E1E1E1E1E1E1E1E1E1E1E1E20FE1E1E1E1E10FE1E1E1E1E1E1E1E1E1E1E1E1E1E1E1BEE1E1E1E1E1E1E1E1E1E1E1E1E1E1E10FE1E1E1E1E1
310
0FE2E1E1E1E1E1E1E1E1E1E1E1E1E1E1E1E1E1E1E1E1E1E1E1E1E1E1E1E1E1E1E1E1E1E1E1E1E1E1E1E1E1E1E1E1E1E1E1E1E1E1E1E1E1E1E1E1E1E1E1E1E1E1E1E1E1E1E1E1E1E1E1E1E1E1E1E1E1E1E1E1E1E1E128E1E1E1E1E1E1E1E1E1E1E1E1E1E1E1E1E1E1E1E1E1E1E1E1E1E1E1E1E1E1E1E1E1E1E1E1E1E1E1E1E1
310
E1E1E1E1E1E1E1E1E1E1E1E1E1E1E1E1E1E1E1E1E1E1E1E1E1E1E1E1E1E1E1E1E1E1E1E1E1E1E1E1E1E1E1E1E1E1E1E1E1BEE1E128E1E1E1E1E1E1E1E1E1E1E1E1E1E1E1E1E1E1E1E1E1E1E1E1E1E1E1E1E1E1E1E20FE2E2E2E2E20FE2E2E2E2E2E2E2E2E2E2E2E2E2E2E2E2E2E2E2E2E2E2E2E2E2E2E2E2E2E20FE2E2E2E2
310
E2E2E2E2E1E1E1E1E1E1E1E1E1E1E1E1E1E1E1E1E1E1E1E1E1E1E1E1E1E1E1E1E1E1E1E1E1E1E1E1E1E1E1E1E1E1E1E1E1E1E1E1E1E1E1E1E1E1E1E1E1E1E1E1E1E1E1E1E1E1E1E1E1E1E1E1E1E1E1E1E1E1E1E1E1E1E128E1E1E1E1E1E1E1E1E1E1E1E1E1E1E1E1E1E1E1E1E1E1E1E1E1E1E1E1E1E1E1E1E1E1E1E1E1E1E1
310
E1E1E1E1E1E1E1E1E1E1E1E1E1E1E1E1E1E1E1E1E1E1E1E1E1E1E1E1E1E1E1E1E1E1E1E1E1E1E1E1E1E1E1E1E1E1E1E1E1E1E1BEE1E128E1E1E1E1E1E1E1E1E1E1E1E1E1E1E1E1E1E1E1E1E1E1E1E1E1E1E1E1E1E1E1E20FE1E1E1E1E10F0FE1E1E1E1E1E1E1E1E1E1E1E1E1E1BEE1E1E1E1E1E1E1E1E1E1E1E1E1E10FE1E1
310
E1E1E10FE1E2E1E1E1E1E1E1E1E1E1E1E1E1E1E1E1E1E1E1E1E1E1E1E1E1E1E1E1E1E1E1E1E1E1E1E1E1E1E1E1E1E1E1E1E1E1E1E1E1E1E1E1E1E1E1E1E1E1E1E1E1E1E1E1E1E1E1E1E1E1E1E1E1E1E1E1E1E1E1E1E1E1E1E128E1E1E1E1E1E1E1E1E1E1E1E1E1E1E1E1E1E1E1E1E1E1E1E1E1E1E1E1E1E1E1E1E1E1E1E1E1
310
E1E1E1E1E1E1E1E1E1E1E1E1E1E1E1E1E1E1E1E1E1E1E1E1E1E1E1E1E1E1E1E1E1E1E1E1E1E1E1E1E1E1E1E1E1E1E1E1E1E1E1E1E1BEE1E128E1E1E1E1E1E1E1E1E1E1E1E1E1E1E1E1E1E1E1E1E1E1E1E1E1E1E1E1E1E1E1E20FE1E1E1E1E1E10FE1E1E1E1E1E1E1E1E1E1E1E1E1E1BEE1E1E1E1E1E1E1E1E1E1E1E1E1E10F
310
E1E1E1E1E10FE1E2E1E1E1E1E1E1E1E1E1E1E1E1E1E1E1E1E1E1E1E1E1E1E1E1E1E1E1E1E1E1E1E1E1E1E1E1E1E1E1E1E1E1E1E1E1E1E1E1E1E1E1E1E1E1E1E1E1E1E1E1E1E1E1E1E1E1E1E1E1E1E1E1E1E1E1E1E1E1E1E1E1E1E128E1E1E1E1E1E1E1E1E1E1E1E1E1E1E1E1E1E1E1E1E1E1E1E1E1E1E1E1E1E1E1E1E1E1E1
310
E1E1E1E1E1E1E1E1E1E1E1E1E1E1E1E1E1E1E1E1E1E1E1E1E1E1E1E1E1E1E1E1E1E1E1E1E1E1E1E1E1E1E1E1E1E1E1E1E1E1E1E1E1E1E1BEE1E128E1E1E1E1E1E1E1E1E1E1E1E1E1E1E1E1E1E1E1E1E1E1E1E1E1E1E1E1E1E1E1E20F0F0F0F0F0F0F0F0F0F0F0F0F0F0F0F0F0F0F0F0F0F0F0F0F0F0F0F0F0F0F0F0F0F0F0F
310
0F0F0F0F0F0F0F0FE1E2E1E1E1E1E1E1E1E1E1E1E1E1E1E1E1E1E1E1E1E1E1E1E1E1E1E1E1E1E1E1E1E1E1E1E1E1E1E1E1E1E1E1E1E1E1E1E1E1E1E1E1E1E1E1E1E1E1E1E1E1E1E1E1E1E1E1E1E1E1E1E1E1E1E1E1E1E1E1E1E1E1E1E128E1E1E1E1E1E1E1E1E1E1E1E1E1E1E1E1E1E1E1E1E1E1E1E1E1E1E1E1E1E1E1E1E1
310
E1E1E1E1E1E1E1E1E1E1E1E1E1E1E1E1E1E1E1E1E1E1E1E1E1E1E1E1E1E1E1E1E1E1E1E1E1E1E1E1E1E1E1E1E1E1E1E1E1E1E1E1E1E1E1E1E1BEE1E128E1E1E1E1E1E1E1E1E1E1E1E1E1E1E1E1E1E1E1E1E1E1E1E1E1E1E1E1E1E1E1E2E2E2E2E2E2E2E2E2E2E2E2E2E2E2E2E2E2E2E2E2E2E2E2E2E2E2E2E2E2E2E2E2E2E2
310
E2E2E2E2E2E2E2E2E2E2E2E2E1E1E1E1E1E1E1E1E1E1E1E1E1E1E1E1E1E1E1E1E1E1E1E1E1E1E1E1E1E1E1E1E1E1E1E1E1E1E1E1E1E1E1E1E1E1E1E1E1E1E1E1E1E1E1E1E1E1E1E1E1E1E1E1E1E1E1E1E1E1E1E1E1E1E1E1E1E1E1E1E1E1E128E1E1E1E1E1E1E1E1E1E1E1E1E1E1E1E1E1E1E1E1E1E1E1E1E1E1E1E1E1E1E1
310
E1E1E1E1E1E1E1E1E1E1E1E1E1E1E1E1E1E1E1E1E1E1E1E1E1E1E1E1E1E1E1E1E1E1E1E1E1E1E1E1E1E1E1E1E1E1E1E1E1E1E1E1E1E1E1E1E1E1E1BEE1E128E1E1E1E1E1E1E1E1E1E1E1E1E1E1E1E1E1E1E1E1E1E1E1E1E1E1E1E1E1E1E1E1E1E1E1E1E1E1E1E1E1E1E1E1E1E1E1E1E1E1E1E1E1E1E1E1E1E1E1E1E1E1E1E1
310
E1E1E1E1E1E1E1E1E1E1E1E1E1E1E1E1E1E1E1E1E1E1E1E1E1E1E1E1E1E1E1E1E1E1E1E1E1E1E1E1E1E1E1E1E1E1E1E1E1E1E1E1E1E1E1E1E1E1E1E1E1E1E1E1E1E1E1E1E1E1E1E1E1E1E1E1E1E1E1E1E1E1E1E1E1E1E1E1E1E1E1E1E1E1E1E1E128E1E1E1E1E1E1E1E1E1E1E1E1E1E1E1E1E1E1E1E1E1E1E1E1E1E1E1E1E1
310
E1E1E1E1E1E1E1E1E1E1E1E1E1E1E1E1E1E1E1E1E1E1E1E1E1E1E1E1E1E1E1E1E1E1E1E1E1E1E1E1E1E1E1E1E1E1E1E1E1E1E1E1E1E1E1E1E1E1E1E1E1BEE1E128E1E1E1E1E1E1E1E1E1E1E1E1E1E1E1E1E1E1E1E1E1E1E1E1E1E1E1E1E1E10F0F0F0F0FE1E1E1E1E1E1E1E1E1E1E1E1E1E1E1E1E1E1E1E1E1E1E1E1E1E1E1
310
E1E1E1E1E1E1E1E1E1E1E1E1E1E1E1E1E1E1E1E1E1E1E1E1E1E1E1E1E1E1E1E1E1E1E1E1E1E1E1E1E1E1E1E1E1E1E1E1E1E1E1E1E1E1E1E1E1E1E1E1E1E1E1E1E1E1E1E1E1E1E1E1E1E1E1E1E1E1E1E1E1E1E1E1E1E1E1E1E1E1E1E1E1E1E1E1E1E1E128E1E1E1E1E1E1E1E1E1E1E1E1E1E1E1E1E1E1E1E1E1E1E1E1E1E1E1
310
E1E1E1E1E1E1E1E1E1E1E1E1E1E1E1E1E1E1E1E1E1E1E1E1E1E1E1E1E1E1E1E1E1E1E1E1E1E1E1E1E1E1E1E1E1E1E1E1E1E1E1E1E1E1E1E1E1E1E1E1E1E1E1BEE1E128E1E1E1E1E1E1E1E1E1E1E1E1E1E1E1E1E1E1E1E1E1E1E1E1E1E1E1E1E1E10F0F0F0F0F0FE1E1E1E1E1E1E1E1E1E1E1E1E1E1E1E1E1E1E1E1E1E1E1E1
310
E1E1E1E1E1E1E1E1E1E1E1E1E1E1E1E1E1E1E1E1E1E1E1E1E1E1E1E1E1E1E1E1E1E1E1E1E1E1E1E1E1E1E1E1E1E1E1E1E1E1E1E1E1E1E1E1E1E1E1E1E1E1E1E1E1E1E1E1E1E1E1E1E1E1E1E1E1E1E1E1E1E1E1E1E1E1E1E1E1E1E1E1E1E1E1E1E1E1E1E1E128E1E1E1E1E1E1E1E1E1E1E1E1E1E1E1E1E1E1E1E1E1E1E1E1E1
310
E1E1E1E1E1E1E1E1E1E1E1E1E1E1E1E1E1E1E1E1E1E1E1E1E1E1E1E1E1E1E1E1E1E1E1E1E1E1E1E1E1E1E1E1E1E1E1E1E1E1E1E1E1E1E1E1E1E1E1E1E1E1E1E1E1BEE1E128E1E1E1E1E1E1E1E1E1E1E1E1E1E1E1E1E1E1E1E1E1E1E1E1E1E1E1E1E1E10F0F0F0F0F0FE1E1E1E1E1E1E1E1E1E1E1E1E1E1E1E1E1E1E1E1E1E1
310
E1E1E1E1E1E1E1E1E1E1E1E1E1E1E1E1E1E1E1E1E1E1E1E1E1E1E1E1E1E1E1E1E1E1E1E1E1E1E1E1E1E1E1E1E1E1E1E1E1E1E1E1E1E1E1E1E1E1E1E1E1E1E1E1E1E1E1E1E1E1E1E1E1E1E1E1E1E1E1E1E1E1E1E1E1E1E1E1E1E1E1E1E1E1E1E1E1E1E1E1E1E1E128E1E1E1E1E1E1E1E1E1E1E1E1E1E1E1E1E1E1E1E1E1E1E1
310
E1E1E1E1E1E1E1E1E1E1E1E1E1E1E1E1E1E1E1E1E1E1E1E1E1E1E1E1E1E1E1E1E1E1E1E1E1E1E1E1E1E1E1E1E1E1E1E1E1E1E1E1E1E1E1E1E1E1E1E1E1E1E1E1E1E1E1BEE1E128E1E1E1E1E1E1E1E1E1E1E1E1E1E1E1E1E1E1E1E1E1E1E1E1E1E1E1E1E1E1E1E1E1E1E1E1E1E1E1E1E1E1E1E1E1E1E1E1E1E1E1E1E1E1E1E1
310
E1E1E1E1E1E1E1E1E1E1E1E1E1E1E1E1E1E1E1E1E1E1E1E1E1E1E1E1E1E1E1E1E1E1E1E1E1E1E1E1E1E1E1E1E1E1E1E1E1E1E1E1E1E1E1E1E1E1E1E1E1E1E1E1E1E1E1E1E1E1E1E1E1E1E1E1E1E1E1E1E1E1E1E1E1E1E1E1E1E1E1E1E1E1E1E1E1E1E1E1E1E1E1E1E128E1E1E1E1E1E1E1E1E1E1E1E1E1E1E1E1E1E1E1E1E1
310
E1E1E1E1E1E1E1E1E1E1E1E1E1E1E1E1E1E1E1E1E1E1E1E1E1E1E1E1E1E1E1E1E1E1E1E1E1E1E1E1E1E1E1E1E1E1E1E1E1E1E1E1E1E1E1E1E1E1E1E1E1E1E1E1E1E1E1E1E1BEE1E128E1E1E1E1E1E1E1E1E1E1E1E1E1E1E1E1E1E1E1E1E1E1E1E1E1E1E1E1E1E1E1E1E1E1E1E1E1E1E1E1E1E1E1E1E1E1E1E1E1E1E1E1E1E1
310
E1E1E1E1E1E1E1E1E1E1E1E1E1E1E1E1E1E1E1E1E1E1E1E1E1E1E1E1E1E1E1E1E1E1E1E1E1E1E1E1E1E1E1E1E1E1E1E1E1E1E1E1E1E1E1E1E1E1E1E1E1E1E1E1E1E1E1E1E1E1E1E1E1E1E1E1E1E1E1E1E1E1E1E1E1E1E1E1E1E1E1E1E1E1E1E1E1E1E1E1E1E1E1E1E1E1E128E1E1E1E1E1E1E1E1E1E1E1E1E1E1E1E1E1E1E1
310
E1E1E1E1E1E1E1E1E1E1E1E1E1E1E1E1E1E1E1E1E1E1E1E1E1E1E1E1E1E1E1E1E1E1E1E1E1E1E1E1E1E1E1E1E1E1E1E1E1E1E1E1E1E1E1E1E1E1E1E1E1E1E1E1E1E1E1E1E1E1E1BEE1E12828282828282828282828282828282828282828282828282828282828282828282828282828282828282828282828282828282828
310
2828282828282828282828282828282828282828282828282828282828282828282828282828282828282828282828282828282828282828282828282828282828282828282828282828282828282828282828282828282828282828282828282828282828282828282828282828E1E1E1E1E1E1E1E1E1E1E1E1E1E1E1E1E1
310
E1E1E1E1E1E1E1E1E1E1E1E1E1E1E1E1E1E1E1E1E1E1E1E1E1E1E1E1E1E1E1E1E1E1E1E1E1E1E1E1E1E1E1E1E1E1E1E1E1E1E1E1E1E1E1E1E1E1E1E1E1E1E1E1E1E1E1E1E1E1E1E1E1BEBEBEBEBEBEBEBEBEBEBEBEBEBEBEBEBEBEBEBEBEBEBEBEBEBEBEBEBEBEBEBEBEBEBEBEBEBEBEBEBEBEBEBEBEBEBEBEBEBEBEBEBEBE
310
BEBEBEBEBEBEBEBEBEBEBEBEBEBEBEBEBEBEBEBEBEBEBEBEBEBEBEBEBEBEBEBEBEBEBEBEBEBEBEBEBEBEBEBEBEBEBEBEBEBEBEBEBEBEBEBEBEBEBEBEBEBEBEBEBEBEBEBEBEBEBEBEBEBEBEBEBEBEBEBEBEBEBEBEBEBEBEBEBEBEBEBEBEBEBEBEBEBEBEBEBEBEBEBEBEBEBEBEBEBEBEBEE1E1E1E1E1E1E1E1E1E1E1E1E1E1E1
310
E1E1E1E1E1E1E1E1E1E1E1E1E1E1E1E1E1E1E1E1E1E1E1E1E1E1E1E1E1E1
  0
XRECORD
  5
D614
102
{ACAD_REACTORS
330
D613
102
}
330
D613
100
AcDbXrecord
280
     1
102
MATERIAL
148
0.0
149
0.0
149
0.0
 93
        0
 94
       63
282
     0
 72
     1
 77
     1
171
     1
175
     1
179
     1
273
     0
  0
XRECORD
  5
D612
102
{ACAD_REACTORS
330
D611
102
}
330
D611
100
AcDbXrecord
280
     1
102
MATERIAL
148
0.0
149
0.0
149
0.0
 93
        0
 94
       63
282
     0
 72
     1
 77
     1
171
     1
175
     1
179
     1
273
     0
  0
XRECORD
  5
D616
102
{ACAD_REACTORS
330
D615
102
}
330
D615
100
AcDbXrecord
280
     1
102
MATERIAL
148
0.0
149
0.0
149
0.0
 93
        0
 94
       63
282
     0
 72
     1
 77
     1
171
     1
175
     1
179
     1
273
     0
  0
CELLSTYLEMAP
  5
D606
102
{ACAD_REACTORS
330
D5CB
102
}
330
D5CB
100
AcDbCellStyleMap
 90
        3
300
CELLSTYLE
  1
TABLEFORMAT_BEGIN
 90
        5
170
     1
 91
        0
 92
    32768
 62
   257
 93
        1
300
CONTENTFORMAT
  1
CONTENTFORMAT_BEGIN
 90
        0
 91
        0
 92
        4
 93
        0
300

 40
0.0
140
1.0
 94
        5
 62
     0
340
11
144
6.0
309
CONTENTFORMAT_END
171
     1
301
MARGIN
  1
CELLMARGIN_BEGIN
 40
1.5
 40
1.5
 40
1.5
 40
1.5
 40
0.18
 40
0.18
309
CELLMARGIN_END
 94
        6
 95
        1
302
GRIDFORMAT
  1
GRIDFORMAT_BEGIN
 90
        0
 91
        1
 62
     0
 92
       -2
340
0
 93
        0
 40
0.045
309
GRIDFORMAT_END
 95
        2
302
GRIDFORMAT
  1
GRIDFORMAT_BEGIN
 90
        0
 91
        1
 62
     0
 92
       -2
340
0
 93
        0
 40
0.045
309
GRIDFORMAT_END
 95
        4
302
GRIDFORMAT
  1
GRIDFORMAT_BEGIN
 90
        0
 91
        1
 62
     0
 92
       -2
340
0
 93
        0
 40
0.045
309
GRIDFORMAT_END
 95
        8
302
GRIDFORMAT
  1
GRIDFORMAT_BEGIN
 90
        0
 91
        1
 62
     0
 92
       -2
340
0
 93
        0
 40
0.045
309
GRIDFORMAT_END
 95
       16
302
GRIDFORMAT
  1
GRIDFORMAT_BEGIN
 90
        0
 91
        1
 62
     0
 92
       -2
340
0
 93
        0
 40
0.045
309
GRIDFORMAT_END
 95
       32
302
GRIDFORMAT
  1
GRIDFORMAT_BEGIN
 90
        0
 91
        1
 62
     0
 92
       -2
340
0
 93
        0
 40
0.045
309
GRIDFORMAT_END
309
TABLEFORMAT_END
  1
CELLSTYLE_BEGIN
 90
        1
 91
        1
300
_TITLE
309
CELLSTYLE_END
300
CELLSTYLE
  1
TABLEFORMAT_BEGIN
 90
        5
170
     1
 91
        0
 92
        0
 62
   257
 93
        1
300
CONTENTFORMAT
  1
CONTENTFORMAT_BEGIN
 90
        0
 91
        0
 92
        4
 93
        0
300

 40
0.0
140
1.0
 94
        5
 62
     0
340
11
144
4.5
309
CONTENTFORMAT_END
171
     1
301
MARGIN
  1
CELLMARGIN_BEGIN
 40
1.5
 40
1.5
 40
1.5
 40
1.5
 40
0.18
 40
0.18
309
CELLMARGIN_END
 94
        6
 95
        1
302
GRIDFORMAT
  1
GRIDFORMAT_BEGIN
 90
        0
 91
        1
 62
     0
 92
       -2
340
0
 93
        0
 40
0.045
309
GRIDFORMAT_END
 95
        2
302
GRIDFORMAT
  1
GRIDFORMAT_BEGIN
 90
        0
 91
        1
 62
     0
 92
       -2
340
0
 93
        0
 40
0.045
309
GRIDFORMAT_END
 95
        4
302
GRIDFORMAT
  1
GRIDFORMAT_BEGIN
 90
        0
 91
        1
 62
     0
 92
       -2
340
0
 93
        0
 40
0.045
309
GRIDFORMAT_END
 95
        8
302
GRIDFORMAT
  1
GRIDFORMAT_BEGIN
 90
        0
 91
        1
 62
     0
 92
       -2
340
0
 93
        0
 40
0.045
309
GRIDFORMAT_END
 95
       16
302
GRIDFORMAT
  1
GRIDFORMAT_BEGIN
 90
        0
 91
        1
 62
     0
 92
       -2
340
0
 93
        0
 40
0.045
309
GRIDFORMAT_END
 95
       32
302
GRIDFORMAT
  1
GRIDFORMAT_BEGIN
 90
        0
 91
        1
 62
     0
 92
       -2
340
0
 93
        0
 40
0.045
309
GRIDFORMAT_END
309
TABLEFORMAT_END
  1
CELLSTYLE_BEGIN
 90
        2
 91
        1
300
_HEADER
309
CELLSTYLE_END
300
CELLSTYLE
  1
TABLEFORMAT_BEGIN
 90
        5
170
     1
 91
        0
 92
        0
 62
   257
 93
        1
300
CONTENTFORMAT
  1
CONTENTFORMAT_BEGIN
 90
        0
 91
        0
 92
        4
 93
        0
300

 40
0.0
140
1.0
 94
        2
 62
     0
340
11
144
4.5
309
CONTENTFORMAT_END
171
     1
301
MARGIN
  1
CELLMARGIN_BEGIN
 40
1.5
 40
1.5
 40
1.5
 40
1.5
 40
0.18
 40
0.18
309
CELLMARGIN_END
 94
        6
 95
        1
302
GRIDFORMAT
  1
GRIDFORMAT_BEGIN
 90
        0
 91
        1
 62
     0
 92
       -2
340
0
 93
        0
 40
0.045
309
GRIDFORMAT_END
 95
        2
302
GRIDFORMAT
  1
GRIDFORMAT_BEGIN
 90
        0
 91
        1
 62
     0
 92
       -2
340
0
 93
        0
 40
0.045
309
GRIDFORMAT_END
 95
        4
302
GRIDFORMAT
  1
GRIDFORMAT_BEGIN
 90
        0
 91
        1
 62
     0
 92
       -2
340
0
 93
        0
 40
0.045
309
GRIDFORMAT_END
 95
        8
302
GRIDFORMAT
  1
GRIDFORMAT_BEGIN
 90
        0
 91
        1
 62
     0
 92
       -2
340
0
 93
        0
 40
0.045
309
GRIDFORMAT_END
 95
       16
302
GRIDFORMAT
  1
GRIDFORMAT_BEGIN
 90
        0
 91
        1
 62
     0
 92
       -2
340
0
 93
        0
 40
0.045
309
GRIDFORMAT_END
 95
       32
302
GRIDFORMAT
  1
GRIDFORMAT_BEGIN
 90
        0
 91
        1
 62
     0
 92
       -2
340
0
 93
        0
 40
0.045
309
GRIDFORMAT_END
309
TABLEFORMAT_END
  1
CELLSTYLE_BEGIN
 90
        3
 91
        2
300
_DATA
309
CELLSTYLE_END
  0
XRECORD
  5
D610
102
{ACAD_REACTORS
330
D5CB
102
}
330
D5CB
100
AcDbXrecord
280
     1
102
ACAD_ROUNDTRIP_PRE2007_TABLESTYLE
 90
        4
 91
        0
  1

 92
        4
 93
        0
  2

 94
        4
 95
        0
  3

  0
XRECORD
  5
D622
102
{ACAD_REACTORS
330
D621
102
}
330
D621
100
AcDbXrecord
280
     1
102
RTVSPropertyOp0
 70
     1
102
RTVSPropertyOp1
 70
     1
102
RTVSPropertyOp2
 70
     1
102
RTVSPropertyOp3
 70
     1
102
RTVSPropertyOp4
 70
     1
102
RTVSPropertyOp5
 70
     1
102
RTVSPropertyOp6
 70
     1
102
RTVSPropertyOp7
 70
     1
102
RTVSPropertyOp8
 70
     1
102
RTVSPropertyOp9
 70
     1
102
RTVSPropertyOp10
 70
     1
102
RTVSPropertyOp11
 70
     1
102
RTVSPropertyOp12
 70
     1
102
RTVSPropertyOp13
 70
     1
102
RTVSPropertyOp14
 70
     1
102
RTVSPropertyOp15
 70
     1
102
RTVSPropertyOp16
 70
     1
102
RTVSPropertyOp17
 70
     1
102
RTVSPropertyOp18
 70
     1
102
RTVSPropertyOp19
 70
     1
102
RTVSPropertyOp20
 70
     1
102
RTVSPropertyOp21
 70
     1
102
RTVSPropertyOp22
 70
     1
102
RTVSPropertyOp23
 70
     1
102
RTVSPropertyOp24
 70
     1
102
RTVSPropertyOp25
 70
     1
102
RTVSPropertyOp26
 70
     1
102
RTVSPropertyOp27
 70
     1
  0
XRECORD
  5
D626
102
{ACAD_REACTORS
330
D625
102
}
330
D625
100
AcDbXrecord
280
     1
102
RTVSPropertyOp0
 70
     1
102
RTVSPropertyOp1
 70
     1
102
RTVSPropertyOp2
 70
     1
102
RTVSPropertyOp3
 70
     1
102
RTVSPropertyOp4
 70
     1
102
RTVSPropertyOp5
 70
     1
102
RTVSPropertyOp6
 70
     1
102
RTVSPropertyOp7
 70
     1
102
RTVSPropertyOp8
 70
     1
102
RTVSPropertyOp9
 70
     1
102
RTVSPropertyOp10
 70
     1
102
RTVSPropertyOp11
 70
     1
102
RTVSPropertyOp12
 70
     1
102
RTVSPropertyOp13
 70
     1
102
RTVSPropertyOp14
 70
     1
102
RTVSPropertyOp15
 70
     1
102
RTVSPropertyOp16
 70
     1
102
RTVSPropertyOp17
 70
     1
102
RTVSPropertyOp18
 70
     1
102
RTVSPropertyOp19
 70
     1
102
RTVSPropertyOp20
 70
     1
102
RTVSPropertyOp21
 70
     1
102
RTVSPropertyOp22
 70
     1
102
RTVSPropertyOp23
 70
     1
102
RTVSPropertyOp24
 70
     1
102
RTVSPropertyOp25
 70
     1
102
RTVSPropertyOp26
 70
     1
102
RTVSPropertyOp27
 70
     1
  0
XRECORD
  5
D624
102
{ACAD_REACTORS
330
D623
102
}
330
D623
100
AcDbXrecord
280
     1
102
RTVSPropertyOp0
 70
     1
102
RTVSPropertyOp1
 70
     1
102
RTVSPropertyOp2
 70
     1
102
RTVSPropertyOp3
 70
     1
102
RTVSPropertyOp4
 70
     1
102
RTVSPropertyOp5
 70
     1
102
RTVSPropertyOp6
 70
     1
102
RTVSPropertyOp7
 70
     1
102
RTVSPropertyOp8
 70
     1
102
RTVSPropertyOp9
 70
     1
102
RTVSPropertyOp10
 70
     1
102
RTVSPropertyOp11
 70
     1
102
RTVSPropertyOp12
 70
     1
102
RTVSPropertyOp13
 70
     1
102
RTVSPropertyOp14
 70
     1
102
RTVSPropertyOp15
 70
     1
102
RTVSPropertyOp16
 70
     1
102
RTVSPropertyOp17
 70
     1
102
RTVSPropertyOp18
 70
     1
102
RTVSPropertyOp19
 70
     1
102
RTVSPropertyOp20
 70
     1
102
RTVSPropertyOp21
 70
     1
102
RTVSPropertyOp22
 70
     1
102
RTVSPropertyOp23
 70
     1
102
RTVSPropertyOp24
 70
     1
102
RTVSPropertyOp25
 70
     1
102
RTVSPropertyOp26
 70
     1
102
RTVSPropertyOp27
 70
     1
  0
XRECORD
  5
D620
102
{ACAD_REACTORS
330
D61F
102
}
330
D61F
100
AcDbXrecord
280
     1
102
RTVSPropertyOp0
 70
     1
102
RTVSPropertyOp1
 70
     1
102
RTVSPropertyOp2
 70
     1
102
RTVSPropertyOp3
 70
     1
102
RTVSPropertyOp4
 70
     1
102
RTVSPropertyOp5
 70
     1
102
RTVSPropertyOp6
 70
     1
102
RTVSPropertyOp7
 70
     1
102
RTVSPropertyOp8
 70
     1
102
RTVSPropertyOp9
 70
     1
102
RTVSPropertyOp10
 70
     1
102
RTVSPropertyOp11
 70
     1
102
RTVSPropertyOp12
 70
     1
102
RTVSPropertyOp13
 70
     1
102
RTVSPropertyOp14
 70
     1
102
RTVSPropertyOp15
 70
     1
102
RTVSPropertyOp16
 70
     1
102
RTVSPropertyOp17
 70
     1
102
RTVSPropertyOp18
 70
     1
102
RTVSPropertyOp19
 70
     1
102
RTVSPropertyOp20
 70
     1
102
RTVSPropertyOp21
 70
     1
102
RTVSPropertyOp22
 70
     1
102
RTVSPropertyOp23
 70
     1
102
RTVSPropertyOp24
 70
     1
102
RTVSPropertyOp25
 70
     1
102
RTVSPropertyOp26
 70
     1
102
RTVSPropertyOp27
 70
     1
  0
XRECORD
  5
D62E
102
{ACAD_REACTORS
330
D62D
102
}
330
D62D
100
AcDbXrecord
280
     1
102
RTVSPropertyOp0
 70
     1
102
RTVSPropertyOp1
 70
     1
102
RTVSPropertyOp2
 70
     1
102
RTVSPropertyOp3
 70
     1
102
RTVSPropertyOp4
 70
     1
102
RTVSPropertyOp5
 70
     1
102
RTVSPropertyOp6
 70
     1
102
RTVSPropertyOp7
 70
     1
102
RTVSPropertyOp8
 70
     1
102
RTVSPropertyOp9
 70
     1
102
RTVSPropertyOp10
 70
     1
102
RTVSPropertyOp11
 70
     1
102
RTVSPropertyOp12
 70
     1
102
RTVSPropertyOp13
 70
     1
102
RTVSPropertyOp14
 70
     1
102
RTVSPropertyOp15
 70
     1
102
RTVSPropertyOp16
 70
     1
102
RTVSPropertyOp17
 70
     1
102
RTVSPropertyOp18
 70
     1
102
RTVSPropertyOp19
 70
     1
102
RTVSPropertyOp20
 70
     1
102
RTVSPropertyOp21
 70
     1
102
RTVSPropertyOp22
 70
     1
102
RTVSPropertyOp23
 70
     1
102
RTVSPropertyOp24
 70
     1
102
RTVSPropertyOp25
 70
     1
102
RTVSPropertyOp26
 70
     1
102
RTVSPropertyOp27
 70
     1
  0
XRECORD
  5
D636
102
{ACAD_REACTORS
330
D635
102
}
330
D635
100
AcDbXrecord
280
     1
102
RTVSPropertyOp0
 70
     1
102
RTVSPropertyOp1
 70
     1
102
RTVSPropertyOp2
 70
     1
102
RTVSPropertyOp3
 70
     1
102
RTVSPropertyOp4
 70
     1
102
RTVSPropertyOp5
 70
     1
102
RTVSPropertyOp6
 70
     1
102
RTVSPropertyOp7
 70
     1
102
RTVSPropertyOp8
 70
     1
102
RTVSPropertyOp9
 70
     1
102
RTVSPropertyOp10
 70
     1
102
RTVSPropertyOp11
 70
     1
102
RTVSPropertyOp12
 70
     1
102
RTVSPropertyOp13
 70
     1
102
RTVSPropertyOp14
 70
     1
102
RTVSPropertyOp15
 70
     1
102
RTVSPropertyOp16
 70
     1
102
RTVSPropertyOp17
 70
     1
102
RTVSPropertyOp18
 70
     1
102
RTVSPropertyOp19
 70
     1
102
RTVSPropertyOp20
 70
     1
102
RTVSPropertyOp21
 70
     1
102
RTVSPropertyOp22
 70
     1
102
RTVSPropertyOp23
 70
     1
102
RTVSPropertyOp24
 70
     1
102
RTVSPropertyOp25
 70
     1
102
RTVSPropertyOp26
 70
     1
102
RTVSPropertyOp27
 70
     1
  0
XRECORD
  5
D628
102
{ACAD_REACTORS
330
D627
102
}
330
D627
100
AcDbXrecord
280
     1
102
RTVSPropertyOp0
 70
     1
102
RTVSPropertyOp1
 70
     1
102
RTVSPropertyOp2
 70
     1
102
RTVSPropertyOp3
 70
     1
102
RTVSPropertyOp4
 70
     1
102
RTVSPropertyOp5
 70
     1
102
RTVSPropertyOp6
 70
     1
102
RTVSPropertyOp7
 70
     1
102
RTVSPropertyOp8
 70
     1
102
RTVSPropertyOp9
 70
     1
102
RTVSPropertyOp10
 70
     1
102
RTVSPropertyOp11
 70
     1
102
RTVSPropertyOp12
 70
     1
102
RTVSPropertyOp13
 70
     1
102
RTVSPropertyOp14
 70
     1
102
RTVSPropertyOp15
 70
     1
102
RTVSPropertyOp16
 70
     1
102
RTVSPropertyOp17
 70
     1
102
RTVSPropertyOp18
 70
     1
102
RTVSPropertyOp19
 70
     1
102
RTVSPropertyOp20
 70
     1
102
RTVSPropertyOp21
 70
     1
102
RTVSPropertyOp22
 70
     1
102
RTVSPropertyOp23
 70
     1
102
RTVSPropertyOp24
 70
     1
102
RTVSPropertyOp25
 70
     1
102
RTVSPropertyOp26
 70
     1
102
RTVSPropertyOp27
 70
     1
  0
XRECORD
  5
D62C
102
{ACAD_REACTORS
330
D62B
102
}
330
D62B
100
AcDbXrecord
280
     1
102
RTVSPropertyOp0
 70
     1
102
RTVSPropertyOp1
 70
     1
102
RTVSPropertyOp2
 70
     1
102
RTVSPropertyOp3
 70
     1
102
RTVSPropertyOp4
 70
     1
102
RTVSPropertyOp5
 70
     1
102
RTVSPropertyOp6
 70
     1
102
RTVSPropertyOp7
 70
     1
102
RTVSPropertyOp8
 70
     1
102
RTVSPropertyOp9
 70
     1
102
RTVSPropertyOp10
 70
     1
102
RTVSPropertyOp11
 70
     1
102
RTVSPropertyOp12
 70
     1
102
RTVSPropertyOp13
 70
     1
102
RTVSPropertyOp14
 70
     1
102
RTVSPropertyOp15
 70
     1
102
RTVSPropertyOp16
 70
     1
102
RTVSPropertyOp17
 70
     1
102
RTVSPropertyOp18
 70
     1
102
RTVSPropertyOp19
 70
     1
102
RTVSPropertyOp20
 70
     1
102
RTVSPropertyOp21
 70
     1
102
RTVSPropertyOp22
 70
     1
102
RTVSPropertyOp23
 70
     1
102
RTVSPropertyOp24
 70
     1
102
RTVSPropertyOp25
 70
     1
102
RTVSPropertyOp26
 70
     1
102
RTVSPropertyOp27
 70
     1
  0
XRECORD
  5
D63C
102
{ACAD_REACTORS
330
D63B
102
}
330
D63B
100
AcDbXrecord
280
     1
102
RTVSPropertyOp0
 70
     0
102
RTVSPropertyOp1
 70
     0
102
RTVSPropertyOp2
 70
     0
102
RTVSPropertyOp3
 70
     0
102
RTVSPropertyOp4
 70
     0
102
RTVSPropertyOp5
 70
     0
102
RTVSPropertyOp6
 70
     0
102
RTVSPropertyOp7
 70
     0
102
RTVSPropertyOp8
 70
     0
102
RTVSPropertyOp9
 70
     0
102
RTVSPropertyOp10
 70
     0
102
RTVSPropertyOp11
 70
     0
102
RTVSPropertyOp12
 70
     0
102
RTVSPropertyOp13
 70
     0
102
RTVSPropertyOp14
 70
     2
102
RTVSPropertyOp15
 70
     0
102
RTVSPropertyOp16
 70
     0
102
RTVSPropertyOp17
 70
     0
102
RTVSPropertyOp18
 70
     0
102
RTVSPropertyOp19
 70
     0
102
RTVSPropertyOp20
 70
     0
102
RTVSPropertyOp21
 70
     0
102
RTVSPropertyOp22
 70
     0
102
RTVSPropertyOp23
 70
     0
102
RTVSPropertyOp24
 70
     0
102
RTVSPropertyOp25
 70
     0
102
RTVSPropertyOp26
 70
     0
102
RTVSPropertyOp27
 70
     0
  0
XRECORD
  5
D634
102
{ACAD_REACTORS
330
D633
102
}
330
D633
100
AcDbXrecord
280
     1
102
RTVSPropertyOp0
 70
     1
102
RTVSPropertyOp1
 70
     1
102
RTVSPropertyOp2
 70
     1
102
RTVSPropertyOp3
 70
     1
102
RTVSPropertyOp4
 70
     1
102
RTVSPropertyOp5
 70
     1
102
RTVSPropertyOp6
 70
     1
102
RTVSPropertyOp7
 70
     1
102
RTVSPropertyOp8
 70
     1
102
RTVSPropertyOp9
 70
     1
102
RTVSPropertyOp10
 70
     1
102
RTVSPropertyOp11
 70
     1
102
RTVSPropertyOp12
 70
     1
102
RTVSPropertyOp13
 70
     1
102
RTVSPropertyOp14
 70
     1
102
RTVSPropertyOp15
 70
     1
102
RTVSPropertyOp16
 70
     1
102
RTVSPropertyOp17
 70
     1
102
RTVSPropertyOp18
 70
     1
102
RTVSPropertyOp19
 70
     1
102
RTVSPropertyOp20
 70
     1
102
RTVSPropertyOp21
 70
     1
102
RTVSPropertyOp22
 70
     1
102
RTVSPropertyOp23
 70
     1
102
RTVSPropertyOp24
 70
     1
102
RTVSPropertyOp25
 70
     1
102
RTVSPropertyOp26
 70
     1
102
RTVSPropertyOp27
 70
     1
  0
XRECORD
  5
D618
102
{ACAD_REACTORS
330
D617
102
}
330
D617
100
AcDbXrecord
280
     1
102
RTVSPropertyOp0
 70
     1
102
RTVSPropertyOp1
 70
     1
102
RTVSPropertyOp2
 70
     1
102
RTVSPropertyOp3
 70
     1
102
RTVSPropertyOp4
 70
     1
102
RTVSPropertyOp5
 70
     1
102
RTVSPropertyOp6
 70
     1
102
RTVSPropertyOp7
 70
     1
102
RTVSPropertyOp8
 70
     1
102
RTVSPropertyOp9
 70
     1
102
RTVSPropertyOp10
 70
     1
102
RTVSPropertyOp11
 70
     1
102
RTVSPropertyOp12
 70
     1
102
RTVSPropertyOp13
 70
     1
102
RTVSPropertyOp14
 70
     1
102
RTVSPropertyOp15
 70
     1
102
RTVSPropertyOp16
 70
     1
102
RTVSPropertyOp17
 70
     1
102
RTVSPropertyOp18
 70
     1
102
RTVSPropertyOp19
 70
     1
102
RTVSPropertyOp20
 70
     1
102
RTVSPropertyOp21
 70
     1
102
RTVSPropertyOp22
 70
     1
102
RTVSPropertyOp23
 70
     1
102
RTVSPropertyOp24
 70
     1
102
RTVSPropertyOp25
 70
     1
102
RTVSPropertyOp26
 70
     1
102
RTVSPropertyOp27
 70
     1
  0
XRECORD
  5
D61A
102
{ACAD_REACTORS
330
D619
102
}
330
D619
100
AcDbXrecord
280
     1
102
RTVSPropertyOp0
 70
     1
102
RTVSPropertyOp1
 70
     1
102
RTVSPropertyOp2
 70
     1
102
RTVSPropertyOp3
 70
     1
102
RTVSPropertyOp4
 70
     1
102
RTVSPropertyOp5
 70
     1
102
RTVSPropertyOp6
 70
     1
102
RTVSPropertyOp7
 70
     1
102
RTVSPropertyOp8
 70
     1
102
RTVSPropertyOp9
 70
     1
102
RTVSPropertyOp10
 70
     1
102
RTVSPropertyOp11
 70
     1
102
RTVSPropertyOp12
 70
     1
102
RTVSPropertyOp13
 70
     1
102
RTVSPropertyOp14
 70
     1
102
RTVSPropertyOp15
 70
     1
102
RTVSPropertyOp16
 70
     1
102
RTVSPropertyOp17
 70
     1
102
RTVSPropertyOp18
 70
     1
102
RTVSPropertyOp19
 70
     1
102
RTVSPropertyOp20
 70
     1
102
RTVSPropertyOp21
 70
     1
102
RTVSPropertyOp22
 70
     1
102
RTVSPropertyOp23
 70
     1
102
RTVSPropertyOp24
 70
     1
102
RTVSPropertyOp25
 70
     1
102
RTVSPropertyOp26
 70
     1
102
RTVSPropertyOp27
 70
     1
  0
XRECORD
  5
D61C
102
{ACAD_REACTORS
330
D61B
102
}
330
D61B
100
AcDbXrecord
280
     1
102
RTVSPropertyOp0
 70
     1
102
RTVSPropertyOp1
 70
     1
102
RTVSPropertyOp2
 70
     1
102
RTVSPropertyOp3
 70
     1
102
RTVSPropertyOp4
 70
     1
102
RTVSPropertyOp5
 70
     1
102
RTVSPropertyOp6
 70
     1
102
RTVSPropertyOp7
 70
     1
102
RTVSPropertyOp8
 70
     1
102
RTVSPropertyOp9
 70
     1
102
RTVSPropertyOp10
 70
     1
102
RTVSPropertyOp11
 70
     1
102
RTVSPropertyOp12
 70
     1
102
RTVSPropertyOp13
 70
     1
102
RTVSPropertyOp14
 70
     1
102
RTVSPropertyOp15
 70
     1
102
RTVSPropertyOp16
 70
     1
102
RTVSPropertyOp17
 70
     1
102
RTVSPropertyOp18
 70
     1
102
RTVSPropertyOp19
 70
     1
102
RTVSPropertyOp20
 70
     1
102
RTVSPropertyOp21
 70
     1
102
RTVSPropertyOp22
 70
     1
102
RTVSPropertyOp23
 70
     1
102
RTVSPropertyOp24
 70
     1
102
RTVSPropertyOp25
 70
     1
102
RTVSPropertyOp26
 70
     1
102
RTVSPropertyOp27
 70
     1
  0
XRECORD
  5
D61E
102
{ACAD_REACTORS
330
D61D
102
}
330
D61D
100
AcDbXrecord
280
     1
102
RTVSPropertyOp0
 70
     1
102
RTVSPropertyOp1
 70
     1
102
RTVSPropertyOp2
 70
     1
102
RTVSPropertyOp3
 70
     1
102
RTVSPropertyOp4
 70
     1
102
RTVSPropertyOp5
 70
     1
102
RTVSPropertyOp6
 70
     1
102
RTVSPropertyOp7
 70
     1
102
RTVSPropertyOp8
 70
     1
102
RTVSPropertyOp9
 70
     1
102
RTVSPropertyOp10
 70
     1
102
RTVSPropertyOp11
 70
     1
102
RTVSPropertyOp12
 70
     1
102
RTVSPropertyOp13
 70
     1
102
RTVSPropertyOp14
 70
     1
102
RTVSPropertyOp15
 70
     1
102
RTVSPropertyOp16
 70
     1
102
RTVSPropertyOp17
 70
     1
102
RTVSPropertyOp18
 70
     1
102
RTVSPropertyOp19
 70
     1
102
RTVSPropertyOp20
 70
     1
102
RTVSPropertyOp21
 70
     1
102
RTVSPropertyOp22
 70
     1
102
RTVSPropertyOp23
 70
     1
102
RTVSPropertyOp24
 70
     1
102
RTVSPropertyOp25
 70
     1
102
RTVSPropertyOp26
 70
     1
102
RTVSPropertyOp27
 70
     1
  0
XRECORD
  5
D638
102
{ACAD_REACTORS
330
D637
102
}
330
D637
100
AcDbXrecord
280
     1
102
RTVSPropertyOp0
 70
     0
102
RTVSPropertyOp1
 70
     0
102
RTVSPropertyOp2
 70
     0
102
RTVSPropertyOp3
 70
     0
102
RTVSPropertyOp4
 70
     0
102
RTVSPropertyOp5
 70
     0
102
RTVSPropertyOp6
 70
     0
102
RTVSPropertyOp7
 70
     0
102
RTVSPropertyOp8
 70
     0
102
RTVSPropertyOp9
 70
     0
102
RTVSPropertyOp10
 70
     0
102
RTVSPropertyOp11
 70
     0
102
RTVSPropertyOp12
 70
     0
102
RTVSPropertyOp13
 70
     0
102
RTVSPropertyOp14
 70
     2
102
RTVSPropertyOp15
 70
     0
102
RTVSPropertyOp16
 70
     0
102
RTVSPropertyOp17
 70
     0
102
RTVSPropertyOp18
 70
     0
102
RTVSPropertyOp19
 70
     0
102
RTVSPropertyOp20
 70
     0
102
RTVSPropertyOp21
 70
     0
102
RTVSPropertyOp22
 70
     0
102
RTVSPropertyOp23
 70
     0
102
RTVSPropertyOp24
 70
     0
102
RTVSPropertyOp25
 70
     0
102
RTVSPropertyOp26
 70
     0
102
RTVSPropertyOp27
 70
     0
  0
XRECORD
  5
D632
102
{ACAD_REACTORS
330
D631
102
}
330
D631
100
AcDbXrecord
280
     1
102
RTVSPropertyOp0
 70
     1
102
RTVSPropertyOp1
 70
     1
102
RTVSPropertyOp2
 70
     1
102
RTVSPropertyOp3
 70
     1
102
RTVSPropertyOp4
 70
     1
102
RTVSPropertyOp5
 70
     1
102
RTVSPropertyOp6
 70
     1
102
RTVSPropertyOp7
 70
     1
102
RTVSPropertyOp8
 70
     1
102
RTVSPropertyOp9
 70
     1
102
RTVSPropertyOp10
 70
     1
102
RTVSPropertyOp11
 70
     1
102
RTVSPropertyOp12
 70
     1
102
RTVSPropertyOp13
 70
     1
102
RTVSPropertyOp14
 70
     1
102
RTVSPropertyOp15
 70
     1
102
RTVSPropertyOp16
 70
     1
102
RTVSPropertyOp17
 70
     1
102
RTVSPropertyOp18
 70
     1
102
RTVSPropertyOp19
 70
     1
102
RTVSPropertyOp20
 70
     1
102
RTVSPropertyOp21
 70
     1
102
RTVSPropertyOp22
 70
     1
102
RTVSPropertyOp23
 70
     1
102
RTVSPropertyOp24
 70
     1
102
RTVSPropertyOp25
 70
     1
102
RTVSPropertyOp26
 70
     1
102
RTVSPropertyOp27
 70
     1
  0
XRECORD
  5
D63A
102
{ACAD_REACTORS
330
D639
102
}
330
D639
100
AcDbXrecord
280
     1
102
RTVSPropertyOp0
 70
     0
102
RTVSPropertyOp1
 70
     0
102
RTVSPropertyOp2
 70
     0
102
RTVSPropertyOp3
 70
     0
102
RTVSPropertyOp4
 70
     0
102
RTVSPropertyOp5
 70
     0
102
RTVSPropertyOp6
 70
     0
102
RTVSPropertyOp7
 70
     0
102
RTVSPropertyOp8
 70
     0
102
RTVSPropertyOp9
 70
     0
102
RTVSPropertyOp10
 70
     0
102
RTVSPropertyOp11
 70
     0
102
RTVSPropertyOp12
 70
     0
102
RTVSPropertyOp13
 70
     0
102
RTVSPropertyOp14
 70
     2
102
RTVSPropertyOp15
 70
     0
102
RTVSPropertyOp16
 70
     0
102
RTVSPropertyOp17
 70
     0
102
RTVSPropertyOp18
 70
     0
102
RTVSPropertyOp19
 70
     0
102
RTVSPropertyOp20
 70
     0
102
RTVSPropertyOp21
 70
     0
102
RTVSPropertyOp22
 70
     0
102
RTVSPropertyOp23
 70
     0
102
RTVSPropertyOp24
 70
     0
102
RTVSPropertyOp25
 70
     0
102
RTVSPropertyOp26
 70
     0
102
RTVSPropertyOp27
 70
     0
  0
XRECORD
  5
D62A
102
{ACAD_REACTORS
330
D629
102
}
330
D629
100
AcDbXrecord
280
     1
102
RTVSPropertyOp0
 70
     1
102
RTVSPropertyOp1
 70
     1
102
RTVSPropertyOp2
 70
     1
102
RTVSPropertyOp3
 70
     1
102
RTVSPropertyOp4
 70
     1
102
RTVSPropertyOp5
 70
     1
102
RTVSPropertyOp6
 70
     1
102
RTVSPropertyOp7
 70
     1
102
RTVSPropertyOp8
 70
     1
102
RTVSPropertyOp9
 70
     1
102
RTVSPropertyOp10
 70
     1
102
RTVSPropertyOp11
 70
     1
102
RTVSPropertyOp12
 70
     1
102
RTVSPropertyOp13
 70
     1
102
RTVSPropertyOp14
 70
     1
102
RTVSPropertyOp15
 70
     1
102
RTVSPropertyOp16
 70
     1
102
RTVSPropertyOp17
 70
     1
102
RTVSPropertyOp18
 70
     1
102
RTVSPropertyOp19
 70
     1
102
RTVSPropertyOp20
 70
     1
102
RTVSPropertyOp21
 70
     1
102
RTVSPropertyOp22
 70
     1
102
RTVSPropertyOp23
 70
     1
102
RTVSPropertyOp24
 70
     1
102
RTVSPropertyOp25
 70
     1
102
RTVSPropertyOp26
 70
     1
102
RTVSPropertyOp27
 70
     1
  0
XRECORD
  5
D630
102
{ACAD_REACTORS
330
D62F
102
}
330
D62F
100
AcDbXrecord
280
     1
102
RTVSPropertyOp0
 70
     1
102
RTVSPropertyOp1
 70
     1
102
RTVSPropertyOp2
 70
     1
102
RTVSPropertyOp3
 70
     1
102
RTVSPropertyOp4
 70
     1
102
RTVSPropertyOp5
 70
     1
102
RTVSPropertyOp6
 70
     1
102
RTVSPropertyOp7
 70
     1
102
RTVSPropertyOp8
 70
     1
102
RTVSPropertyOp9
 70
     1
102
RTVSPropertyOp10
 70
     1
102
RTVSPropertyOp11
 70
     1
102
RTVSPropertyOp12
 70
     1
102
RTVSPropertyOp13
 70
     1
102
RTVSPropertyOp14
 70
     1
102
RTVSPropertyOp15
 70
     1
102
RTVSPropertyOp16
 70
     1
102
RTVSPropertyOp17
 70
     1
102
RTVSPropertyOp18
 70
     1
102
RTVSPropertyOp19
 70
     1
102
RTVSPropertyOp20
 70
     1
102
RTVSPropertyOp21
 70
     1
102
RTVSPropertyOp22
 70
     1
102
RTVSPropertyOp23
 70
     1
102
RTVSPropertyOp24
 70
     1
102
RTVSPropertyOp25
 70
     1
102
RTVSPropertyOp26
 70
     1
102
RTVSPropertyOp27
 70
     1
  0
PH_GROUP
  5
D467
102
{ACAD_REACTORS
330
D466
102
}
330
D466
  0
DICTIONARY
  5
D578
102
{ACAD_REACTORS
330
D577
102
}
330
D577
100
AcDbDictionary
281
     1
  3
PH_GRPMEMBERS
350
D579
  0
PH_GROUP
  5
D57A
102
{ACAD_REACTORS
330
D577
102
}
330
D577
  0
PH_GROUP
  5
D579
102
{ACAD_REACTORS
330
D578
102
}
330
D578
  0
ENDSEC
  0
EOF
