  0
SECTION
  2
HEADER
  9
$ACADVER
  1
AC1015
  9
$ACADMAINTVER
 70
    20
  9
$DWGCODEPAGE
  3
ANSI_1252
  9
$INSBASE
 10
0.0
 20
0.0
 30
0.0
  9
$EXTMIN
 10
0.9805307641864828
 20
0.9879462492978063
 30
-0.0015258207003583
  9
$EXTMAX
 10
419.019471191591
 20
296.0120551337162
 30
0.0000000349246037
  9
$LIMMIN
 10
0.0
 20
0.0
  9
$LIMMAX
 10
420.0
 20
297.0
  9
$ORTHOMODE
 70
     1
  9
$REGENMODE
 70
     1
  9
$FILLMODE
 70
     1
  9
$QTEXTMODE
 70
     0
  9
$MIRRTEXT
 70
     1
  9
$LTSCALE
 40
0.4
  9
$ATTMODE
 70
     1
  9
$TEXTSIZE
 40
2.5
  9
$TRACEWID
 40
1.0
  9
$TEXTSTYLE
  7
STANDARD
  9
$CLAYER
  8
0
  9
$CELTYPE
  6
CONTINUOUS
  9
$CECOLOR
 62
     5
  9
$CELTSCALE
 40
1.0
  9
$DISPSILH
 70
     0
  9
$DIMSCALE
 40
1.0
  9
$DIMASZ
 40
3.72
  9
$DIMEXO
 40
0.0
  9
$DIMDLI
 40
7.0
  9
$DIMRND
 40
0.0
  9
$DIMDLE
 40
0.0
  9
$DIMEXE
 40
1.5
  9
$DIMTP
 40
0.0
  9
$DIMTM
 40
0.0
  9
$DIMTXT
 40
2.5
  9
$DIMCEN
 40
0.0
  9
$DIMTSZ
 40
0.0
  9
$DIMTOL
 70
     0
  9
$DIMLIM
 70
     0
  9
$DIMTIH
 70
     0
  9
$DIMTOH
 70
     0
  9
$DIMSE1
 70
     0
  9
$DIMSE2
 70
     0
  9
$DIMTAD
 70
     1
  9
$DIMZIN
 70
     8
  9
$DIMBLK
  1

  9
$DIMASO
 70
     1
  9
$DIMSHO
 70
     1
  9
$DIMPOST
  1

  9
$DIMAPOST
  1
"
  9
$DIMALT
 70
     0
  9
$DIMALTD
 70
     2
  9
$DIMALTF
 40
0.0393700787401575
  9
$DIMLFAC
 40
1.0
  9
$DIMTOFL
 70
     1
  9
$DIMTVP
 40
0.0
  9
$DIMTIX
 70
     0
  9
$DIMSOXD
 70
     0
  9
$DIMSAH
 70
     1
  9
$DIMBLK1
  1
_OPEN15
  9
$DIMBLK2
  1
_OPEN15
  9
$DIMSTYLE
  2
PHOENIX
  9
$DIMCLRD
 70
     1
  9
$DIMCLRE
 70
     1
  9
$DIMCLRT
 70
     5
  9
$DIMTFAC
 40
0.6666666666666666
  9
$DIMGAP
 40
1.0
  9
$DIMJUST
 70
     0
  9
$DIMSD1
 70
     0
  9
$DIMSD2
 70
     0
  9
$DIMTOLJ
 70
     1
  9
$DIMTZIN
 70
     8
  9
$DIMALTZ
 70
     0
  9
$DIMALTTZ
 70
     0
  9
$DIMUPT
 70
     0
  9
$DIMDEC
 70
     6
  9
$DIMTDEC
 70
     6
  9
$DIMALTU
 70
     2
  9
$DIMALTTD
 70
     2
  9
$DIMTXSTY
  7
STANDARD
  9
$DIMAUNIT
 70
     0
  9
$DIMADEC
 70
     0
  9
$DIMALTRND
 40
0.0
  9
$DIMAZIN
 70
     0
  9
$DIMDSEP
 70
    46
  9
$DIMATFIT
 70
     0
  9
$DIMFRAC
 70
     0
  9
$DIMLDRBLK
  1
_OPEN15
  9
$DIMLUNIT
 70
     2
  9
$DIMLWD
 70
    -2
  9
$DIMLWE
 70
    -2
  9
$DIMTMOVE
 70
     0
  9
$LUNITS
 70
     2
  9
$LUPREC
 70
     4
  9
$SKETCHINC
 40
1.0
  9
$FILLETRAD
 40
0.0
  9
$AUNITS
 70
     0
  9
$AUPREC
 70
     0
  9
$MENU
  1
.
  9
$ELEVATION
 40
0.0
  9
$PELEVATION
 40
0.0
  9
$THICKNESS
 40
0.0
  9
$LIMCHECK
 70
     0
  9
$CHAMFERA
 40
10.0
  9
$CHAMFERB
 40
10.0
  9
$CHAMFERC
 40
0.0
  9
$CHAMFERD
 40
0.0
  9
$SKPOLY
 70
     0
  9
$TDCREATE
 40
2450973.315705370
  9
$TDUCREATE
 40
2450973.274038704
  9
$TDUPDATE
 40
2457331.582096505
  9
$TDUUPDATE
 40
2457331.540429838
  9
$TDINDWG
 40
0.0891749884
  9
$TDUSRTIMER
 40
0.0891749884
  9
$USRTIMER
 70
     1
  9
$ANGBASE
 50
0.0
  9
$ANGDIR
 70
     0
  9
$PDMODE
 70
    35
  9
$PDSIZE
 40
-2.0
  9
$PLINEWID
 40
0.0
  9
$SPLFRAME
 70
     0
  9
$SPLINETYPE
 70
     6
  9
$SPLINESEGS
 70
     8
  9
$HANDSEED
  5
3898
  9
$SURFTAB1
 70
     6
  9
$SURFTAB2
 70
     6
  9
$SURFTYPE
 70
     6
  9
$SURFU
 70
     6
  9
$SURFV
 70
     6
  9
$UCSBASE
  2

  9
$UCSNAME
  2

  9
$UCSORG
 10
0.0
 20
0.0
 30
0.0
  9
$UCSXDIR
 10
1.0
 20
0.0
 30
0.0
  9
$UCSYDIR
 10
0.0
 20
1.0
 30
0.0
  9
$UCSORTHOREF
  2

  9
$UCSORTHOVIEW
 70
     0
  9
$UCSORGTOP
 10
0.0
 20
0.0
 30
0.0
  9
$UCSORGBOTTOM
 10
0.0
 20
0.0
 30
0.0
  9
$UCSORGLEFT
 10
0.0
 20
0.0
 30
0.0
  9
$UCSORGRIGHT
 10
0.0
 20
0.0
 30
0.0
  9
$UCSORGFRONT
 10
0.0
 20
0.0
 30
0.0
  9
$UCSORGBACK
 10
0.0
 20
0.0
 30
0.0
  9
$PUCSBASE
  2

  9
$PUCSNAME
  2

  9
$PUCSORG
 10
0.0
 20
0.0
 30
0.0
  9
$PUCSXDIR
 10
1.0
 20
0.0
 30
0.0
  9
$PUCSYDIR
 10
0.0
 20
1.0
 30
0.0
  9
$PUCSORTHOREF
  2

  9
$PUCSORTHOVIEW
 70
     0
  9
$PUCSORGTOP
 10
0.0
 20
0.0
 30
0.0
  9
$PUCSORGBOTTOM
 10
0.0
 20
0.0
 30
0.0
  9
$PUCSORGLEFT
 10
0.0
 20
0.0
 30
0.0
  9
$PUCSORGRIGHT
 10
0.0
 20
0.0
 30
0.0
  9
$PUCSORGFRONT
 10
0.0
 20
0.0
 30
0.0
  9
$PUCSORGBACK
 10
0.0
 20
0.0
 30
0.0
  9
$USERI1
 70
     0
  9
$USERI2
 70
     0
  9
$USERI3
 70
     0
  9
$USERI4
 70
     0
  9
$USERI5
 70
     0
  9
$USERR1
 40
0.0
  9
$USERR2
 40
0.0
  9
$USERR3
 40
0.0
  9
$USERR4
 40
0.0
  9
$USERR5
 40
0.0
  9
$WORLDVIEW
 70
     1
  9
$SHADEDGE
 70
     3
  9
$SHADEDIF
 70
    70
  9
$TILEMODE
 70
     1
  9
$MAXACTVP
 70
    16
  9
$PINSBASE
 10
0.0
 20
0.0
 30
0.0
  9
$PLIMCHECK
 70
     0
  9
$PEXTMIN
 10
1.000000000000000E+20
 20
1.000000000000000E+20
 30
1.000000000000000E+20
  9
$PEXTMAX
 10
-1.000000000000000E+20
 20
-1.000000000000000E+20
 30
-1.000000000000000E+20
  9
$PLIMMIN
 10
0.0
 20
0.0
  9
$PLIMMAX
 10
420.0
 20
297.0
  9
$UNITMODE
 70
     0
  9
$VISRETAIN
 70
     0
  9
$PLINEGEN
 70
     0
  9
$PSLTSCALE
 70
     1
  9
$TREEDEPTH
 70
  3020
  9
$CMLSTYLE
  2
STANDARD
  9
$CMLJUST
 70
     0
  9
$CMLSCALE
 40
1.0
  9
$PROXYGRAPHICS
 70
     1
  9
$MEASUREMENT
 70
     0
  9
$CELWEIGHT
370
    35
  9
$ENDCAPS
280
     0
  9
$JOINSTYLE
280
     0
  9
$LWDISPLAY
290
     0
  9
$INSUNITS
 70
     0
  9
$HYPERLINKBASE
  1

  9
$STYLESHEET
  1
HP_SW.ctb
  9
$XEDIT
290
     1
  9
$CEPSNTYPE
380
     0
  9
$PSTYLEMODE
290
     1
  9
$FINGERPRINTGUID
  2
{3507DA67-3625-4C11-A61A-B0E0FB1FBA05}
  9
$VERSIONGUID
  2
{B2756C78-CCE6-405C-B89B-42669E0764B2}
  9
$EXTNAMES
290
     1
  9
$PSVPSCALE
 40
0.0
  9
$OLESTARTUP
290
     0
  0
ENDSEC
  0
SECTION
  2
CLASSES
  0
CLASS
  1
PH_VARS
  2
PhoenixVars
  3
PHOENIX7010
 90
        0
280
     0
281
     0
  0
CLASS
  1
ACMESCOPE
  2
AcMeScope
  3
ACME_MODULE_NAME
 90
        0
280
     0
281
     0
  0
CLASS
  1
ACMECOMMANDHISTORY
  2
AcMeCommandHistory
  3
ACME_MODULE_NAME
 90
        0
280
     0
281
     0
  0
CLASS
  1
AcRfInsAdjusterMgr
  2
AcRfInsAdjusterMgr
  3
ACME_MODULE_NAME
 90
    32768
280
     0
281
     0
  0
CLASS
  1
ACGREFMASTER
  2
AcGrefMaster
  3
"AcadRfServer"
 90
        0
280
     0
281
     0
  0
CLASS
  1
AmiMaster
  2
AmiMaster
  3
"AmiServices"
 90
        0
280
     0
281
     0
  0
CLASS
  1
ACASGREFMASTER
  2
AcAsGrefMaster
  3
"AutoSurfResolver"
 90
        0
280
     0
281
     0
  0
CLASS
  1
ADAPPL
  2
AcAdAppl
  3
DesignerServices
 90
        0
280
     0
281
     0
  0
CLASS
  1
DEPMGR
  2
AcAdDepMgr
  3
DesignerServices
 90
        0
280
     0
281
     0
  0
CLASS
  1
PARAMMGR
  2
AcAdParamMgr
  3
DesignerServices
 90
        0
280
     0
281
     0
  0
CLASS
  1
PARAMSCOPE
  2
AcAdParamScope
  3
DesignerServices
 90
        0
280
     0
281
     0
  0
CLASS
  1
"IM_SYSVAR_MAN"
  2
AcImSysVarManager
  3
"ADAM"
 90
        0
280
     0
281
     0
  0
CLASS
  1
SYSTEM_VAR_INT
  2
AcImIntSysVar
  3
"ADAM"
 90
        0
280
     0
281
     0
  0
CLASS
  1
SYSTEM_VAR_REAL
  2
AcImRealSysVar
  3
"ADAM"
 90
        0
280
     0
281
     0
  0
CLASS
  1
SYSTEM_VAR_STR
  2
AcImStrSysVar
  3
"ADAM"
 90
        0
280
     0
281
     0
  0
CLASS
  1
NAMEDAPPL
  2
AcAdNamedAppl
  3
DesignerServices
 90
        0
280
     0
281
     0
  0
CLASS
  1
ADPART
  2
AcAdPart
  3
DesignerServices
 90
    32768
280
     0
281
     1
  0
CLASS
  1
ADBASE
  2
AcAdBase
  3
DesignerServices
 90
        0
280
     0
281
     0
  0
CLASS
  1
BODYID
  2
AcAdBodyId
  3
DesignerServices
 90
        0
280
     0
281
     0
  0
CLASS
  1
WORKPLANEDISPLAYMGR
  2
AcAdDisplayMgr
  3
DesignerServices
 90
        0
280
     0
281
     0
  0
CLASS
  1
ADHNTMPLT
  2
AdHoleNoteTemplateMgr
  3
DesignerServices
 90
        0
280
     0
281
     0
  0
CLASS
  1
AM_HNTEMPLATE_MGR_NAME
  2
AdHoleNoteTemplateMgrName
  3
DesignerServices
 90
        0
280
     0
281
     0
  0
CLASS
  1
AcAdGrefModule
  2
AcAdGrefModule
  3
AD_GREF_SERVICES_NSTR
 90
        0
280
     0
281
     0
  0
CLASS
  1
AM_DRAWING_MGR
  2
AcDmDwgMgr
  3
AcMechDwgViewMgmt
 90
        0
280
     0
281
     0
  0
CLASS
  1
AM_DWG_DOCUMENT
  2
AcDmDwgDocument
  3
AcMechDwgViewMgmt
 90
        0
280
     0
281
     0
  0
CLASS
  1
AM_DWG_SHEET
  2
AcDmSheet
  3
AcMechDwgViewMgmt
 90
        0
280
     0
281
     0
  0
CLASS
  1
AM_VIEWDIMPARMAP
  2
AcDmViewDimParMap
  3
AcMechDwgViewMgmt
 90
        0
280
     0
281
     0
  0
CLASS
  1
AM_DWGMGR_NAME
  2
AcDmDwgMgrName
  3
AcMechDwgViewMgmt
 90
        0
280
     0
281
     0
  0
CLASS
  1
ACAMPROJECT
  2
AcAmProject
  3
DesignerAssemblies
 90
        0
280
     0
281
     0
  0
CLASS
  1
ACAMGRCOMPSET
  2
AcAmGrCompSet
  3
DesignerAssemblies
 90
    32768
280
     0
281
     0
  0
CLASS
  1
ACAMGRCOMPDEFSET
  2
AcAmGrCompDefSet
  3
DesignerAssemblies
 90
    32768
280
     0
281
     0
  0
CLASS
  1
ACAMGRCOMPDEF
  2
AcAmGrCompDef
  3
DesignerAssemblies
 90
        0
280
     0
281
     0
  0
CLASS
  1
ACAMCOMPDEF
  2
AcAmCompDef
  3
DesignerAssemblies
 90
        0
280
     0
281
     0
  0
CLASS
  1
ACAMCOMPDEFMGR
  2
AcAmCompDefMgr
  3
DesignerAssemblies
 90
        0
280
     0
281
     0
  0
CLASS
  1
AMCONTEXTMGR
  2
AcAmContextMgr
  3
DesignerAssemblies
 90
        0
280
     0
281
     0
  0
CLASS
  1
ACAMCONTEXTMODELER
  2
AcAmContextModeler
  3
DesignerAssemblies
 90
        0
280
     0
281
     0
  0
CLASS
  1
ACAMDRAWINGMAN
  2
AcAmDrawingMan
  3
DesignerAssemblies
 90
        0
280
     0
281
     0
  0
CLASS
  1
ACDMVIEWGEOM
  2
AcDmViewGeometry
  3
AcMechDwgViewMgmt
 90
    32768
280
     0
281
     1
  0
CLASS
  1
ASSYSVARS
  2
AcAsSysVars
  3
"AutoSurf"
 90
        0
280
     0
281
     0
  0
CLASS
  1
ASSTATICVARS
  2
AcAsStaticVars
  3
"AutoSurf"
 90
    32768
280
     0
281
     0
  0
CLASS
  1
ASAPP
  2
AcAsAppObject
  3
"AutoSurf"
 90
        0
280
     0
281
     0
  0
CLASS
  1
AGDICTIONARY
  2
AgDictionary
  3
"AccelView"
 90
        0
280
     0
281
     0
  0
CLASS
  1
PH_ENTDIMREACTOR
  2
EntDimReactor
  3
PHOENIX7010
 90
        0
280
     0
281
     0
  0
CLASS
  1
PH_DIMENTREACTOR
  2
DimEntReactor
  3
PHOENIX7010
 90
        0
280
     0
281
     0
  0
CLASS
  1
ACDBDICTIONARYWDFLT
  2
AcDbDictionaryWithDefault
  3
ObjectDBX Classes
 90
        0
280
     0
281
     0
  0
CLASS
  1
ACDBPLACEHOLDER
  2
AcDbPlaceHolder
  3
ObjectDBX Classes
 90
        0
280
     0
281
     0
  0
CLASS
  1
LAYOUT
  2
AcDbLayout
  3
ObjectDBX Classes
 90
        0
280
     0
281
     0
  0
CLASS
  1
PH_GROUP
  2
PhGroup
  3
PHOENIX7010
 90
        0
280
     0
281
     0
  0
CLASS
  1
DICTIONARYVAR
  2
AcDbDictionaryVar
  3
ObjectDBX Classes
 90
        0
280
     0
281
     0
  0
CLASS
  1
MATERIAL
  2
AcDbMaterial
  3
ObjectDBX Classes
 90
     1153
280
     0
281
     0
  0
CLASS
  1
VISUALSTYLE
  2
AcDbVisualStyle
  3
ObjectDBX Classes
 90
     4095
280
     0
281
     0
  0
CLASS
  1
TABLESTYLE
  2
AcDbTableStyle
  3
ObjectDBX Classes
 90
     4095
280
     0
281
     0
  0
CLASS
  1
SCALE
  2
AcDbScale
  3
ObjectDBX Classes
 90
     1153
280
     0
281
     0
  0
CLASS
  1
MLEADERSTYLE
  2
AcDbMLeaderStyle
  3
ACDB_MLEADERSTYLE_CLASS
 90
     4095
280
     0
281
     0
  0
CLASS
  1
CELLSTYLEMAP
  2
AcDbCellStyleMap
  3
ObjectDBX Classes
 90
     1152
280
     0
281
     0
  0
ENDSEC
  0
SECTION
  2
TABLES
  0
TABLE
  2
VPORT
  5
8
330
0
100
AcDbSymbolTable
 70
     1
  0
VPORT
  5
1A4F
330
8
100
AcDbSymbolTableRecord
100
AcDbViewportTableRecord
  2
*Active
 70
     0
 10
0.0
 20
0.0
 11
1.0
 21
1.0
 12
210.0000009778888
 22
148.500000691507
 13
0.0
 23
0.0
 14
10.0
 24
10.0
 15
10.0
 25
10.0
 16
0.0
 26
0.0
 36
1.0
 17
0.0
 27
0.0
 37
0.0
 40
297.1027932356981
 41
1.875878220140515
 42
50.0
 43
0.0
 44
0.0
 50
0.0
 51
0.0
 71
     0
 72
   800
 73
     1
 74
     3
 75
     0
 76
     0
 77
     0
 78
     0
281
     0
 65
     1
110
0.0
120
0.0
130
0.0
111
1.0
121
0.0
131
0.0
112
0.0
122
1.0
132
0.0
 79
     0
146
0.0
  0
ENDTAB
  0
TABLE
  2
LTYPE
  5
5
330
0
100
AcDbSymbolTable
 70
     2
  0
LTYPE
  5
14
330
5
100
AcDbSymbolTableRecord
100
AcDbLinetypeTableRecord
  2
BYBLOCK
 70
     0
  3

 72
    65
 73
     0
 40
0.0
  0
LTYPE
  5
15
330
5
100
AcDbSymbolTableRecord
100
AcDbLinetypeTableRecord
  2
BYLAYER
 70
     0
  3

 72
    65
 73
     0
 40
0.0
  0
LTYPE
  5
16
330
5
100
AcDbSymbolTableRecord
100
AcDbLinetypeTableRecord
  2
CONTINUOUS
 70
     0
  3
Solid line
 72
    65
 73
     0
 40
0.0
  0
LTYPE
  5
685
330
5
100
AcDbSymbolTableRecord
100
AcDbLinetypeTableRecord
  2
ACAD_ISO04W100
 70
     0
  3
____ . ____ . ____ . ____ . ____ . ____ . ____ 
 72
    65
 73
     4
 40
30.5
 49
24.0
 74
     0
 49
-3.0
 74
     0
 49
0.5
 74
     0
 49
-3.0
 74
     0
  0
ENDTAB
  0
TABLE
  2
LAYER
  5
2
102
{ACAD_XDICTIONARY
360
3741
102
}
330
0
100
AcDbSymbolTable
 70
     3
  0
LAYER
  5
F
102
{ACAD_XDICTIONARY
360
373A
102
}
330
2
100
AcDbSymbolTableRecord
100
AcDbLayerTableRecord
  2
0
 70
     0
 62
     7
  6
CONTINUOUS
370
    -3
390
A43
  0
LAYER
  5
EB
330
2
100
AcDbSymbolTableRecord
100
AcDbLayerTableRecord
  2
DEFPOINTS
 70
     0
 62
    -7
  6
CONTINUOUS
290
     0
370
    -3
390
A43
  0
LAYER
  5
2026
102
{ACAD_XDICTIONARY
360
373C
102
}
330
2
100
AcDbSymbolTableRecord
100
AcDbLayerTableRecord
  2
PH_HILFSELEMENTE
 70
     0
 62
    -7
  6
CONTINUOUS
370
    -3
390
A43
  0
ENDTAB
  0
TABLE
  2
STYLE
  5
3
330
0
100
AcDbSymbolTable
 70
     2
  0
STYLE
  5
10
330
3
100
AcDbSymbolTableRecord
100
AcDbTextStyleTableRecord
  2
STANDARD
 70
     0
 40
0.0
 41
1.5
 50
0.0
 71
     0
 42
2.5
  3
ISOCP
  4

  0
ENDTAB
  0
TABLE
  2
VIEW
  5
6
330
0
100
AcDbSymbolTable
 70
     0
  0
ENDTAB
  0
TABLE
  2
UCS
  5
7
330
0
100
AcDbSymbolTable
 70
     0
  0
ENDTAB
  0
TABLE
  2
APPID
  5
9
330
0
100
AcDbSymbolTable
 70
     8
  0
APPID
  5
11
330
9
100
AcDbSymbolTableRecord
100
AcDbRegAppTableRecord
  2
ACAD
 70
     0
  0
APPID
  5
32
330
9
100
AcDbSymbolTableRecord
100
AcDbRegAppTableRecord
  2
PHOENIX7010
 70
     0
  0
APPID
  5
B5
330
9
100
AcDbSymbolTableRecord
100
AcDbRegAppTableRecord
  2
AD_DRAW
 70
     0
  0
APPID
  5
CF
330
9
100
AcDbSymbolTableRecord
100
AcDbRegAppTableRecord
  2
DESIGNERASSEMBLIES
 70
     0
  0
APPID
  5
D1
330
9
100
AcDbSymbolTableRecord
100
AcDbRegAppTableRecord
  2
MCAD_NO_VIS
 70
     0
  0
APPID
  5
D7
330
9
100
AcDbSymbolTableRecord
100
AcDbRegAppTableRecord
  2
ASURF_PCURVE_APPNAME
 70
     0
  0
APPID
  5
3859
330
9
100
AcDbSymbolTableRecord
100
AcDbRegAppTableRecord
  2
ACAD_PSEXT
 70
     0
  0
APPID
  5
3897
330
9
100
AcDbSymbolTableRecord
100
AcDbRegAppTableRecord
  2
ACAD_MLEADERVER
 70
     0
  0
ENDTAB
  0
TABLE
  2
DIMSTYLE
  5
A
330
0
100
AcDbSymbolTable
 70
     4
100
AcDbDimStyleTable
 71
     1
340
33
  0
DIMSTYLE
105
1D
330
A
100
AcDbSymbolTableRecord
100
AcDbDimStyleTableRecord
  2
STANDARD
 70
     0
340
10
  0
DIMSTYLE
105
33
102
{ACAD_REACTORS
330
705
330
721
330
73B
330
755
330
76F
330
789
330
7A5
330
7F5
330
80F
330
836
330
1AB3
330
1D6E
102
}
330
A
100
AcDbSymbolTableRecord
100
AcDbDimStyleTableRecord
  2
PHOENIX
 70
     0
  4
"
 41
3.72
 42
0.0
 43
7.0
 44
1.5
 73
     0
 74
     0
 77
     1
 78
     8
140
3.5
141
0.0
143
0.0393700787401575
146
0.6666666666666666
147
2.0
172
     1
173
     1
176
     1
177
     1
178
     5
271
     2
272
     2
284
     8
288
     1
289
     0
340
10
341
35
343
35
344
35
  0
DIMSTYLE
105
1AAC
102
{ACAD_REACTORS
330
3754
102
}
330
A
100
AcDbSymbolTableRecord
100
AcDbDimStyleTableRecord
  2
phoenix$4
 70
     0
  4
"
 41
3.5
 42
0.0
 43
7.0
 44
1.5
 73
     0
 74
     0
 77
     1
 78
     8
 79
     2
140
3.5
141
0.0
143
0.0393700787401575
146
0.6666666666666666
147
2.0
176
     1
177
     1
178
     5
179
     2
271
     2
272
     2
278
    44
284
     8
288
     1
289
     0
340
10
371
    25
372
    25
  0
ENDTAB
  0
TABLE
  2
BLOCK_RECORD
  5
1
330
0
100
AcDbSymbolTable
 70
    26
  0
BLOCK_RECORD
  5
1A
330
1
100
AcDbSymbolTableRecord
100
AcDbBlockTableRecord
  2
*MODEL_SPACE
340
A46
  0
BLOCK_RECORD
  5
17
330
1
100
AcDbSymbolTableRecord
100
AcDbBlockTableRecord
  2
*PAPER_SPACE
340
A47
  0
BLOCK_RECORD
  5
35
330
1
100
AcDbSymbolTableRecord
100
AcDbBlockTableRecord
  2
_OPEN15
340
0
102
{BLKREFS
331
1915
331
1916
331
19E5
331
19E6
331
1A00
331
1A01
331
1A09
331
1A0A
331
1A26
331
1A27
331
1A2F
331
1A30
331
1A38
331
1A39
331
1A41
331
1A42
331
224C
331
224D
331
23D8
331
23D9
331
262A
331
262B
331
2942
331
2943
331
344C
331
344D
331
372E
331
372F
331
3856
102
}
  0
BLOCK_RECORD
  5
C3
330
1
100
AcDbSymbolTableRecord
100
AcDbBlockTableRecord
  2
*U1
340
0
  0
BLOCK_RECORD
  5
706
330
1
100
AcDbSymbolTableRecord
100
AcDbBlockTableRecord
  2
*D2
340
0
  0
BLOCK_RECORD
  5
722
330
1
100
AcDbSymbolTableRecord
100
AcDbBlockTableRecord
  2
*D3
340
0
  0
BLOCK_RECORD
  5
73C
330
1
100
AcDbSymbolTableRecord
100
AcDbBlockTableRecord
  2
*D4
340
0
  0
BLOCK_RECORD
  5
756
330
1
100
AcDbSymbolTableRecord
100
AcDbBlockTableRecord
  2
*D5
340
0
  0
BLOCK_RECORD
  5
770
330
1
100
AcDbSymbolTableRecord
100
AcDbBlockTableRecord
  2
*D6
340
0
  0
BLOCK_RECORD
  5
78A
330
1
100
AcDbSymbolTableRecord
100
AcDbBlockTableRecord
  2
*D7
340
0
  0
BLOCK_RECORD
  5
7A6
330
1
100
AcDbSymbolTableRecord
100
AcDbBlockTableRecord
  2
*D8
340
0
  0
BLOCK_RECORD
  5
7F6
330
1
100
AcDbSymbolTableRecord
100
AcDbBlockTableRecord
  2
*D11
340
0
  0
BLOCK_RECORD
  5
810
330
1
100
AcDbSymbolTableRecord
100
AcDbBlockTableRecord
  2
*D12
340
0
  0
BLOCK_RECORD
  5
837
330
1
100
AcDbSymbolTableRecord
100
AcDbBlockTableRecord
  2
*D13
340
0
  0
BLOCK_RECORD
  5
14A1
330
1
100
AcDbSymbolTableRecord
100
AcDbBlockTableRecord
  2
PH_GRPBLK
340
0
102
{BLKREFS
331
15D2
331
15E5
102
}
  0
BLOCK_RECORD
  5
14A5
330
1
100
AcDbSymbolTableRecord
100
AcDbBlockTableRecord
  2
*X15
340
0
102
{BLKREFS
331
1550
102
}
  0
BLOCK_RECORD
  5
14BE
330
1
100
AcDbSymbolTableRecord
100
AcDbBlockTableRecord
  2
*X16
340
0
102
{BLKREFS
331
154F
102
}
  0
BLOCK_RECORD
  5
14D4
330
1
100
AcDbSymbolTableRecord
100
AcDbBlockTableRecord
  2
*X17
340
0
102
{BLKREFS
331
154B
102
}
  0
BLOCK_RECORD
  5
14E9
330
1
100
AcDbSymbolTableRecord
100
AcDbBlockTableRecord
  2
*X18
340
0
102
{BLKREFS
331
1578
102
}
  0
BLOCK_RECORD
  5
14F8
330
1
100
AcDbSymbolTableRecord
100
AcDbBlockTableRecord
  2
*X19
340
0
102
{BLKREFS
331
1577
102
}
  0
BLOCK_RECORD
  5
150D
330
1
100
AcDbSymbolTableRecord
100
AcDbBlockTableRecord
  2
*X20
340
0
102
{BLKREFS
331
154A
102
}
  0
BLOCK_RECORD
  5
152D
330
1
100
AcDbSymbolTableRecord
100
AcDbBlockTableRecord
  2
*X21
340
0
102
{BLKREFS
331
1572
102
}
  0
BLOCK_RECORD
  5
1AB4
330
1
100
AcDbSymbolTableRecord
100
AcDbBlockTableRecord
  2
*D22
340
0
  0
BLOCK_RECORD
  5
1D6F
330
1
100
AcDbSymbolTableRecord
100
AcDbBlockTableRecord
  2
*D23
340
0
  0
BLOCK_RECORD
  5
3755
330
1
100
AcDbSymbolTableRecord
100
AcDbBlockTableRecord
  2
*D24
340
0
  0
ENDTAB
  0
ENDSEC
  0
SECTION
  2
BLOCKS
  0
BLOCK
  5
1B
330
1A
100
AcDbEntity
  8
0
100
AcDbBlockBegin
  2
*MODEL_SPACE
 70
     0
 10
0.0
 20
0.0
 30
0.0
  3
*MODEL_SPACE
  1

  0
ENDBLK
  5
1C
330
1A
100
AcDbEntity
  8
0
100
AcDbBlockEnd
  0
BLOCK
  5
18
330
17
100
AcDbEntity
 67
     1
  8
0
100
AcDbBlockBegin
  2
*PAPER_SPACE
 70
     0
 10
0.0
 20
0.0
 30
0.0
  3
*PAPER_SPACE
  1

  0
ENDBLK
  5
19
330
17
100
AcDbEntity
 67
     1
  8
0
100
AcDbBlockEnd
  0
BLOCK
  5
39
330
35
100
AcDbEntity
  8
0
 62
     7
100
AcDbBlockBegin
  2
_OPEN15
 70
     0
 10
1.0
 20
0.0
 30
0.0
  3
_OPEN15
  1

  0
LINE
  5
36
330
35
100
AcDbEntity
  8
0
  6
ByBlock
 62
     0
100
AcDbLine
 10
0.0
 20
0.0
 30
0.0
 11
1.0
 21
0.0
 31
0.0
  0
LINE
  5
37
330
35
100
AcDbEntity
  8
0
  6
ByBlock
 62
     0
100
AcDbLine
 10
1.0
 20
0.0
 30
0.0
 11
0.0
 21
0.1316524975873958
 31
0.0
  0
LINE
  5
38
330
35
100
AcDbEntity
  8
0
  6
ByBlock
 62
     0
100
AcDbLine
 10
1.0
 20
0.0
 30
0.0
 11
0.0
 21
-0.1316524975873958
 31
0.0
  0
ENDBLK
  5
3A
330
35
100
AcDbEntity
  8
0
 62
     7
100
AcDbBlockEnd
  0
BLOCK
  5
C4
330
C3
100
AcDbEntity
  8
0
 62
     7
100
AcDbBlockBegin
  2
*U1
 70
     1
 10
0.0
 20
0.0
 30
0.0
  3
*U1
  1

  0
ENDBLK
  5
C5
330
C3
100
AcDbEntity
  8
0
 62
     7
100
AcDbBlockEnd
  0
BLOCK
  5
714
330
706
100
AcDbEntity
  8
0
100
AcDbBlockBegin
  2
*D2
 70
     1
 10
0.0
 20
0.0
 30
0.0
  3
*D2
  1

  0
LINE
  5
1910
330
706
100
AcDbEntity
  8
0
  6
Continuous
 62
     1
370
    -2
100
AcDbLine
 10
144.9228727689768
 20
131.6998154739122
 30
0.0
 11
144.9228727689768
 21
115.9498154739122
 31
0.0
  0
LINE
  5
1911
330
706
100
AcDbEntity
  8
0
  6
Continuous
 62
     1
370
    -2
100
AcDbLine
 10
148.9228727689768
 20
131.6998154739122
 30
0.0
 11
148.9228727689768
 21
115.9498154739122
 31
0.0
  0
LINE
  5
1912
330
706
100
AcDbEntity
  8
0
  6
Continuous
 62
     1
370
    -2
100
AcDbLine
 10
141.2028727689768
 20
117.4498154739123
 30
0.0
 11
137.4828727689768
 21
117.4498154739123
 31
0.0
  0
LINE
  5
1913
330
706
100
AcDbEntity
  8
0
  6
Continuous
 62
     1
370
    -2
100
AcDbLine
 10
152.6428727689768
 20
117.4498154739123
 30
0.0
 11
161.4878727689768
 21
117.4498154739123
 31
0.0
  0
LINE
  5
1914
330
706
100
AcDbEntity
  8
0
  6
Continuous
 62
     1
370
    -2
100
AcDbLine
 10
144.9228727689768
 20
117.4498154739123
 30
0.0
 11
148.9228727689768
 21
117.4498154739123
 31
0.0
  0
INSERT
  5
1915
330
706
100
AcDbEntity
  8
0
  6
Continuous
 62
     1
370
    -2
100
AcDbBlockReference
  2
_OPEN15
 10
144.9228727689768
 20
117.4498154739123
 30
0.0
 41
3.72
 42
3.72
 43
3.72
  0
INSERT
  5
1916
330
706
100
AcDbEntity
  8
0
  6
Continuous
 62
     1
370
    -2
100
AcDbBlockReference
  2
_OPEN15
 10
148.9228727689768
 20
117.4498154739123
 30
0.0
 41
3.72
 42
3.72
 43
3.72
 50
180.0
  0
MTEXT
  5
1917
330
706
100
AcDbEntity
  8
0
  6
Continuous
 62
     5
100
AcDbMText
 10
158.9253727689768
 20
120.4498154739123
 30
0.0
 40
3.5
 41
0.0
 71
     5
 72
     1
  1
\A1;4
 73
     1
 44
1.0
1001
ACAD
1000
MTEXTBEGIN
1070
    73
1070
     1
1070
    44
1040
1.0
1070
    74
1070
     0
1000
MTEXTEND
  0
POINT
  5
1918
330
706
100
AcDbEntity
  8
DEFPOINTS
  6
Continuous
 62
     0
370
    35
100
AcDbPoint
 10
144.9228727689768
 20
131.6998154739122
 30
0.0
  0
POINT
  5
1919
330
706
100
AcDbEntity
  8
DEFPOINTS
  6
Continuous
 62
     0
370
    35
100
AcDbPoint
 10
148.9228727689768
 20
131.6998154739122
 30
0.0
  0
POINT
  5
191A
330
706
100
AcDbEntity
  8
DEFPOINTS
  6
Continuous
 62
     0
370
    35
100
AcDbPoint
 10
148.9228727689768
 20
117.4498154739123
 30
0.0
  0
ENDBLK
  5
720
330
706
100
AcDbEntity
  8
0
100
AcDbBlockEnd
  0
BLOCK
  5
8E9
330
722
100
AcDbEntity
  8
0
100
AcDbBlockBegin
  2
*D3
 70
     1
 10
0.0
 20
0.0
 30
0.0
  3
*D3
  1

  0
LINE
  5
1A3E
330
722
100
AcDbEntity
  8
0
  6
Continuous
 62
     1
370
    -2
100
AcDbLine
 10
146.9228727689768
 20
128.6998154739123
 30
0.0
 11
146.9228727689768
 21
108.9498154739123
 31
0.0
  0
LINE
  5
1A3F
330
722
100
AcDbEntity
  8
0
  6
Continuous
 62
     1
370
    -2
100
AcDbLine
 10
226.1228727689768
 20
128.6998154739123
 30
0.0
 11
226.1228727689768
 21
108.9498154739123
 31
0.0
  0
LINE
  5
1A40
330
722
100
AcDbEntity
  8
0
  6
Continuous
 62
     1
370
    -2
100
AcDbLine
 10
150.6428727689768
 20
110.4498154739123
 30
0.0
 11
222.4028727689769
 21
110.4498154739123
 31
0.0
  0
INSERT
  5
1A41
330
722
100
AcDbEntity
  8
0
  6
Continuous
 62
     1
370
    -2
100
AcDbBlockReference
  2
_OPEN15
 10
146.9228727689768
 20
110.4498154739123
 30
0.0
 41
3.72
 42
3.72
 43
3.72
 50
180.0
  0
INSERT
  5
1A42
330
722
100
AcDbEntity
  8
0
  6
Continuous
 62
     1
370
    -2
100
AcDbBlockReference
  2
_OPEN15
 10
226.1228727689768
 20
110.4498154739123
 30
0.0
 41
3.72
 42
3.72
 43
3.72
  0
MTEXT
  5
1A43
330
722
100
AcDbEntity
  8
0
  6
Continuous
 62
     5
100
AcDbMText
 10
186.5228727689768
 20
113.4510058403857
 30
0.0
 40
3.5
 41
0.0
 71
     5
 72
     1
  1
\A1;79.2
 73
     1
 44
1.0
1001
ACAD
1000
MTEXTBEGIN
1070
    73
1070
     1
1070
    44
1040
1.0
1070
    74
1070
     0
1000
MTEXTEND
  0
POINT
  5
1A44
330
722
100
AcDbEntity
  8
DEFPOINTS
  6
Continuous
 62
     0
370
    35
100
AcDbPoint
 10
146.9228727689768
 20
128.6998154739123
 30
0.0
  0
POINT
  5
1A45
330
722
100
AcDbEntity
  8
DEFPOINTS
  6
Continuous
 62
     0
370
    35
100
AcDbPoint
 10
226.1228727689768
 20
128.6998154739123
 30
0.0
  0
POINT
  5
1A46
330
722
100
AcDbEntity
  8
DEFPOINTS
  6
Continuous
 62
     0
370
    35
100
AcDbPoint
 10
226.1228727689768
 20
110.4498154739123
 30
0.0
  0
ENDBLK
  5
8F3
330
722
100
AcDbEntity
  8
0
100
AcDbBlockEnd
  0
BLOCK
  5
8F7
330
73C
100
AcDbEntity
  8
0
100
AcDbBlockBegin
  2
*D4
 70
     1
 10
0.0
 20
0.0
 30
0.0
  3
*D4
  1

  0
LINE
  5
1A35
330
73C
100
AcDbEntity
  8
0
  6
Continuous
 62
     1
370
    -2
100
AcDbLine
 10
138.2728788689768
 20
128.6998154739123
 30
0.0
 11
138.2728788689768
 21
101.9498154739122
 31
0.0
  0
LINE
  5
1A36
330
73C
100
AcDbEntity
  8
0
  6
Continuous
 62
     1
370
    -2
100
AcDbLine
 10
234.7728666689768
 20
128.6998154739123
 30
0.0
 11
234.7728666689768
 21
101.9498154739122
 31
0.0
  0
LINE
  5
1A37
330
73C
100
AcDbEntity
  8
0
  6
Continuous
 62
     1
370
    -2
100
AcDbLine
 10
141.9928788689768
 20
103.4498154739122
 30
0.0
 11
231.0528666689768
 21
103.4498154739122
 31
0.0
  0
INSERT
  5
1A38
330
73C
100
AcDbEntity
  8
0
  6
Continuous
 62
     1
370
    -2
100
AcDbBlockReference
  2
_OPEN15
 10
138.2728788689768
 20
103.4498154739122
 30
0.0
 41
3.72
 42
3.72
 43
3.72
 50
180.0
  0
INSERT
  5
1A39
330
73C
100
AcDbEntity
  8
0
  6
Continuous
 62
     1
370
    -2
100
AcDbBlockReference
  2
_OPEN15
 10
234.7728666689768
 20
103.4498154739122
 30
0.0
 41
3.72
 42
3.72
 43
3.72
  0
MTEXT
  5
1A3A
330
73C
100
AcDbEntity
  8
0
  6
Continuous
 62
     5
100
AcDbMText
 10
186.5228727689768
 20
106.4498154739123
 30
0.0
 40
3.5
 41
0.0
 71
     5
 72
     1
  1
\A1;96.5
 73
     1
 44
1.0
1001
ACAD
1000
MTEXTBEGIN
1070
    73
1070
     1
1070
    44
1040
1.0
1070
    74
1070
     0
1000
MTEXTEND
  0
POINT
  5
1A3B
330
73C
100
AcDbEntity
  8
DEFPOINTS
  6
Continuous
 62
     0
370
    35
100
AcDbPoint
 10
138.2728788689768
 20
128.6998154739123
 30
0.0
  0
POINT
  5
1A3C
330
73C
100
AcDbEntity
  8
DEFPOINTS
  6
Continuous
 62
     0
370
    35
100
AcDbPoint
 10
234.7728666689768
 20
128.6998154739123
 30
0.0
  0
POINT
  5
1A3D
330
73C
100
AcDbEntity
  8
DEFPOINTS
  6
Continuous
 62
     0
370
    35
100
AcDbPoint
 10
234.7728666689768
 20
103.4498154739122
 30
0.0
  0
ENDBLK
  5
901
330
73C
100
AcDbEntity
  8
0
100
AcDbBlockEnd
  0
BLOCK
  5
905
330
756
100
AcDbEntity
  8
0
100
AcDbBlockBegin
  2
*D5
 70
     1
 10
0.0
 20
0.0
 30
0.0
  3
*D5
  1

  0
LINE
  5
1A2C
330
756
100
AcDbEntity
  8
0
  6
Continuous
 62
     1
370
    -2
100
AcDbLine
 10
135.9228727689768
 20
127.4498154739122
 30
0.0
 11
135.9228727689768
 21
94.94981547391223
 31
0.0
  0
LINE
  5
1A2D
330
756
100
AcDbEntity
  8
0
  6
Continuous
 62
     1
370
    -2
100
AcDbLine
 10
237.1228727689769
 20
127.4498154739122
 30
0.0
 11
237.1228727689769
 21
94.94981547391223
 31
0.0
  0
LINE
  5
1A2E
330
756
100
AcDbEntity
  8
0
  6
Continuous
 62
     1
370
    -2
100
AcDbLine
 10
139.6428727689768
 20
96.44981547391223
 30
0.0
 11
233.4028727689769
 21
96.44981547391223
 31
0.0
  0
INSERT
  5
1A2F
330
756
100
AcDbEntity
  8
0
  6
Continuous
 62
     1
370
    -2
100
AcDbBlockReference
  2
_OPEN15
 10
135.9228727689768
 20
96.44981547391223
 30
0.0
 41
3.72
 42
3.72
 43
3.72
 50
180.0
  0
INSERT
  5
1A30
330
756
100
AcDbEntity
  8
0
  6
Continuous
 62
     1
370
    -2
100
AcDbBlockReference
  2
_OPEN15
 10
237.1228727689769
 20
96.44981547391223
 30
0.0
 41
3.72
 42
3.72
 43
3.72
  0
MTEXT
  5
1A31
330
756
100
AcDbEntity
  8
0
  6
Continuous
 62
     5
100
AcDbMText
 10
186.5228727689768
 20
99.4501599621012
 30
0.0
 40
3.5
 41
0.0
 71
     5
 72
     1
  1
\A1;101.2
 73
     1
 44
1.0
1001
ACAD
1000
MTEXTBEGIN
1070
    73
1070
     1
1070
    44
1040
1.0
1070
    74
1070
     0
1000
MTEXTEND
  0
POINT
  5
1A32
330
756
100
AcDbEntity
  8
DEFPOINTS
  6
Continuous
 62
     0
370
    35
100
AcDbPoint
 10
135.9228727689768
 20
127.4498154739122
 30
0.0
  0
POINT
  5
1A33
330
756
100
AcDbEntity
  8
DEFPOINTS
  6
Continuous
 62
     0
370
    35
100
AcDbPoint
 10
237.1228727689769
 20
127.4498154739122
 30
0.0
  0
POINT
  5
1A34
330
756
100
AcDbEntity
  8
DEFPOINTS
  6
Continuous
 62
     0
370
    35
100
AcDbPoint
 10
237.1228727689769
 20
96.44981547391223
 30
0.0
  0
ENDBLK
  5
90F
330
756
100
AcDbEntity
  8
0
100
AcDbBlockEnd
  0
BLOCK
  5
913
330
770
100
AcDbEntity
  8
0
100
AcDbBlockBegin
  2
*D6
 70
     1
 10
0.0
 20
0.0
 30
0.0
  3
*D6
  1

  0
LINE
  5
1A23
330
770
100
AcDbEntity
  8
0
  6
Continuous
 62
     1
370
    -2
100
AcDbLine
 10
125.9228727689768
 20
155.1998154739123
 30
0.0
 11
125.9228727689768
 21
87.94981547391225
 31
0.0
  0
LINE
  5
1A24
330
770
100
AcDbEntity
  8
0
  6
Continuous
 62
     1
370
    -2
100
AcDbLine
 10
247.1228727689769
 20
155.1998154739123
 30
0.0
 11
247.1228727689769
 21
87.94981547391225
 31
0.0
  0
LINE
  5
1A25
330
770
100
AcDbEntity
  8
0
  6
Continuous
 62
     1
370
    -2
100
AcDbLine
 10
129.6428727689768
 20
89.44981547391225
 30
0.0
 11
243.4028727689768
 21
89.44981547391225
 31
0.0
  0
INSERT
  5
1A26
330
770
100
AcDbEntity
  8
0
  6
Continuous
 62
     1
370
    -2
100
AcDbBlockReference
  2
_OPEN15
 10
125.9228727689768
 20
89.44981547391225
 30
0.0
 41
3.72
 42
3.72
 43
3.72
 50
180.0
  0
INSERT
  5
1A27
330
770
100
AcDbEntity
  8
0
  6
Continuous
 62
     1
370
    -2
100
AcDbBlockReference
  2
_OPEN15
 10
247.1228727689769
 20
89.44981547391225
 30
0.0
 41
3.72
 42
3.72
 43
3.72
  0
MTEXT
  5
1A28
330
770
100
AcDbEntity
  8
0
  6
Continuous
 62
     5
100
AcDbMText
 10
186.5228727689768
 20
92.45015996210122
 30
0.0
 40
3.5
 41
0.0
 71
     5
 72
     1
  1
\A1;121.2
 73
     1
 44
1.0
1001
ACAD
1000
MTEXTBEGIN
1070
    73
1070
     1
1070
    44
1040
1.0
1070
    74
1070
     0
1000
MTEXTEND
  0
POINT
  5
1A29
330
770
100
AcDbEntity
  8
DEFPOINTS
  6
Continuous
 62
     0
370
    35
100
AcDbPoint
 10
125.9228727689768
 20
155.1998154739123
 30
0.0
  0
POINT
  5
1A2A
330
770
100
AcDbEntity
  8
DEFPOINTS
  6
Continuous
 62
     0
370
    35
100
AcDbPoint
 10
247.1228727689769
 20
155.1998154739123
 30
0.0
  0
POINT
  5
1A2B
330
770
100
AcDbEntity
  8
DEFPOINTS
  6
Continuous
 62
     0
370
    35
100
AcDbPoint
 10
247.1228727689769
 20
89.44981547391225
 30
0.0
  0
ENDBLK
  5
91D
330
770
100
AcDbEntity
  8
0
100
AcDbBlockEnd
  0
BLOCK
  5
921
330
78A
100
AcDbEntity
  8
0
100
AcDbBlockBegin
  2
*D7
 70
     1
 10
0.0
 20
0.0
 30
0.0
  3
*D7
  1

  0
LINE
  5
2625
330
78A
100
AcDbEntity
  8
0
  6
Continuous
 62
     1
370
    -2
100
AcDbLine
 10
135.9228727689768
 20
129.6998154739123
 30
0.0
 11
117.4228727689769
 21
129.6998154739123
 31
0.0
  0
LINE
  5
2626
330
78A
100
AcDbEntity
  8
0
  6
Continuous
 62
     1
370
    -2
100
AcDbLine
 10
135.9228727689768
 20
133.6998154739122
 30
0.0
 11
117.4228727689769
 21
133.6998154739122
 31
0.0
  0
LINE
  5
2627
330
78A
100
AcDbEntity
  8
0
  6
Continuous
 62
     1
370
    -2
100
AcDbLine
 10
118.9228727689769
 20
125.9798154739123
 30
0.0
 11
118.9228727689769
 21
122.2598154739123
 31
0.0
  0
LINE
  5
2628
330
78A
100
AcDbEntity
  8
0
  6
Continuous
 62
     1
370
    -2
100
AcDbLine
 10
118.9228727689769
 20
137.4198154739123
 30
0.0
 11
118.9228727689769
 21
146.2648154739123
 31
0.0
  0
LINE
  5
2629
330
78A
100
AcDbEntity
  8
0
  6
Continuous
 62
     1
370
    -2
100
AcDbLine
 10
118.9228727689769
 20
129.6998154739123
 30
0.0
 11
118.9228727689769
 21
133.6998154739122
 31
0.0
  0
INSERT
  5
262A
330
78A
100
AcDbEntity
  8
0
  6
Continuous
 62
     1
370
    -2
100
AcDbBlockReference
  2
_OPEN15
 10
118.9228727689769
 20
129.6998154739123
 30
0.0
 41
3.72
 42
3.72
 43
3.72
 50
90.0
  0
INSERT
  5
262B
330
78A
100
AcDbEntity
  8
0
  6
Continuous
 62
     1
370
    -2
100
AcDbBlockReference
  2
_OPEN15
 10
118.9228727689769
 20
133.6998154739122
 30
0.0
 41
3.72
 42
3.72
 43
3.72
 50
270.0
  0
MTEXT
  5
262C
330
78A
100
AcDbEntity
  8
0
  6
Continuous
 62
     5
100
AcDbMText
 10
115.9228727689769
 20
143.7023154739123
 30
0.0
 40
3.5
 41
0.0
 71
     5
 72
     1
  1
\A1;4
 11
0.0000000000000001
 21
1.0
 31
0.0
 73
     1
 44
1.0
1001
ACAD
1000
MTEXTBEGIN
1070
    73
1070
     1
1070
    44
1040
1.0
1070
    74
1070
     0
1000
MTEXTEND
  0
POINT
  5
262D
330
78A
100
AcDbEntity
  8
DEFPOINTS
  6
Continuous
 62
     0
370
    35
100
AcDbPoint
 10
135.9228727689768
 20
129.6998154739123
 30
0.0
  0
POINT
  5
262E
330
78A
100
AcDbEntity
  8
DEFPOINTS
  6
Continuous
 62
     0
370
    35
100
AcDbPoint
 10
135.9228727689768
 20
133.6998154739122
 30
0.0
  0
POINT
  5
262F
330
78A
100
AcDbEntity
  8
DEFPOINTS
  6
Continuous
 62
     0
370
    35
100
AcDbPoint
 10
118.9228727689769
 20
133.6998154739122
 30
0.0
  0
ENDBLK
  5
92D
330
78A
100
AcDbEntity
  8
0
100
AcDbBlockEnd
  0
BLOCK
  5
931
330
7A6
100
AcDbEntity
  8
0
100
AcDbBlockBegin
  2
*D8
 70
     1
 10
0.0
 20
0.0
 30
0.0
  3
*D8
  1

  0
LINE
  5
293F
330
7A6
100
AcDbEntity
  8
0
  6
Continuous
 62
     1
370
    -2
100
AcDbLine
 10
125.9228727689768
 20
229.1998154739123
 30
0.0
 11
117.4228727689769
 21
229.1998154739123
 31
0.0
  0
LINE
  5
2940
330
7A6
100
AcDbEntity
  8
0
  6
Continuous
 62
     1
370
    -2
100
AcDbLine
 10
135.9228727689768
 20
256.9498154739123
 30
0.0
 11
117.4228727689769
 21
256.9498154739124
 31
0.0
  0
LINE
  5
2941
330
7A6
100
AcDbEntity
  8
0
  6
Continuous
 62
     1
370
    -2
100
AcDbLine
 10
118.9228727689769
 20
232.9198154739123
 30
0.0
 11
118.9228727689769
 21
253.2298154739123
 31
0.0
  0
INSERT
  5
2942
330
7A6
100
AcDbEntity
  8
0
  6
Continuous
 62
     1
370
    -2
100
AcDbBlockReference
  2
_OPEN15
 10
118.9228727689769
 20
229.1998154739123
 30
0.0
 41
3.72
 42
3.72
 43
3.72
 50
270.0
  0
INSERT
  5
2943
330
7A6
100
AcDbEntity
  8
0
  6
Continuous
 62
     1
370
    -2
100
AcDbBlockReference
  2
_OPEN15
 10
118.9228727689769
 20
256.9498154739124
 30
0.0
 41
3.72
 42
3.72
 43
3.72
 50
90.0
  0
MTEXT
  5
2944
330
7A6
100
AcDbEntity
  8
0
  6
Continuous
 62
     5
100
AcDbMText
 10
115.7478727689769
 20
243.0748154739124
 30
0.0
 40
3.5
 41
0.0
 71
     5
 72
     1
  1
\A1;(27.75)
 11
0.0000000000000001
 21
1.0
 31
0.0
 73
     1
 44
1.0
1001
ACAD
1000
MTEXTBEGIN
1070
    73
1070
     1
1070
    44
1040
1.0
1070
    74
1070
     0
1000
MTEXTEND
  0
POINT
  5
2945
330
7A6
100
AcDbEntity
  8
DEFPOINTS
  6
Continuous
 62
     0
370
    35
100
AcDbPoint
 10
125.9228727689768
 20
229.1998154739123
 30
0.0
  0
POINT
  5
2946
330
7A6
100
AcDbEntity
  8
DEFPOINTS
  6
Continuous
 62
     0
370
    35
100
AcDbPoint
 10
135.9228727689768
 20
256.9498154739123
 30
0.0
  0
POINT
  5
2947
330
7A6
100
AcDbEntity
  8
DEFPOINTS
  6
Continuous
 62
     0
370
    35
100
AcDbPoint
 10
118.9228727689769
 20
256.9498154739124
 30
0.0
  0
ENDBLK
  5
93D
330
7A6
100
AcDbEntity
  8
0
100
AcDbBlockEnd
  0
BLOCK
  5
95C
330
7F6
100
AcDbEntity
  8
0
100
AcDbBlockBegin
  2
*D11
 70
     1
 10
0.0
 20
0.0
 30
0.0
  3
*D11
  1

  0
LINE
  5
3449
330
7F6
100
AcDbEntity
  8
0
  6
Continuous
 62
     1
370
    -2
100
AcDbLine
 10
125.9228727689768
 20
192.1998154739123
 30
0.0
 11
109.7106138830661
 21
192.1998154739123
 31
0.0
  0
LINE
  5
344A
330
7F6
100
AcDbEntity
  8
0
  6
Continuous
 62
     1
370
    -2
100
AcDbLine
 10
135.9228727689768
 20
256.9498154739123
 30
0.0
 11
109.7106138830661
 21
256.9498154739124
 31
0.0
  0
LINE
  5
344B
330
7F6
100
AcDbEntity
  8
0
  6
Continuous
 62
     1
370
    -2
100
AcDbLine
 10
111.2106138830661
 20
195.9198154739123
 30
0.0
 11
111.2106138830661
 21
253.2298154739123
 31
0.0
  0
INSERT
  5
344C
330
7F6
100
AcDbEntity
  8
0
  6
Continuous
 62
     1
370
    -2
100
AcDbBlockReference
  2
_OPEN15
 10
111.2106138830661
 20
192.1998154739123
 30
0.0
 41
3.72
 42
3.72
 43
3.72
 50
270.0
  0
INSERT
  5
344D
330
7F6
100
AcDbEntity
  8
0
  6
Continuous
 62
     1
370
    -2
100
AcDbBlockReference
  2
_OPEN15
 10
111.2106138830661
 20
256.9498154739124
 30
0.0
 41
3.72
 42
3.72
 43
3.72
 50
90.0
  0
MTEXT
  5
344E
330
7F6
100
AcDbEntity
  8
0
  6
Continuous
 62
     5
100
AcDbMText
 10
108.2106138830661
 20
224.5748154739124
 30
0.0
 40
3.5
 41
0.0
 71
     5
 72
     1
  1
\A1;64.75
 11
0.0000000000000001
 21
1.0
 31
0.0
 73
     1
 44
1.0
1001
ACAD
1000
MTEXTBEGIN
1070
    73
1070
     1
1070
    44
1040
1.0
1070
    74
1070
     0
1000
MTEXTEND
  0
POINT
  5
344F
330
7F6
100
AcDbEntity
  8
DEFPOINTS
  6
Continuous
 62
     0
370
    35
100
AcDbPoint
 10
125.9228727689768
 20
192.1998154739123
 30
0.0
  0
POINT
  5
3450
330
7F6
100
AcDbEntity
  8
DEFPOINTS
  6
Continuous
 62
     0
370
    35
100
AcDbPoint
 10
135.9228727689768
 20
256.9498154739123
 30
0.0
  0
POINT
  5
3451
330
7F6
100
AcDbEntity
  8
DEFPOINTS
  6
Continuous
 62
     0
370
    35
100
AcDbPoint
 10
111.2106138830661
 20
256.9498154739124
 30
0.0
  0
ENDBLK
  5
966
330
7F6
100
AcDbEntity
  8
0
100
AcDbBlockEnd
  0
BLOCK
  5
96A
330
810
100
AcDbEntity
  8
0
100
AcDbBlockBegin
  2
*D12
 70
     1
 10
0.0
 20
0.0
 30
0.0
  3
*D12
  1

  0
LINE
  5
372B
330
810
100
AcDbEntity
  8
0
  6
Continuous
 62
     1
370
    -2
100
AcDbLine
 10
135.9228727689768
 20
127.4498154739122
 30
0.0
 11
102.4228727689769
 21
127.4498154739122
 31
0.0
  0
LINE
  5
372C
330
810
100
AcDbEntity
  8
0
  6
Continuous
 62
     1
370
    -2
100
AcDbLine
 10
135.9228727689768
 20
256.9498154739123
 30
0.0
 11
102.4228727689769
 21
256.9498154739124
 31
0.0
  0
LINE
  5
372D
330
810
100
AcDbEntity
  8
0
  6
Continuous
 62
     1
370
    -2
100
AcDbLine
 10
103.9228727689769
 20
131.1698154739123
 30
0.0
 11
103.922872768977
 21
253.2298154739123
 31
0.0
  0
INSERT
  5
372E
330
810
100
AcDbEntity
  8
0
  6
Continuous
 62
     1
370
    -2
100
AcDbBlockReference
  2
_OPEN15
 10
103.9228727689769
 20
127.4498154739122
 30
0.0
 41
3.72
 42
3.72
 43
3.72
 50
270.0
  0
INSERT
  5
372F
330
810
100
AcDbEntity
  8
0
  6
Continuous
 62
     1
370
    -2
100
AcDbBlockReference
  2
_OPEN15
 10
103.922872768977
 20
256.9498154739124
 30
0.0
 41
3.72
 42
3.72
 43
3.72
 50
90.0
  0
MTEXT
  5
3730
330
810
100
AcDbEntity
  8
0
  6
Continuous
 62
     5
100
AcDbMText
 10
100.9225282807879
 20
192.1998154739123
 30
0.0
 40
3.5
 41
0.0
 71
     5
 72
     1
  1
\A1;129.5
 11
0.0000000000000001
 21
1.0
 31
0.0
 73
     1
 44
1.0
1001
ACAD
1000
MTEXTBEGIN
1070
    73
1070
     1
1070
    44
1040
1.0
1070
    74
1070
     0
1000
MTEXTEND
  0
POINT
  5
3731
330
810
100
AcDbEntity
  8
DEFPOINTS
  6
Continuous
 62
     0
370
    35
100
AcDbPoint
 10
135.9228727689768
 20
127.4498154739122
 30
0.0
  0
POINT
  5
3732
330
810
100
AcDbEntity
  8
DEFPOINTS
  6
Continuous
 62
     0
370
    35
100
AcDbPoint
 10
135.9228727689768
 20
256.9498154739123
 30
0.0
  0
POINT
  5
3733
330
810
100
AcDbEntity
  8
DEFPOINTS
  6
Continuous
 62
     0
370
    35
100
AcDbPoint
 10
103.922872768977
 20
256.9498154739124
 30
0.0
  0
ENDBLK
  5
974
330
810
100
AcDbEntity
  8
0
100
AcDbBlockEnd
  0
BLOCK
  5
978
330
837
100
AcDbEntity
  8
0
100
AcDbBlockBegin
  2
*D13
 70
     1
 10
0.0
 20
0.0
 30
0.0
  3
*D13
  1

  0
LINE
  5
19E0
330
837
100
AcDbEntity
  8
0
  6
Continuous
 62
     1
370
    -2
100
AcDbLine
 10
301.986195764109
 20
127.4498154739122
 30
0.0
 11
301.986195764109
 21
115.9498154739122
 31
0.0
  0
LINE
  5
19E1
330
837
100
AcDbEntity
  8
0
  6
Continuous
 62
     1
370
    -2
100
AcDbLine
 10
303.986195764109
 20
127.4498154739122
 30
0.0
 11
303.986195764109
 21
115.9498154739122
 31
0.0
  0
LINE
  5
19E2
330
837
100
AcDbEntity
  8
0
  6
Continuous
 62
     1
370
    -2
100
AcDbLine
 10
298.2661957641089
 20
117.4498154739123
 30
0.0
 11
294.546195764109
 21
117.4498154739123
 31
0.0
  0
LINE
  5
19E3
330
837
100
AcDbEntity
  8
0
  6
Continuous
 62
     1
370
    -2
100
AcDbLine
 10
307.706195764109
 20
117.4498154739123
 30
0.0
 11
316.4748227326129
 21
117.4498154739123
 31
0.0
  0
LINE
  5
19E4
330
837
100
AcDbEntity
  8
0
  6
Continuous
 62
     1
370
    -2
100
AcDbLine
 10
301.986195764109
 20
117.4498154739123
 30
0.0
 11
303.986195764109
 21
117.4498154739123
 31
0.0
  0
INSERT
  5
19E5
330
837
100
AcDbEntity
  8
0
  6
Continuous
 62
     1
370
    -2
100
AcDbBlockReference
  2
_OPEN15
 10
301.986195764109
 20
117.4498154739123
 30
0.0
 41
3.72
 42
3.72
 43
3.72
  0
INSERT
  5
19E6
330
837
100
AcDbEntity
  8
0
  6
Continuous
 62
     1
370
    -2
100
AcDbBlockReference
  2
_OPEN15
 10
303.986195764109
 20
117.4498154739123
 30
0.0
 41
3.72
 42
3.72
 43
3.72
 50
180.0
  0
MTEXT
  5
19E7
330
837
100
AcDbEntity
  8
0
  6
Continuous
 62
     5
100
AcDbMText
 10
313.950509248361
 20
120.4501599621012
 30
0.0
 40
3.5
 41
0.0
 71
     5
 72
     1
  1
\A1;2
 73
     1
 44
1.0
1001
ACAD
1000
MTEXTBEGIN
1070
    73
1070
     1
1070
    44
1040
1.0
1070
    74
1070
     0
1000
MTEXTEND
  0
POINT
  5
19E8
330
837
100
AcDbEntity
  8
DEFPOINTS
  6
Continuous
 62
     0
370
    35
100
AcDbPoint
 10
301.986195764109
 20
127.4498154739122
 30
0.0
  0
POINT
  5
19E9
330
837
100
AcDbEntity
  8
DEFPOINTS
  6
Continuous
 62
     0
370
    35
100
AcDbPoint
 10
303.986195764109
 20
127.4498154739122
 30
0.0
  0
POINT
  5
19EA
330
837
100
AcDbEntity
  8
DEFPOINTS
  6
Continuous
 62
     0
370
    35
100
AcDbPoint
 10
303.986195764109
 20
117.4498154739123
 30
0.0
  0
ENDBLK
  5
984
330
837
100
AcDbEntity
  8
0
100
AcDbBlockEnd
  0
BLOCK
  5
14A2
330
14A1
100
AcDbEntity
  8
0
 62
     7
370
    50
100
AcDbBlockBegin
  2
PH_GRPBLK
 70
     0
 10
0.0
 20
0.0
 30
0.0
  3
PH_GRPBLK
  1

  0
POINT
  5
14A3
330
14A1
100
AcDbEntity
  8
DEFPOINTS
  6
Continuous
 62
     0
370
    50
100
AcDbPoint
 10
0.0
 20
0.0
 30
0.0
  0
ENDBLK
  5
14A4
330
14A1
100
AcDbEntity
  8
0
 62
     7
370
    50
100
AcDbBlockEnd
  0
BLOCK
  5
14A6
330
14A5
100
AcDbEntity
  8
0
100
AcDbBlockBegin
  2
*X15
 70
     1
 10
0.0
 20
0.0
 30
0.0
  3
*X15
  1

  0
LINE
  5
14A7
330
14A5
100
AcDbEntity
  8
0
  6
Continuous
 62
     0
100
AcDbLine
 10
282.4946932357234
 20
111.7284055791721
 30
0.0
 11
283.3527822431664
 21
112.5864945866152
 31
0.0
1001
PHOENIX7010
1002
{
1070
    62
1070
     0
1002
}
  0
LINE
  5
14A8
330
14A5
100
AcDbEntity
  8
0
  6
Continuous
 62
     0
100
AcDbLine
 10
283.9748602947132
 20
113.208572638162
 30
0.0
 11
284.3559343555419
 21
113.5896466989906
 31
0.0
1001
PHOENIX7010
1002
{
1070
    62
1070
     0
1002
}
  0
LINE
  5
14A9
330
14A5
100
AcDbEntity
  8
0
  6
Continuous
 62
     0
100
AcDbLine
 10
282.4946932357234
 20
112.0819589697654
 30
0.0
 11
283.0546932357236
 21
112.6419589697656
 31
0.0
1001
PHOENIX7010
1002
{
1070
    62
1070
     0
1002
}
  0
LINE
  5
14AA
330
14A5
100
AcDbEntity
  8
0
  6
Continuous
 62
     0
100
AcDbLine
 10
283.6992288525732
 20
113.2864945866153
 30
0.0
 11
284.106913031348
 21
113.69417876539
 31
0.0
1001
PHOENIX7010
1002
{
1070
    62
1070
     0
1002
}
  0
LINE
  5
14AB
330
14A5
100
AcDbEntity
  8
0
  6
Continuous
 62
     0
100
AcDbLine
 10
282.4946932357234
 20
112.4355123603587
 30
0.0
 11
283.0546932357236
 21
112.9955123603588
 31
0.0
1001
PHOENIX7010
1002
{
1070
    62
1070
     0
1002
}
  0
LINE
  5
14AC
330
14A5
100
AcDbEntity
  8
0
  6
Continuous
 62
     0
100
AcDbLine
 10
283.3456754619799
 20
113.2864945866153
 30
0.0
 11
283.76567546198
 21
113.7064945866153
 31
0.0
1001
PHOENIX7010
1002
{
1070
    62
1070
     0
1002
}
  0
LINE
  5
14AD
330
14A5
100
AcDbEntity
  8
0
  6
Continuous
 62
     0
100
AcDbLine
 10
282.4946932357234
 20
112.789065750952
 30
0.0
 11
283.4121220713867
 21
113.7064945866153
 31
0.0
1001
PHOENIX7010
1002
{
1070
    62
1070
     0
1002
}
  0
LINE
  5
14AE
330
14A5
100
AcDbEntity
  8
0
  6
Continuous
 62
     0
100
AcDbLine
 10
282.4946932357234
 20
113.1426191415453
 30
0.0
 11
283.0585686807935
 21
113.7064945866153
 31
0.0
1001
PHOENIX7010
1002
{
1070
    62
1070
     0
1002
}
  0
LINE
  5
14AF
330
14A5
100
AcDbEntity
  8
0
  6
Continuous
 62
     0
100
AcDbLine
 10
282.4946932357234
 20
113.4961725321385
 30
0.0
 11
282.7050152902002
 21
113.7064945866153
 31
0.0
1001
PHOENIX7010
1002
{
1070
    62
1070
     0
1002
}
  0
LINE
  5
14B0
330
14A5
100
AcDbEntity
  8
0
  6
Continuous
 62
     0
100
AcDbLine
 10
282.4946932357234
 20
111.3748521885789
 30
0.0
 11
283.0546932357236
 21
111.9348521885791
 31
0.0
1001
PHOENIX7010
1002
{
1070
    62
1070
     0
1002
}
  0
LINE
  5
14B1
330
14A5
100
AcDbEntity
  8
0
  6
Continuous
 62
     0
100
AcDbLine
 10
284.1017361611777
 20
112.9818951140332
 30
0.0
 11
284.535449056698
 21
113.4156080095535
 31
0.0
1001
PHOENIX7010
1002
{
1070
    62
1070
     0
1002
}
  0
LINE
  5
14B2
330
14A5
100
AcDbEntity
  8
0
  6
Continuous
 62
     0
100
AcDbLine
 10
283.2863356337597
 20
112.1664945866152
 30
0.0
 11
283.7063356337597
 21
112.5864945866152
 31
0.0
1001
PHOENIX7010
1002
{
1070
    62
1070
     0
1002
}
  0
LINE
  5
14B3
330
14A5
100
AcDbEntity
  8
0
  6
Continuous
 62
     0
100
AcDbLine
 10
282.4946932357234
 20
111.0212987979856
 30
0.0
 11
283.0546932357236
 21
111.5812987979858
 31
0.0
1001
PHOENIX7010
1002
{
1070
    62
1070
     0
1002
}
  0
LINE
  5
14B4
330
14A5
100
AcDbEntity
  8
0
  6
Continuous
 62
     0
100
AcDbLine
 10
283.639889024353
 20
112.1664945866152
 30
0.0
 11
284.646804174416
 21
113.1734097366782
 31
0.0
1001
PHOENIX7010
1002
{
1070
    62
1070
     0
1002
}
  0
LINE
  5
14B5
330
14A5
100
AcDbEntity
  8
0
  6
Continuous
 62
     0
100
AcDbLine
 10
282.7334424149463
 20
110.9064945866153
 30
0.0
 11
283.1534424149463
 21
111.3264945866152
 31
0.0
1001
PHOENIX7010
1002
{
1070
    62
1070
     0
1002
}
  0
LINE
  5
14B6
330
14A5
100
AcDbEntity
  8
0
  6
Continuous
 62
     0
100
AcDbLine
 10
283.9468876177779
 20
112.1199397894469
 30
0.0
 11
284.6396644086484
 21
112.8127165803174
 31
0.0
1001
PHOENIX7010
1002
{
1070
    62
1070
     0
1002
}
  0
LINE
  5
14B7
330
14A5
100
AcDbEntity
  8
0
  6
Continuous
 62
     0
100
AcDbLine
 10
283.0869958055396
 20
110.9064945866153
 30
0.0
 11
283.5069958055395
 21
111.3264945866152
 31
0.0
1001
PHOENIX7010
1002
{
1070
    62
1070
     0
1002
}
  0
LINE
  5
14B8
330
14A5
100
AcDbEntity
  8
0
  6
Continuous
 62
     0
100
AcDbLine
 10
284.1250591509979
 20
111.9445579320736
 30
0.0
 11
284.4382721008005
 21
112.2577708818761
 31
0.0
1001
PHOENIX7010
1002
{
1070
    62
1070
     0
1002
}
  0
LINE
  5
14B9
330
14A5
100
AcDbEntity
  8
0
  6
Continuous
 62
     0
100
AcDbLine
 10
283.4405491961328
 20
110.9064945866153
 30
0.0
 11
283.8795311104497
 21
111.345476500932
 31
0.0
1001
PHOENIX7010
1002
{
1070
    62
1070
     0
1002
}
  0
LINE
  5
14BA
330
14A5
100
AcDbEntity
  8
0
  6
Continuous
 62
     0
100
AcDbLine
 10
284.1557113214067
 20
111.6216567118891
 30
0.0
 11
284.6108504195374
 21
112.0767958100198
 31
0.0
1001
PHOENIX7010
1002
{
1070
    62
1070
     0
1002
}
  0
LINE
  5
14BB
330
14A5
100
AcDbEntity
  8
0
  6
Continuous
 62
     0
100
AcDbLine
 10
283.7941025867261
 20
110.9064945866153
 30
0.0
 11
284.7192140792499
 21
111.831606079139
 31
0.0
1001
PHOENIX7010
1002
{
1070
    62
1070
     0
1002
}
  0
LINE
  5
14BC
330
14A5
100
AcDbEntity
  8
0
  6
Continuous
 62
     0
100
AcDbLine
 10
284.1628821454459
 20
110.9217207547417
 30
0.0
 11
284.7194670675864
 21
111.4783056768823
 31
0.0
1001
PHOENIX7010
1002
{
1070
    62
1070
     0
1002
}
  0
ENDBLK
  5
14BD
330
14A5
100
AcDbEntity
  8
0
100
AcDbBlockEnd
  0
BLOCK
  5
14BF
330
14BE
100
AcDbEntity
  8
0
100
AcDbBlockBegin
  2
*X16
 70
     1
 10
0.0
 20
0.0
 30
0.0
  3
*X16
  1

  0
LINE
  5
14C0
330
14BE
100
AcDbEntity
  8
0
  6
Continuous
 62
     0
100
AcDbLine
 10
286.4180755690154
 20
111.4091472253449
 30
0.0
 11
286.8246968958254
 21
111.8157685521548
 31
0.0
1001
PHOENIX7010
1002
{
1070
    62
1070
     0
1002
}
  0
LINE
  5
14C1
330
14BE
100
AcDbEntity
  8
0
  6
Continuous
 62
     0
100
AcDbLine
 10
288.0298641195678
 20
113.0209357758973
 30
0.0
 11
288.4264971353167
 21
113.4175687916461
 31
0.0
1001
PHOENIX7010
1002
{
1070
    62
1070
     0
1002
}
  0
LINE
  5
14C2
330
14BE
100
AcDbEntity
  8
0
  6
Continuous
 62
     0
100
AcDbLine
 10
286.2903733033842
 20
111.6349983503069
 30
0.0
 11
286.7405137721076
 21
112.0851388190304
 31
0.0
1001
PHOENIX7010
1002
{
1070
    62
1070
     0
1002
}
  0
LINE
  5
14C3
330
14BE
100
AcDbEntity
  8
0
  6
Continuous
 62
     0
100
AcDbLine
 10
287.8098147670356
 20
113.1544398139584
 30
0.0
 11
288.2251944996507
 21
113.5698195465735
 31
0.0
1001
PHOENIX7010
1002
{
1070
    62
1070
     0
1002
}
  0
LINE
  5
14C4
330
14BE
100
AcDbEntity
  8
0
  6
Continuous
 62
     0
100
AcDbLine
 10
286.2038563172894
 20
111.9020347548054
 30
0.0
 11
286.7347193850277
 21
112.4328978225437
 31
0.0
1001
PHOENIX7010
1002
{
1070
    62
1070
     0
1002
}
  0
LINE
  5
14C5
330
14BE
100
AcDbEntity
  8
0
  6
Continuous
 62
     0
100
AcDbLine
 10
287.5122899997951
 20
113.2104684373111
 30
0.0
 11
287.9877928476188
 21
113.6859712851348
 31
0.0
1001
PHOENIX7010
1002
{
1070
    62
1070
     0
1002
}
  0
LINE
  5
14C6
330
14BE
100
AcDbEntity
  8
0
  6
Continuous
 62
     0
100
AcDbLine
 10
286.1746932357235
 20
112.2264250638328
 30
0.0
 11
287.7056902925025
 21
113.7574221206118
 31
0.0
1001
PHOENIX7010
1002
{
1070
    62
1070
     0
1002
}
  0
LINE
  5
14C7
330
14BE
100
AcDbEntity
  8
0
  6
Continuous
 62
     0
100
AcDbLine
 10
286.1846705859144
 20
112.589955804617
 30
0.0
 11
287.3552320177217
 21
113.7605172364243
 31
0.0
1001
PHOENIX7010
1002
{
1070
    62
1070
     0
1002
}
  0
LINE
  5
14C8
330
14BE
100
AcDbEntity
  8
0
  6
Continuous
 62
     0
100
AcDbLine
 10
286.3773430356217
 20
113.1361816449176
 30
0.0
 11
286.8090061774211
 21
113.567844786717
 31
0.0
1001
PHOENIX7010
1002
{
1070
    62
1070
     0
1002
}
  0
LINE
  5
14C9
330
14BE
100
AcDbEntity
  8
0
  6
Continuous
 62
     0
100
AcDbLine
 10
286.5805608267756
 20
111.2180790925118
 30
0.0
 11
286.9765960364702
 21
111.6141143022064
 31
0.0
1001
PHOENIX7010
1002
{
1070
    62
1070
     0
1002
}
  0
LINE
  5
14CA
330
14BE
100
AcDbEntity
  8
0
  6
Continuous
 62
     0
100
AcDbLine
 10
288.1914822124738
 20
112.82900047821
 30
0.0
 11
288.5945285454044
 21
113.2320468111407
 31
0.0
1001
PHOENIX7010
1002
{
1070
    62
1070
     0
1002
}
  0
LINE
  5
14CB
330
14BE
100
AcDbEntity
  8
0
  6
Continuous
 62
     0
100
AcDbLine
 10
286.7762265373858
 20
111.0601914125288
 30
0.0
 11
287.1864225448964
 21
111.4703874200393
 31
0.0
1001
PHOENIX7010
1002
{
1070
    62
1070
     0
1002
}
  0
LINE
  5
14CC
330
14BE
100
AcDbEntity
  8
0
  6
Continuous
 62
     0
100
AcDbLine
 10
288.2889072436896
 20
112.5728721188325
 30
0.0
 11
288.7283168890202
 21
113.0122817641631
 31
0.0
1001
PHOENIX7010
1002
{
1070
    62
1070
     0
1002
}
  0
LINE
  5
14CD
330
14BE
100
AcDbEntity
  8
0
  6
Continuous
 62
     0
100
AcDbLine
 10
287.0072136048211
 20
110.9376250893708
 30
0.0
 11
287.4677405769711
 21
111.3981520615207
 31
0.0
1001
PHOENIX7010
1002
{
1070
    62
1070
     0
1002
}
  0
LINE
  5
14CE
330
14BE
100
AcDbEntity
  8
0
  6
Continuous
 62
     0
100
AcDbLine
 10
288.3026932357233
 20
112.2331047202729
 30
0.0
 11
288.8224619461013
 21
112.7528734306509
 31
0.0
1001
PHOENIX7010
1002
{
1070
    62
1070
     0
1002
}
  0
LINE
  5
14CF
330
14BE
100
AcDbEntity
  8
0
  6
Continuous
 62
     0
100
AcDbLine
 10
287.2808492022236
 20
110.8577072961799
 30
0.0
 11
287.9469171845201
 21
111.5237752784765
 31
0.0
1001
PHOENIX7010
1002
{
1070
    62
1070
     0
1002
}
  0
LINE
  5
14D0
330
14BE
100
AcDbEntity
  8
0
  6
Continuous
 62
     0
100
AcDbLine
 10
288.1754125438622
 20
111.7522706378186
 30
0.0
 11
288.8626304209453
 21
112.4394885149017
 31
0.0
1001
PHOENIX7010
1002
{
1070
    62
1070
     0
1002
}
  0
LINE
  5
14D1
330
14BE
100
AcDbEntity
  8
0
  6
Continuous
 62
     0
100
AcDbLine
 10
287.6167734270417
 20
110.8400781304048
 30
0.0
 11
288.859109691934
 21
112.082414395297
 31
0.0
1001
PHOENIX7010
1002
{
1070
    62
1070
     0
1002
}
  0
LINE
  5
14D2
330
14BE
100
AcDbEntity
  8
0
  6
Continuous
 62
     0
100
AcDbLine
 10
288.0980051902905
 20
110.9677565030603
 30
0.0
 11
288.7314313192785
 21
111.6011826320483
 31
0.0
1001
PHOENIX7010
1002
{
1070
    62
1070
     0
1002
}
  0
ENDBLK
  5
14D3
330
14BE
100
AcDbEntity
  8
0
100
AcDbBlockEnd
  0
BLOCK
  5
14D5
330
14D4
100
AcDbEntity
  8
0
100
AcDbBlockBegin
  2
*X17
 70
     1
 10
0.0
 20
0.0
 30
0.0
  3
*X17
  1

  0
LINE
  5
14D6
330
14D4
100
AcDbEntity
  8
0
  6
Continuous
 62
     0
100
AcDbLine
 10
290.3746932357234
 20
111.8302309861201
 30
0.0
 11
290.9346932357234
 21
112.3902309861202
 31
0.0
1001
PHOENIX7010
1002
{
1070
    62
1070
     0
1002
}
  0
LINE
  5
14D7
330
14D4
100
AcDbEntity
  8
0
  6
Continuous
 62
     0
100
AcDbLine
 10
291.726768423543
 20
113.1823061739397
 30
0.0
 11
292.0864933292313
 21
113.5420310796281
 31
0.0
1001
PHOENIX7010
1002
{
1070
    62
1070
     0
1002
}
  0
LINE
  5
14D8
330
14D4
100
AcDbEntity
  8
0
  6
Continuous
 62
     0
100
AcDbLine
 10
290.3746932357234
 20
112.1837843767134
 30
0.0
 11
290.9346932357234
 21
112.7437843767134
 31
0.0
1001
PHOENIX7010
1002
{
1070
    62
1070
     0
1002
}
  0
LINE
  5
14D9
330
14D4
100
AcDbEntity
  8
0
  6
Continuous
 62
     0
100
AcDbLine
 10
291.4748315430401
 20
113.28392268403
 30
0.0
 11
291.8511432237688
 21
113.6602343647588
 31
0.0
1001
PHOENIX7010
1002
{
1070
    62
1070
     0
1002
}
  0
LINE
  5
14DA
330
14D4
100
AcDbEntity
  8
0
  6
Continuous
 62
     0
100
AcDbLine
 10
290.3746932357234
 20
112.5373377673066
 30
0.0
 11
290.9346932357234
 21
113.0973377673067
 31
0.0
1001
PHOENIX7010
1002
{
1070
    62
1070
     0
1002
}
  0
LINE
  5
14DB
330
14D4
100
AcDbEntity
  8
0
  6
Continuous
 62
     0
100
AcDbLine
 10
291.123850055032
 20
113.2864945866153
 30
0.0
 11
291.543850055032
 21
113.7064945866153
 31
0.0
1001
PHOENIX7010
1002
{
1070
    62
1070
     0
1002
}
  0
LINE
  5
14DC
330
14D4
100
AcDbEntity
  8
0
  6
Continuous
 62
     0
100
AcDbLine
 10
290.3746932357234
 20
112.8908911578999
 30
0.0
 11
291.1902966644388
 21
113.7064945866153
 31
0.0
1001
PHOENIX7010
1002
{
1070
    62
1070
     0
1002
}
  0
LINE
  5
14DD
330
14D4
100
AcDbEntity
  8
0
  6
Continuous
 62
     0
100
AcDbLine
 10
290.3746932357234
 20
113.2444445484932
 30
0.0
 11
290.8367432738454
 21
113.7064945866153
 31
0.0
1001
PHOENIX7010
1002
{
1070
    62
1070
     0
1002
}
  0
LINE
  5
14DE
330
14D4
100
AcDbEntity
  8
0
  6
Continuous
 62
     0
100
AcDbLine
 10
290.3746932357234
 20
113.5979979390865
 30
0.0
 11
290.4831898832522
 21
113.7064945866153
 31
0.0
1001
PHOENIX7010
1002
{
1070
    62
1070
     0
1002
}
  0
LINE
  5
14DF
330
14D4
100
AcDbEntity
  8
0
  6
Continuous
 62
     0
100
AcDbLine
 10
290.3746932357234
 20
111.4766775955269
 30
0.0
 11
291.2045102268118
 21
112.3064945866152
 31
0.0
1001
PHOENIX7010
1002
{
1070
    62
1070
     0
1002
}
  0
LINE
  5
14E0
330
14D4
100
AcDbEntity
  8
0
  6
Continuous
 62
     0
100
AcDbLine
 10
291.8787407258061
 20
112.9807250856095
 30
0.0
 11
292.2697867726467
 21
113.3717711324501
 31
0.0
1001
PHOENIX7010
1002
{
1070
    62
1070
     0
1002
}
  0
LINE
  5
14E1
330
14D4
100
AcDbEntity
  8
0
  6
Continuous
 62
     0
100
AcDbLine
 10
290.3746932357234
 20
111.1231242049336
 30
0.0
 11
290.9346932357234
 21
111.6831242049336
 31
0.0
1001
PHOENIX7010
1002
{
1070
    62
1070
     0
1002
}
  0
LINE
  5
14E2
330
14D4
100
AcDbEntity
  8
0
  6
Continuous
 62
     0
100
AcDbLine
 10
291.8877136234469
 20
112.6361445926571
 30
0.0
 11
292.4027325734666
 21
113.1511635426767
 31
0.0
1001
PHOENIX7010
1002
{
1070
    62
1070
     0
1002
}
  0
LINE
  5
14E3
330
14D4
100
AcDbEntity
  8
0
  6
Continuous
 62
     0
100
AcDbLine
 10
291.1380636174051
 20
111.8864945866153
 30
0.0
 11
291.5850432296815
 21
112.3334741988917
 31
0.0
1001
PHOENIX7010
1002
{
1070
    62
1070
     0
1002
}
  0
LINE
  5
14E4
330
14D4
100
AcDbEntity
  8
0
  6
Continuous
 62
     0
100
AcDbLine
 10
290.5116170079983
 20
110.9064945866153
 30
0.0
 11
290.9346932357234
 21
111.3295708143404
 31
0.0
1001
PHOENIX7010
1002
{
1070
    62
1070
     0
1002
}
  0
LINE
  5
14E5
330
14D4
100
AcDbEntity
  8
0
  6
Continuous
 62
     0
100
AcDbLine
 10
291.4916170079983
 20
111.8864945866153
 30
0.0
 11
292.4719696570883
 21
112.8668472357052
 31
0.0
1001
PHOENIX7010
1002
{
1070
    62
1070
     0
1002
}
  0
LINE
  5
14E6
330
14D4
100
AcDbEntity
  8
0
  6
Continuous
 62
     0
100
AcDbLine
 10
290.8651703985916
 20
110.9064945866153
 30
0.0
 11
290.9346932357234
 21
110.9760174237471
 31
0.0
1001
PHOENIX7010
1002
{
1070
    62
1070
     0
1002
}
  0
LINE
  5
14E7
330
14D4
100
AcDbEntity
  8
0
  6
Continuous
 62
     0
100
AcDbLine
 10
291.9155120324188
 20
111.9568362204425
 30
0.0
 11
292.4043516018961
 21
112.4456757899198
 31
0.0
1001
PHOENIX7010
1002
{
1070
    62
1070
     0
1002
}
  0
ENDBLK
  5
14E8
330
14D4
100
AcDbEntity
  8
0
100
AcDbBlockEnd
  0
BLOCK
  5
14EA
330
14E9
100
AcDbEntity
  8
0
100
AcDbBlockBegin
  2
*X18
 70
     1
 10
0.0
 20
0.0
 30
0.0
  3
*X18
  1

  0
LINE
  5
14EB
330
14E9
100
AcDbEntity
  8
0
  6
Continuous
 62
     0
100
AcDbLine
 10
293.7746932357234
 20
111.6946970801874
 30
0.0
 11
294.3346932357234
 21
112.2546970801874
 31
0.0
1001
PHOENIX7010
1002
{
1070
    62
1070
     0
1002
}
  0
LINE
  5
14EC
330
14E9
100
AcDbEntity
  8
0
  6
Continuous
 62
     0
100
AcDbLine
 10
293.7746932357234
 20
112.0482504707806
 30
0.0
 11
294.3346932357234
 21
112.6082504707807
 31
0.0
1001
PHOENIX7010
1002
{
1070
    62
1070
     0
1002
}
  0
LINE
  5
14ED
330
14E9
100
AcDbEntity
  8
0
  6
Continuous
 62
     0
100
AcDbLine
 10
293.7746932357234
 20
112.4018038613739
 30
0.0
 11
294.3346932357234
 21
112.961803861374
 31
0.0
1001
PHOENIX7010
1002
{
1070
    62
1070
     0
1002
}
  0
LINE
  5
14EE
330
14E9
100
AcDbEntity
  8
0
  6
Continuous
 62
     0
100
AcDbLine
 10
293.7746932357234
 20
112.7553572519672
 30
0.0
 11
294.3346932357234
 21
113.3153572519673
 31
0.0
1001
PHOENIX7010
1002
{
1070
    62
1070
     0
1002
}
  0
LINE
  5
14EF
330
14E9
100
AcDbEntity
  8
0
  6
Continuous
 62
     0
100
AcDbLine
 10
293.7746932357234
 20
113.1089106425605
 30
0.0
 11
294.3346932357234
 21
113.6689106425605
 31
0.0
1001
PHOENIX7010
1002
{
1070
    62
1070
     0
1002
}
  0
LINE
  5
14F0
330
14E9
100
AcDbEntity
  8
0
  6
Continuous
 62
     0
100
AcDbLine
 10
293.7746932357234
 20
113.4624640331537
 30
0.0
 11
294.018723789185
 21
113.7064945866153
 31
0.0
1001
PHOENIX7010
1002
{
1070
    62
1070
     0
1002
}
  0
LINE
  5
14F1
330
14E9
100
AcDbEntity
  8
0
  6
Continuous
 62
     0
100
AcDbLine
 10
293.7746932357234
 20
111.3411436895941
 30
0.0
 11
294.3346932357234
 21
111.9011436895942
 31
0.0
1001
PHOENIX7010
1002
{
1070
    62
1070
     0
1002
}
  0
LINE
  5
14F2
330
14E9
100
AcDbEntity
  8
0
  6
Continuous
 62
     0
100
AcDbLine
 10
293.7746932357234
 20
110.9875902990008
 30
0.0
 11
294.3346932357234
 21
111.5475902990009
 31
0.0
1001
PHOENIX7010
1002
{
1070
    62
1070
     0
1002
}
  0
LINE
  5
14F3
330
14E9
100
AcDbEntity
  8
0
  6
Continuous
 62
     0
100
AcDbLine
 10
294.0471509139311
 20
110.9064945866153
 30
0.0
 11
294.4671509139311
 21
111.3264945866152
 31
0.0
1001
PHOENIX7010
1002
{
1070
    62
1070
     0
1002
}
  0
LINE
  5
14F4
330
14E9
100
AcDbEntity
  8
0
  6
Continuous
 62
     0
100
AcDbLine
 10
294.4007043045243
 20
110.9064945866153
 30
0.0
 11
294.8207043045243
 21
111.3264945866152
 31
0.0
1001
PHOENIX7010
1002
{
1070
    62
1070
     0
1002
}
  0
LINE
  5
14F5
330
14E9
100
AcDbEntity
  8
0
  6
Continuous
 62
     0
100
AcDbLine
 10
294.7542576951176
 20
110.9064945866153
 30
0.0
 11
295.1742576951176
 21
111.3264945866152
 31
0.0
1001
PHOENIX7010
1002
{
1070
    62
1070
     0
1002
}
  0
LINE
  5
14F6
330
14E9
100
AcDbEntity
  8
0
  6
Continuous
 62
     0
100
AcDbLine
 10
295.1078110857109
 20
110.9064945866153
 30
0.0
 11
295.3746932357234
 21
111.1733767366277
 31
0.0
1001
PHOENIX7010
1002
{
1070
    62
1070
     0
1002
}
  0
ENDBLK
  5
14F7
330
14E9
100
AcDbEntity
  8
0
100
AcDbBlockEnd
  0
BLOCK
  5
14F9
330
14F8
100
AcDbEntity
  8
0
100
AcDbBlockBegin
  2
*X19
 70
     1
 10
0.0
 20
0.0
 30
0.0
  3
*X19
  1

  0
LINE
  5
14FA
330
14F8
100
AcDbEntity
  8
0
  6
Continuous
 62
     0
100
AcDbLine
 10
296.4857358393871
 20
111.2237591685116
 30
0.0
 11
297.2852450968609
 21
112.0232684259854
 31
0.0
1001
PHOENIX7010
1002
{
1070
    62
1070
     0
1002
}
  0
LINE
  5
14FB
330
14F8
100
AcDbEntity
  8
0
  6
Continuous
 62
     0
100
AcDbLine
 10
297.8183015798716
 20
112.5563249089962
 30
0.0
 11
298.1878949450705
 21
112.925918274195
 31
0.0
1001
PHOENIX7010
1002
{
1070
    62
1070
     0
1002
}
  0
LINE
  5
14FC
330
14F8
100
AcDbEntity
  8
0
  6
Continuous
 62
     0
100
AcDbLine
 10
296.6761107420142
 20
111.767687461732
 30
0.0
 11
297.444914370032
 21
112.5364910897498
 31
0.0
1001
PHOENIX7010
1002
{
1070
    62
1070
     0
1002
}
  0
LINE
  5
14FD
330
14F8
100
AcDbEntity
  8
0
  6
Continuous
 62
     0
100
AcDbLine
 10
297.7344075549851
 20
112.8259842747029
 30
0.0
 11
298.0962329549167
 21
113.1878096746345
 31
0.0
1001
PHOENIX7010
1002
{
1070
    62
1070
     0
1002
}
  0
LINE
  5
14FE
330
14F8
100
AcDbEntity
  8
0
  6
Continuous
 62
     0
100
AcDbLine
 10
296.8664856446413
 20
112.3116157549524
 30
0.0
 11
297.6045836432032
 21
113.0497137535143
 31
0.0
1001
PHOENIX7010
1002
{
1070
    62
1070
     0
1002
}
  0
LINE
  5
14FF
330
14F8
100
AcDbEntity
  8
0
  6
Continuous
 62
     0
100
AcDbLine
 10
297.6505135300986
 20
113.0956436404096
 30
0.0
 11
298.0045709647629
 21
113.4497010750739
 31
0.0
1001
PHOENIX7010
1002
{
1070
    62
1070
     0
1002
}
  0
LINE
  5
1500
330
14F8
100
AcDbEntity
  8
0
  6
Continuous
 62
     0
100
AcDbLine
 10
297.0568605472684
 20
112.8555440481728
 30
0.0
 11
297.9078110857109
 21
113.7064945866153
 31
0.0
1001
PHOENIX7010
1002
{
1070
    62
1070
     0
1002
}
  0
LINE
  5
1501
330
14F8
100
AcDbEntity
  8
0
  6
Continuous
 62
     0
100
AcDbLine
 10
297.2472354498956
 20
113.3994723413932
 30
0.0
 11
297.5542576951177
 21
113.7064945866153
 31
0.0
1001
PHOENIX7010
1002
{
1070
    62
1070
     0
1002
}
  0
LINE
  5
1502
330
14F8
100
AcDbEntity
  8
0
  6
Continuous
 62
     0
100
AcDbLine
 10
296.522024648084
 20
110.9064945866153
 30
0.0
 11
297.502024648084
 21
111.8864945866153
 31
0.0
1001
PHOENIX7010
1002
{
1070
    62
1070
     0
1002
}
  0
LINE
  5
1503
330
14F8
100
AcDbEntity
  8
0
  6
Continuous
 62
     0
100
AcDbLine
 10
297.9021956047581
 20
112.2866655432894
 30
0.0
 11
298.2795569352243
 21
112.6640268737556
 31
0.0
1001
PHOENIX7010
1002
{
1070
    62
1070
     0
1002
}
  0
LINE
  5
1504
330
14F8
100
AcDbEntity
  8
0
  6
Continuous
 62
     0
100
AcDbLine
 10
296.8755780386772
 20
110.9064945866153
 30
0.0
 11
296.9600283201717
 21
110.9909448681097
 31
0.0
1001
PHOENIX7010
1002
{
1070
    62
1070
     0
1002
}
  0
LINE
  5
1505
330
14F8
100
AcDbEntity
  8
0
  6
Continuous
 62
     0
100
AcDbLine
 10
297.9860896296447
 20
112.0170061775827
 30
0.0
 11
298.3712189253781
 21
112.4021354733161
 31
0.0
1001
PHOENIX7010
1002
{
1070
    62
1070
     0
1002
}
  0
LINE
  5
1506
330
14F8
100
AcDbEntity
  8
0
  6
Continuous
 62
     0
100
AcDbLine
 10
297.4355780386773
 20
111.4664945866153
 30
0.0
 11
297.8555780386773
 21
111.8864945866153
 31
0.0
1001
PHOENIX7010
1002
{
1070
    62
1070
     0
1002
}
  0
LINE
  5
1507
330
14F8
100
AcDbEntity
  8
0
  6
Continuous
 62
     0
100
AcDbLine
 10
297.7891314292706
 20
111.4664945866153
 30
0.0
 11
298.462880915532
 21
112.1402440728767
 31
0.0
1001
PHOENIX7010
1002
{
1070
    62
1070
     0
1002
}
  0
LINE
  5
1508
330
14F8
100
AcDbEntity
  8
0
  6
Continuous
 62
     0
100
AcDbLine
 10
298.1426848198639
 20
111.4664945866153
 30
0.0
 11
298.5545429056858
 21
111.8783526724372
 31
0.0
1001
PHOENIX7010
1002
{
1070
    62
1070
     0
1002
}
  0
LINE
  5
1509
330
14F8
100
AcDbEntity
  8
0
  6
Continuous
 62
     0
100
AcDbLine
 10
298.2427420760465
 20
111.2129984522047
 30
0.0
 11
298.6462048958396
 21
111.6164612719978
 31
0.0
1001
PHOENIX7010
1002
{
1070
    62
1070
     0
1002
}
  0
LINE
  5
150A
330
14F8
100
AcDbEntity
  8
0
  6
Continuous
 62
     0
100
AcDbLine
 10
298.3243313200296
 20
110.9410343055945
 30
0.0
 11
298.7378668859934
 21
111.3545698715583
 31
0.0
1001
PHOENIX7010
1002
{
1070
    62
1070
     0
1002
}
  0
LINE
  5
150B
330
14F8
100
AcDbEntity
  8
0
  6
Continuous
 62
     0
100
AcDbLine
 10
298.6433449916436
 20
110.9064945866153
 30
0.0
 11
298.8295288761472
 21
111.0926784711189
 31
0.0
1001
PHOENIX7010
1002
{
1070
    62
1070
     0
1002
}
  0
ENDBLK
  5
150C
330
14F8
100
AcDbEntity
  8
0
100
AcDbBlockEnd
  0
BLOCK
  5
150E
330
150D
100
AcDbEntity
  8
0
100
AcDbBlockBegin
  2
*X20
 70
     1
 10
0.0
 20
0.0
 30
0.0
  3
*X20
  1

  0
LINE
  5
150F
330
150D
100
AcDbEntity
  8
0
  6
Continuous
 62
     0
100
AcDbLine
 10
291.3519597897655
 20
115.4168945866153
 30
0.0
 11
294.3546932357233
 21
118.9954129584383
 31
0.0
1001
PHOENIX7010
1002
{
1070
    62
1070
     0
1002
}
  0
LINE
  5
1510
330
150D
100
AcDbEntity
  8
0
  6
Continuous
 62
     0
100
AcDbLine
 10
291.0256079674324
 20
115.4168945866153
 30
0.0
 11
294.3546932357233
 21
119.3843439151534
 31
0.0
1001
PHOENIX7010
1002
{
1070
    62
1070
     0
1002
}
  0
LINE
  5
1511
330
150D
100
AcDbEntity
  8
0
  6
Continuous
 62
     0
100
AcDbLine
 10
290.6992561450993
 20
115.4168945866153
 30
0.0
 11
294.3546932357233
 21
119.7732748718685
 31
0.0
1001
PHOENIX7010
1002
{
1070
    62
1070
     0
1002
}
  0
LINE
  5
1512
330
150D
100
AcDbEntity
  8
0
  6
Continuous
 62
     0
100
AcDbLine
 10
290.3729043227662
 20
115.4168945866153
 30
0.0
 11
294.3546932357233
 21
120.1622058285836
 31
0.0
1001
PHOENIX7010
1002
{
1070
    62
1070
     0
1002
}
  0
LINE
  5
1513
330
150D
100
AcDbEntity
  8
0
  6
Continuous
 62
     0
100
AcDbLine
 10
290.0465525004332
 20
115.4168945866153
 30
0.0
 11
294.3546932357233
 21
120.5511367852987
 31
0.0
1001
PHOENIX7010
1002
{
1070
    62
1070
     0
1002
}
  0
LINE
  5
1514
330
150D
100
AcDbEntity
  8
0
  6
Continuous
 62
     0
100
AcDbLine
 10
289.7202006781001
 20
115.4168945866153
 30
0.0
 11
294.3546932357233
 21
120.9400677420138
 31
0.0
1001
PHOENIX7010
1002
{
1070
    62
1070
     0
1002
}
  0
LINE
  5
1515
330
150D
100
AcDbEntity
  8
0
  6
Continuous
 62
     0
100
AcDbLine
 10
289.393848855767
 20
115.4168945866153
 30
0.0
 11
294.3546932357233
 21
121.3289986987289
 31
0.0
1001
PHOENIX7010
1002
{
1070
    62
1070
     0
1002
}
  0
LINE
  5
1516
330
150D
100
AcDbEntity
  8
0
  6
Continuous
 62
     0
100
AcDbLine
 10
291.6783116120985
 20
115.4168945866153
 30
0.0
 11
294.3546932357233
 21
118.6064820017232
 31
0.0
1001
PHOENIX7010
1002
{
1070
    62
1070
     0
1002
}
  0
LINE
  5
1517
330
150D
100
AcDbEntity
  8
0
  6
Continuous
 62
     0
100
AcDbLine
 10
292.0046634344316
 20
115.4168945866153
 30
0.0
 11
294.3546932357233
 21
118.2175510450081
 31
0.0
1001
PHOENIX7010
1002
{
1070
    62
1070
     0
1002
}
  0
LINE
  5
1518
330
150D
100
AcDbEntity
  8
0
  6
Continuous
 62
     0
100
AcDbLine
 10
292.3310152567647
 20
115.4168945866153
 30
0.0
 11
294.3546932357233
 21
117.828620088293
 31
0.0
1001
PHOENIX7010
1002
{
1070
    62
1070
     0
1002
}
  0
LINE
  5
1519
330
150D
100
AcDbEntity
  8
0
  6
Continuous
 62
     0
100
AcDbLine
 10
292.6573670790978
 20
115.4168945866153
 30
0.0
 11
294.3546932357233
 21
117.4396891315778
 31
0.0
1001
PHOENIX7010
1002
{
1070
    62
1070
     0
1002
}
  0
LINE
  5
151A
330
150D
100
AcDbEntity
  8
0
  6
Continuous
 62
     0
100
AcDbLine
 10
292.9837189014308
 20
115.4168945866153
 30
0.0
 11
294.3546932357233
 21
117.0507581748628
 31
0.0
1001
PHOENIX7010
1002
{
1070
    62
1070
     0
1002
}
  0
LINE
  5
151B
330
150D
100
AcDbEntity
  8
0
  6
Continuous
 62
     0
100
AcDbLine
 10
293.3100707237638
 20
115.4168945866153
 30
0.0
 11
294.3546932357233
 21
116.6618272181477
 31
0.0
1001
PHOENIX7010
1002
{
1070
    62
1070
     0
1002
}
  0
LINE
  5
151C
330
150D
100
AcDbEntity
  8
0
  6
Continuous
 62
     0
100
AcDbLine
 10
293.6364225460969
 20
115.4168945866153
 30
0.0
 11
294.3546932357233
 21
116.2728962614326
 31
0.0
1001
PHOENIX7010
1002
{
1070
    62
1070
     0
1002
}
  0
LINE
  5
151D
330
150D
100
AcDbEntity
  8
0
  6
Continuous
 62
     0
100
AcDbLine
 10
293.96277436843
 20
115.4168945866153
 30
0.0
 11
298.7842932357234
 21
121.1629570184728
 31
0.0
1001
PHOENIX7010
1002
{
1070
    62
1070
     0
1002
}
  0
LINE
  5
151E
330
150D
100
AcDbEntity
  8
0
  6
Continuous
 62
     0
100
AcDbLine
 10
294.2891261907631
 20
115.4168945866153
 30
0.0
 11
298.7842932357234
 21
120.7740260617577
 31
0.0
1001
PHOENIX7010
1002
{
1070
    62
1070
     0
1002
}
  0
LINE
  5
151F
330
150D
100
AcDbEntity
  8
0
  6
Continuous
 62
     0
100
AcDbLine
 10
294.6154780130962
 20
115.4168945866153
 30
0.0
 11
298.7842932357234
 21
120.3850951050426
 31
0.0
1001
PHOENIX7010
1002
{
1070
    62
1070
     0
1002
}
  0
LINE
  5
1520
330
150D
100
AcDbEntity
  8
0
  6
Continuous
 62
     0
100
AcDbLine
 10
294.9418298354292
 20
115.4168945866153
 30
0.0
 11
298.7842932357234
 21
119.9961641483275
 31
0.0
1001
PHOENIX7010
1002
{
1070
    62
1070
     0
1002
}
  0
LINE
  5
1521
330
150D
100
AcDbEntity
  8
0
  6
Continuous
 62
     0
100
AcDbLine
 10
295.2681816577623
 20
115.4168945866153
 30
0.0
 11
298.7842932357234
 21
119.6072331916124
 31
0.0
1001
PHOENIX7010
1002
{
1070
    62
1070
     0
1002
}
  0
LINE
  5
1522
330
150D
100
AcDbEntity
  8
0
  6
Continuous
 62
     0
100
AcDbLine
 10
295.5945334800953
 20
115.4168945866153
 30
0.0
 11
298.7842932357234
 21
119.2183022348973
 31
0.0
1001
PHOENIX7010
1002
{
1070
    62
1070
     0
1002
}
  0
LINE
  5
1523
330
150D
100
AcDbEntity
  8
0
  6
Continuous
 62
     0
100
AcDbLine
 10
295.9208853024285
 20
115.4168945866153
 30
0.0
 11
298.7842932357234
 21
118.8293712781822
 31
0.0
1001
PHOENIX7010
1002
{
1070
    62
1070
     0
1002
}
  0
LINE
  5
1524
330
150D
100
AcDbEntity
  8
0
  6
Continuous
 62
     0
100
AcDbLine
 10
296.2472371247615
 20
115.4168945866153
 30
0.0
 11
298.7842932357234
 21
118.4404403214671
 31
0.0
1001
PHOENIX7010
1002
{
1070
    62
1070
     0
1002
}
  0
LINE
  5
1525
330
150D
100
AcDbEntity
  8
0
  6
Continuous
 62
     0
100
AcDbLine
 10
296.5735889470946
 20
115.4168945866153
 30
0.0
 11
298.7842932357234
 21
118.051509364752
 31
0.0
1001
PHOENIX7010
1002
{
1070
    62
1070
     0
1002
}
  0
LINE
  5
1526
330
150D
100
AcDbEntity
  8
0
  6
Continuous
 62
     0
100
AcDbLine
 10
296.8999407694276
 20
115.4168945866153
 30
0.0
 11
298.7842932357234
 21
117.6625784080369
 31
0.0
1001
PHOENIX7010
1002
{
1070
    62
1070
     0
1002
}
  0
LINE
  5
1527
330
150D
100
AcDbEntity
  8
0
  6
Continuous
 62
     0
100
AcDbLine
 10
297.2262925917608
 20
115.4168945866153
 30
0.0
 11
298.7842932357234
 21
117.2736474513218
 31
0.0
1001
PHOENIX7010
1002
{
1070
    62
1070
     0
1002
}
  0
LINE
  5
1528
330
150D
100
AcDbEntity
  8
0
  6
Continuous
 62
     0
100
AcDbLine
 10
297.5526444140938
 20
115.4168945866153
 30
0.0
 11
298.7842932357234
 21
116.8847164946067
 31
0.0
1001
PHOENIX7010
1002
{
1070
    62
1070
     0
1002
}
  0
LINE
  5
1529
330
150D
100
AcDbEntity
  8
0
  6
Continuous
 62
     0
100
AcDbLine
 10
297.8789962364269
 20
115.4168945866153
 30
0.0
 11
298.7842932357234
 21
116.4957855378916
 31
0.0
1001
PHOENIX7010
1002
{
1070
    62
1070
     0
1002
}
  0
LINE
  5
152A
330
150D
100
AcDbEntity
  8
0
  6
Continuous
 62
     0
100
AcDbLine
 10
298.2053480587599
 20
115.4168945866153
 30
0.0
 11
298.7842932357234
 21
116.1068545811765
 31
0.0
1001
PHOENIX7010
1002
{
1070
    62
1070
     0
1002
}
  0
LINE
  5
152B
330
150D
100
AcDbEntity
  8
0
  6
Continuous
 62
     0
100
AcDbLine
 10
298.531699881093
 20
115.4168945866153
 30
0.0
 11
298.7842932357234
 21
115.7179236244614
 31
0.0
1001
PHOENIX7010
1002
{
1070
    62
1070
     0
1002
}
  0
ENDBLK
  5
152C
330
150D
100
AcDbEntity
  8
0
100
AcDbBlockEnd
  0
BLOCK
  5
152E
330
152D
100
AcDbEntity
  8
0
100
AcDbBlockBegin
  2
*X21
 70
     1
 10
0.0
 20
0.0
 30
0.0
  3
*X21
  1

  0
LINE
  5
152F
330
152D
100
AcDbEntity
  8
0
  6
Continuous
 62
     0
100
AcDbLine
 10
287.622424632577
 20
115.371212735534
 30
0.0
 11
288.2946932357235
 21
116.0434813386805
 31
0.0
1001
PHOENIX7010
1002
{
1070
    62
1070
     0
1002
}
  0
LINE
  5
1530
330
152D
100
AcDbEntity
  8
0
  6
Continuous
 62
     0
100
AcDbLine
 10
291.0817064836582
 20
118.8304945866152
 30
0.0
 11
291.7539750868047
 21
119.5027631897617
 31
0.0
1001
PHOENIX7010
1002
{
1070
    62
1070
     0
1002
}
  0
LINE
  5
1531
330
152D
100
AcDbEntity
  8
0
  6
Continuous
 62
     0
100
AcDbLine
 10
286.9683189089447
 20
115.5656351493257
 30
0.0
 11
288.2946932357235
 21
116.8920094761044
 31
0.0
1001
PHOENIX7010
1002
{
1070
    62
1070
     0
1002
}
  0
LINE
  5
1532
330
152D
100
AcDbEntity
  8
0
  6
Continuous
 62
     0
100
AcDbLine
 10
290.2331783462344
 20
118.8304945866152
 30
0.0
 11
291.559552673013
 21
120.1568689133939
 31
0.0
1001
PHOENIX7010
1002
{
1070
    62
1070
     0
1002
}
  0
LINE
  5
1533
330
152D
100
AcDbEntity
  8
0
  6
Continuous
 62
     0
100
AcDbLine
 10
286.4081523517492
 20
115.853996729554
 30
0.0
 11
288.2946932357235
 21
117.7405376135282
 31
0.0
1001
PHOENIX7010
1002
{
1070
    62
1070
     0
1002
}
  0
LINE
  5
1534
330
152D
100
AcDbEntity
  8
0
  6
Continuous
 62
     0
100
AcDbLine
 10
289.3846502088105
 20
118.8304945866152
 30
0.0
 11
291.2711910927847
 21
120.7170354705894
 31
0.0
1001
PHOENIX7010
1002
{
1070
    62
1070
     0
1002
}
  0
LINE
  5
1535
330
152D
100
AcDbEntity
  8
0
  6
Continuous
 62
     0
100
AcDbLine
 10
285.9264890069686
 20
116.2208615221972
 30
0.0
 11
288.2946932357235
 21
118.5890657509521
 31
0.0
1001
PHOENIX7010
1002
{
1070
    62
1070
     0
1002
}
  0
LINE
  5
1536
330
152D
100
AcDbEntity
  8
0
  6
Continuous
 62
     0
100
AcDbLine
 10
288.5361220713866
 20
118.8304945866152
 30
0.0
 11
290.9043263001415
 21
121.1986988153701
 31
0.0
1001
PHOENIX7010
1002
{
1070
    62
1070
     0
1002
}
  0
LINE
  5
1537
330
152D
100
AcDbEntity
  8
0
  6
Continuous
 62
     0
100
AcDbLine
 10
285.5178571862534
 20
116.6607578389059
 30
0.0
 11
290.4644299834327
 21
121.6073306360852
 31
0.0
1001
PHOENIX7010
1002
{
1070
    62
1070
     0
1002
}
  0
LINE
  5
1538
330
152D
100
AcDbEntity
  8
0
  6
Continuous
 62
     0
100
AcDbLine
 10
285.1836935834831
 20
117.1751223735595
 30
0.0
 11
289.9500654487793
 21
121.9414942388555
 31
0.0
1001
PHOENIX7010
1002
{
1070
    62
1070
     0
1002
}
  0
LINE
  5
1539
330
152D
100
AcDbEntity
  8
0
  6
Continuous
 62
     0
100
AcDbLine
 10
284.9330895322749
 20
117.7730464597751
 30
0.0
 11
289.3521413625635
 21
122.1920982900637
 31
0.0
1001
PHOENIX7010
1002
{
1070
    62
1070
     0
1002
}
  0
LINE
  5
153A
330
152D
100
AcDbEntity
  8
0
  6
Continuous
 62
     0
100
AcDbLine
 10
284.7884720172401
 20
118.4769570821641
 30
0.0
 11
288.6482307401745
 21
122.3367158050986
 31
0.0
1001
PHOENIX7010
1002
{
1070
    62
1070
     0
1002
}
  0
LINE
  5
153B
330
152D
100
AcDbEntity
  8
0
  6
Continuous
 62
     0
100
AcDbLine
 10
284.8085355842248
 20
119.3455487865727
 30
0.0
 11
287.7796390357659
 21
122.3166522381139
 31
0.0
1001
PHOENIX7010
1002
{
1070
    62
1070
     0
1002
}
  0
LINE
  5
153C
330
152D
100
AcDbEntity
  8
0
  6
Continuous
 62
     0
100
AcDbLine
 10
285.2959822266612
 20
120.6815235664328
 30
0.0
 11
286.4436642559058
 21
121.8292055956776
 31
0.0
1001
PHOENIX7010
1002
{
1070
    62
1070
     0
1002
}
  0
ENDBLK
  5
153D
330
152D
100
AcDbEntity
  8
0
100
AcDbBlockEnd
  0
BLOCK
  5
1AB5
330
1AB4
100
AcDbEntity
  8
0
 62
     5
370
    35
100
AcDbBlockBegin
  2
*D22
 70
     1
 10
0.0
 20
0.0
 30
0.0
  3
*D22
  1

  0
LINE
  5
2249
330
1AB4
100
AcDbEntity
  8
0
  6
Continuous
 62
     1
370
    -2
100
AcDbLine
 10
247.1228727689769
 20
229.1998154739123
 30
0.0
 11
255.6228727689768
 21
229.1998154739123
 31
0.0
  0
LINE
  5
224A
330
1AB4
100
AcDbEntity
  8
0
  6
Continuous
 62
     1
370
    -2
100
AcDbLine
 10
247.1228727689769
 20
155.1998154739123
 30
0.0
 11
255.6228727689768
 21
155.1998154739123
 31
0.0
  0
LINE
  5
224B
330
1AB4
100
AcDbEntity
  8
0
  6
Continuous
 62
     1
370
    -2
100
AcDbLine
 10
254.1228727689768
 20
225.4798154739123
 30
0.0
 11
254.1228727689768
 21
158.9198154739122
 31
0.0
  0
INSERT
  5
224C
330
1AB4
100
AcDbEntity
  8
0
  6
Continuous
 62
     1
370
    -2
100
AcDbBlockReference
  2
_OPEN15
 10
254.1228727689768
 20
229.1998154739123
 30
0.0
 41
3.72
 42
3.72
 43
3.72
 50
90.0
  0
INSERT
  5
224D
330
1AB4
100
AcDbEntity
  8
0
  6
Continuous
 62
     1
370
    -2
100
AcDbBlockReference
  2
_OPEN15
 10
254.1228727689768
 20
155.1998154739123
 30
0.0
 41
3.72
 42
3.72
 43
3.72
 50
270.0
  0
MTEXT
  5
224E
330
1AB4
100
AcDbEntity
  8
0
  6
Continuous
 62
     5
370
    35
100
AcDbMText
 10
251.8728727689767
 20
192.1998154739123
 30
0.0
 40
2.5
 41
0.0
 71
     5
 72
     1
  1
\A1;74
 11
0.0000000000000001
 21
1.0
 31
0.0
 73
     1
 44
1.0
1001
ACAD
1000
MTEXTBEGIN
1070
    73
1070
     1
1070
    44
1040
1.0
1070
    74
1070
     0
1000
MTEXTEND
  0
POINT
  5
224F
330
1AB4
100
AcDbEntity
  8
DEFPOINTS
  6
Continuous
 62
     0
370
    35
100
AcDbPoint
 10
247.1228727689769
 20
229.1998154739123
 30
0.0
  0
POINT
  5
2250
330
1AB4
100
AcDbEntity
  8
DEFPOINTS
  6
Continuous
 62
     0
370
    35
100
AcDbPoint
 10
247.1228727689769
 20
155.1998154739123
 30
0.0
  0
POINT
  5
2251
330
1AB4
100
AcDbEntity
  8
DEFPOINTS
  6
Continuous
 62
     0
370
    35
100
AcDbPoint
 10
254.1228727689768
 20
155.1998154739123
 30
0.0
  0
ENDBLK
  5
1AB6
330
1AB4
100
AcDbEntity
  8
0
 62
     5
370
    35
100
AcDbBlockEnd
  0
BLOCK
  5
1D70
330
1D6F
100
AcDbEntity
  8
0
 62
     5
370
    35
100
AcDbBlockBegin
  2
*D23
 70
     1
 10
0.0
 20
0.0
 30
0.0
  3
*D23
  1

  0
LINE
  5
23D5
330
1D6F
100
AcDbEntity
  8
0
  6
Continuous
 62
     1
370
    -2
100
AcDbLine
 10
238.7728666689768
 20
252.6998154739123
 30
0.0
 11
260.6228727689768
 21
252.6998154739123
 31
0.0
  0
LINE
  5
23D6
330
1D6F
100
AcDbEntity
  8
0
  6
Continuous
 62
     1
370
    -2
100
AcDbLine
 10
238.7728666689768
 20
131.6998154739122
 30
0.0
 11
260.6228727689768
 21
131.6998154739122
 31
0.0
  0
LINE
  5
23D7
330
1D6F
100
AcDbEntity
  8
0
  6
Continuous
 62
     1
370
    -2
100
AcDbLine
 10
259.1228727689768
 20
248.9798154739123
 30
0.0
 11
259.1228727689768
 21
135.4198154739123
 31
0.0
  0
INSERT
  5
23D8
330
1D6F
100
AcDbEntity
  8
0
  6
Continuous
 62
     1
370
    -2
100
AcDbBlockReference
  2
_OPEN15
 10
259.1228727689768
 20
252.6998154739123
 30
0.0
 41
3.72
 42
3.72
 43
3.72
 50
90.0
  0
INSERT
  5
23D9
330
1D6F
100
AcDbEntity
  8
0
  6
Continuous
 62
     1
370
    -2
100
AcDbBlockReference
  2
_OPEN15
 10
259.1228727689768
 20
131.6998154739122
 30
0.0
 41
3.72
 42
3.72
 43
3.72
 50
270.0
  0
MTEXT
  5
23DA
330
1D6F
100
AcDbEntity
  8
0
  6
Continuous
 62
     5
370
    35
100
AcDbMText
 10
256.8726267059846
 20
192.1998154739123
 30
0.0
 40
2.5
 41
0.0
 71
     5
 72
     1
  1
\A1;121
 11
0.0000000000000001
 21
1.0
 31
0.0
 73
     1
 44
1.0
1001
ACAD
1000
MTEXTBEGIN
1070
    73
1070
     1
1070
    44
1040
1.0
1070
    74
1070
     0
1000
MTEXTEND
  0
POINT
  5
23DB
330
1D6F
100
AcDbEntity
  8
DEFPOINTS
  6
Continuous
 62
     0
370
    35
100
AcDbPoint
 10
238.7728666689768
 20
252.6998154739123
 30
0.0
  0
POINT
  5
23DC
330
1D6F
100
AcDbEntity
  8
DEFPOINTS
  6
Continuous
 62
     0
370
    35
100
AcDbPoint
 10
238.7728666689768
 20
131.6998154739122
 30
0.0
  0
POINT
  5
23DD
330
1D6F
100
AcDbEntity
  8
DEFPOINTS
  6
Continuous
 62
     0
370
    35
100
AcDbPoint
 10
259.1228727689768
 20
131.6998154739122
 30
0.0
  0
ENDBLK
  5
1D71
330
1D6F
100
AcDbEntity
  8
0
 62
     5
370
    35
100
AcDbBlockEnd
  0
BLOCK
  5
3756
330
3755
100
AcDbEntity
  8
0
 62
     5
370
    35
100
AcDbBlockBegin
  2
*D24
 70
     1
 10
0.0
 20
0.0
 30
0.0
  3
*D24
  1

  0
LINE
  5
3854
330
3755
100
AcDbEntity
  8
0
  6
Continuous
 62
     1
370
    25
100
AcDbLine
 10
248.7554140457728
 20
240.4235141798984
 30
0.0
 11
241.1894648822779
 21
233.3239446403711
 31
0.0
  0
MTEXT
  5
3855
330
3755
100
AcDbEntity
  8
0
  6
Continuous
 62
     5
370
    35
100
AcDbMText
 10
244.7891810998002
 20
239.7872352659623
 30
0.0
 40
2.5
 41
0.0
 71
     5
 72
     1
  1
\A1;R5
 11
0.7292249114834721
 21
0.6842740887041702
 31
0.0
 73
     1
 44
1.0
1001
ACAD
1000
MTEXTBEGIN
1070
    73
1070
     1
1070
    44
1040
1.0
1070
    74
1070
     0
1000
MTEXTEND
  0
INSERT
  5
3856
330
3755
100
AcDbEntity
  8
0
  6
Continuous
 62
     1
370
    25
100
AcDbBlockReference
  2
_OPEN15
 10
238.4767482115593
 20
230.7784450303916
 30
0.0
 41
3.72
 42
3.72
 43
3.72
 50
223.178545050298
  0
POINT
  5
3857
330
3755
100
AcDbEntity
  8
DEFPOINTS
  6
Continuous
 62
     0
370
    35
100
AcDbPoint
 10
238.4767482115593
 20
230.7784450303916
 30
0.0
  0
POINT
  5
3858
330
3755
100
AcDbEntity
  8
DEFPOINTS
  6
Continuous
 62
     0
370
    35
100
AcDbPoint
 10
242.1228727689765
 20
234.1998154739121
 30
0.0
  0
ENDBLK
  5
3757
330
3755
100
AcDbEntity
  8
0
 62
     5
370
    35
100
AcDbBlockEnd
  0
ENDSEC
  0
SECTION
  2
ENTITIES
  0
LINE
  5
68D
102
{ACAD_REACTORS
330
A4B
102
}
330
1A
100
AcDbEntity
  8
0
  6
Continuous
 62
     3
100
AcDbLine
 10
415.0
 20
292.0
 30
0.0
 11
415.0
 21
5.0
 31
0.0
1001
PHOENIX7010
1002
{
1070
    62
1070
     3
1070
    41
1040
1.0
1002
}
  0
LINE
  5
68E
102
{ACAD_REACTORS
330
A4B
102
}
330
1A
100
AcDbEntity
  8
0
  6
Continuous
 62
     3
100
AcDbLine
 10
35.0
 20
292.0
 30
0.0
 11
415.0
 21
292.0
 31
0.0
1001
PHOENIX7010
1002
{
1070
    62
1070
     3
1070
    41
1040
1.0
1002
}
  0
LINE
  5
68F
102
{ACAD_REACTORS
330
A4B
102
}
330
1A
100
AcDbEntity
  8
0
  6
Continuous
 62
     3
100
AcDbLine
 10
35.0
 20
5.0
 30
0.0
 11
35.0
 21
292.0
 31
0.0
1001
PHOENIX7010
1002
{
1070
    62
1070
     3
1070
    41
1040
1.0
1002
}
  0
LINE
  5
690
102
{ACAD_REACTORS
330
A4B
102
}
330
1A
100
AcDbEntity
  8
0
  6
Continuous
 62
     1
100
AcDbLine
 10
419.0
 20
296.0
 30
0.0
 11
419.0
 21
1.0
 31
0.0
1001
PHOENIX7010
1002
{
1070
    62
1070
     1
1070
    41
1040
1.0
1002
}
  0
LINE
  5
691
102
{ACAD_REACTORS
330
A4B
102
}
330
1A
100
AcDbEntity
  8
0
  6
Continuous
 62
     1
100
AcDbLine
 10
1.0
 20
296.0
 30
0.0
 11
419.0
 21
296.0
 31
0.0
1001
PHOENIX7010
1002
{
1070
    62
1070
     1
1070
    41
1040
1.0
1002
}
  0
LINE
  5
692
102
{ACAD_REACTORS
330
A4B
102
}
330
1A
100
AcDbEntity
  8
0
  6
Continuous
 62
     1
100
AcDbLine
 10
1.0
 20
1.0
 30
0.0
 11
1.0
 21
296.0
 31
0.0
1001
PHOENIX7010
1002
{
1070
    62
1070
     1
1070
    41
1040
1.0
1002
}
  0
LINE
  5
693
102
{ACAD_REACTORS
330
A4B
102
}
330
1A
100
AcDbEntity
  8
0
  6
Continuous
 62
     1
100
AcDbLine
 10
419.0
 20
1.0
 30
0.0
 11
1.0
 21
1.0
 31
0.0
1001
PHOENIX7010
1002
{
1070
    62
1070
     1
1070
    41
1040
1.0
1002
}
  0
LINE
  5
694
102
{ACAD_REACTORS
330
A4B
102
}
330
1A
100
AcDbEntity
  8
0
  6
Continuous
 62
     1
100
AcDbLine
 10
125.0
 20
5.0
 30
0.0
 11
125.0
 21
1.0
 31
0.0
1001
PHOENIX7010
1002
{
1070
    62
1070
     1
1070
    41
1040
1.0
1002
}
  0
LINE
  5
695
102
{ACAD_REACTORS
330
A4B
102
}
330
1A
100
AcDbEntity
  8
0
  6
Continuous
 62
     1
100
AcDbLine
 10
230.0
 20
296.0
 30
0.0
 11
230.0
 21
292.0
 31
0.0
1001
PHOENIX7010
1002
{
1070
    62
1070
     1
1070
    41
1040
1.0
1002
}
  0
LINE
  5
696
102
{ACAD_REACTORS
330
A4B
102
}
330
1A
100
AcDbEntity
  8
0
  6
Continuous
 62
     1
100
AcDbLine
 10
125.0
 20
296.0
 30
0.0
 11
125.0
 21
292.0
 31
0.0
1001
PHOENIX7010
1002
{
1070
    62
1070
     1
1070
    41
1040
1.0
1002
}
  0
LINE
  5
697
102
{ACAD_REACTORS
330
A4B
102
}
330
1A
100
AcDbEntity
  8
0
  6
Continuous
 62
     3
100
AcDbLine
 10
415.0
 20
5.0
 30
0.0
 11
35.0
 21
5.0
 31
0.0
1001
PHOENIX7010
1002
{
1070
    62
1070
     3
1070
    41
1040
1.0
1002
}
  0
LINE
  5
698
102
{ACAD_REACTORS
330
A4B
102
}
330
1A
100
AcDbEntity
  8
0
  6
Continuous
 62
     1
100
AcDbLine
 10
230.0
 20
5.0
 30
0.0
 11
230.0
 21
1.0
 31
0.0
1001
PHOENIX7010
1002
{
1070
    62
1070
     1
1070
    41
1040
1.0
1002
}
  0
TEXT
  5
69A
102
{ACAD_REACTORS
330
A4C
102
}
330
1A
100
AcDbEntity
  8
0
  6
Continuous
 62
     1
100
AcDbText
 10
34.0
 20
114.0
 30
0.0
 40
2.0
  1
"Schutzvermerk nach DIN 34 beachten"
 50
90.0
 41
1.5
100
AcDbText
1001
PHOENIX7010
1002
{
1070
    62
1070
     1
1070
    41
1040
1.0
1002
}
  0
LINE
  5
6CF
330
1A
100
AcDbEntity
  8
0
  6
ACAD_ISO04W100
 62
     1
100
AcDbLine
 10
186.5228727689768
 20
258.9498154739123
 30
0.0
 11
186.5228727689768
 21
125.4498154739122
 31
0.0
1001
PHOENIX7010
1002
{
1070
    62
1070
     1
1070
    41
1040
1.0
1002
}
  0
LINE
  5
6D0
330
1A
100
AcDbEntity
  8
0
  6
ACAD_ISO04W100
 62
     1
100
AcDbLine
 10
123.9228727689768
 20
192.1998154739123
 30
0.0
 11
249.1228727689769
 21
192.1998154739123
 31
0.0
1001
PHOENIX7010
1002
{
1070
    62
1070
     1
1070
    41
1040
1.0
1002
}
  0
LINE
  5
6D1
102
{ACAD_REACTORS
330
92F
330
95A
330
968
102
}
330
1A
100
AcDbEntity
  8
0
  6
Continuous
 62
     7
100
AcDbLine
 10
135.9228727689768
 20
254.6998154739123
 30
0.0
 11
135.9228727689768
 21
256.9498154739123
 31
0.0
1001
PHOENIX7010
1002
{
1070
    62
1070
     7
1070
    41
1040
1.0
1002
}
  0
LINE
  5
6D2
330
1A
100
AcDbEntity
  8
0
  6
Continuous
 62
     7
100
AcDbLine
 10
138.2728788689768
 20
254.6998154739123
 30
0.0
 11
135.9228727689768
 21
254.6998154739123
 31
0.0
1001
PHOENIX7010
1002
{
1070
    62
1070
     7
1070
    41
1040
1.0
1002
}
  0
ARC
  5
6D3
330
1A
100
AcDbEntity
  8
0
  6
Continuous
 62
     7
100
AcDbCircle
 10
138.2728788689768
 20
252.6998154739123
 30
0.0
 40
2.000000000000025
100
AcDbArc
 50
270.0008743115542
 51
89.9999997722792
1001
PHOENIX7010
1002
{
1070
    62
1070
     7
1070
    41
1040
1.0
1002
}
  0
LINE
  5
6D4
330
1A
100
AcDbEntity
  8
0
  6
Continuous
 62
     7
100
AcDbLine
 10
135.9228727689768
 20
250.6998154739123
 30
0.0
 11
138.2729093889768
 21
250.6998154739123
 31
0.0
1001
PHOENIX7010
1002
{
1070
    62
1070
     7
1070
    41
1040
1.0
1002
}
  0
LINE
  5
6D5
330
1A
100
AcDbEntity
  8
0
  6
Continuous
 62
     7
100
AcDbLine
 10
135.9228727689768
 20
234.1998154739123
 30
0.0
 11
135.9228727689768
 21
250.6998154739123
 31
0.0
1001
PHOENIX7010
1002
{
1070
    62
1070
     7
1070
    41
1040
1.0
1002
}
  0
ARC
  5
6D6
330
1A
100
AcDbEntity
  8
0
  6
Continuous
 62
     7
100
AcDbCircle
 10
130.9228727689768
 20
234.1998154739123
 30
0.0
 40
5.0
100
AcDbArc
 50
269.9999999779586
 51
0.0000001615978258
1001
PHOENIX7010
1002
{
1070
    62
1070
     7
1070
    41
1040
1.0
1002
}
  0
LINE
  5
6D7
102
{ACAD_REACTORS
330
92E
330
93F
102
}
330
1A
100
AcDbEntity
  8
0
  6
Continuous
 62
     7
100
AcDbLine
 10
125.9228727689768
 20
229.1998154739123
 30
0.0
 11
130.9228727689768
 21
229.1998154739123
 31
0.0
1001
PHOENIX7010
1002
{
1070
    62
1070
     7
1070
    41
1040
1.0
1002
}
  0
LINE
  5
6D8
102
{ACAD_REACTORS
330
910
330
93E
102
}
330
1A
100
AcDbEntity
  8
0
  6
Continuous
 62
     7
100
AcDbLine
 10
125.9228727689768
 20
155.1998154739123
 30
0.0
 11
125.9228727689768
 21
229.1998154739123
 31
0.0
1001
PHOENIX7010
1002
{
1070
    62
1070
     7
1070
    41
1040
1.0
1002
}
  0
LINE
  5
6D9
330
1A
100
AcDbEntity
  8
0
  6
Continuous
 62
     7
100
AcDbLine
 10
130.9228727689768
 20
155.1998154739123
 30
0.0
 11
125.9228727689768
 21
155.1998154739123
 31
0.0
1001
PHOENIX7010
1002
{
1070
    62
1070
     7
1070
    41
1040
1.0
1002
}
  0
ARC
  5
6DA
330
1A
100
AcDbEntity
  8
0
  6
Continuous
 62
     7
100
AcDbCircle
 10
130.9228727689768
 20
150.1998154739123
 30
0.0
 40
5.0
100
AcDbArc
 50
0.0
 51
90.00000018363882
1001
PHOENIX7010
1002
{
1070
    62
1070
     7
1070
    41
1040
1.0
1002
}
  0
LINE
  5
6DB
102
{ACAD_REACTORS
330
91F
102
}
330
1A
100
AcDbEntity
  8
0
  6
Continuous
 62
     7
100
AcDbLine
 10
135.9228727689768
 20
133.6998154739122
 30
0.0
 11
135.9228727689768
 21
150.1998154739123
 31
0.0
1001
PHOENIX7010
1002
{
1070
    62
1070
     7
1070
    41
1040
1.0
1002
}
  0
LINE
  5
6DC
330
1A
100
AcDbEntity
  8
0
  6
Continuous
 62
     7
100
AcDbLine
 10
138.2729093889768
 20
133.6998154739122
 30
0.0
 11
135.9228727689768
 21
133.6998154739122
 31
0.0
1001
PHOENIX7010
1002
{
1070
    62
1070
     7
1070
    41
1040
1.0
1002
}
  0
ARC
  5
6DD
330
1A
100
AcDbEntity
  8
0
  6
Continuous
 62
     7
100
AcDbCircle
 10
138.2728788689768
 20
131.6998154739122
 30
0.0
 40
2.0
100
AcDbArc
 50
269.999999977959
 51
89.99912543868394
1001
PHOENIX7010
1002
{
1070
    62
1070
     7
1070
    41
1040
1.0
1002
}
  0
LINE
  5
6DE
102
{ACAD_REACTORS
330
91E
102
}
330
1A
100
AcDbEntity
  8
0
  6
Continuous
 62
     7
100
AcDbLine
 10
135.9228727689768
 20
129.6998154739123
 30
0.0
 11
138.2728788689768
 21
129.6998154739123
 31
0.0
1001
PHOENIX7010
1002
{
1070
    62
1070
     7
1070
    41
1040
1.0
1002
}
  0
LINE
  5
6DF
102
{ACAD_REACTORS
330
902
330
967
102
}
330
1A
100
AcDbEntity
  8
0
  6
Continuous
 62
     7
100
AcDbLine
 10
135.9228727689768
 20
127.4498154739122
 30
0.0
 11
135.9228727689768
 21
129.6998154739123
 31
0.0
1001
PHOENIX7010
1002
{
1070
    62
1070
     7
1070
    41
1040
1.0
1002
}
  0
LINE
  5
6E0
102
{ACAD_REACTORS
330
903
102
}
330
1A
100
AcDbEntity
  8
0
  6
Continuous
 62
     7
100
AcDbLine
 10
237.1228727689769
 20
127.4498154739122
 30
0.0
 11
135.9228727689768
 21
127.4498154739122
 31
0.0
1001
PHOENIX7010
1002
{
1070
    62
1070
     7
1070
    41
1040
1.0
1002
}
  0
LINE
  5
6E1
330
1A
100
AcDbEntity
  8
0
  6
Continuous
 62
     7
100
AcDbLine
 10
237.1228727689769
 20
129.6998154739123
 30
0.0
 11
237.1228727689769
 21
127.4498154739122
 31
0.0
1001
PHOENIX7010
1002
{
1070
    62
1070
     7
1070
    41
1040
1.0
1002
}
  0
LINE
  5
6E2
330
1A
100
AcDbEntity
  8
0
  6
Continuous
 62
     7
100
AcDbLine
 10
234.7728666689768
 20
129.6998154739123
 30
0.0
 11
237.1228727689769
 21
129.6998154739123
 31
0.0
1001
PHOENIX7010
1002
{
1070
    62
1070
     7
1070
    41
1040
1.0
1002
}
  0
ARC
  5
6E3
330
1A
100
AcDbEntity
  8
0
  6
Continuous
 62
     7
100
AcDbCircle
 10
234.7728666689768
 20
131.6998154739122
 30
0.0
 40
2.00000000000002
100
AcDbArc
 50
90.00087451723327
 51
270.0000005509173
1001
PHOENIX7010
1002
{
1070
    62
1070
     7
1070
    41
1040
1.0
1002
}
  0
LINE
  5
6E4
330
1A
100
AcDbEntity
  8
0
  6
Continuous
 62
     7
100
AcDbLine
 10
237.1228727689769
 20
133.6998154739122
 30
0.0
 11
234.7728361489768
 21
133.6998154739122
 31
0.0
1001
PHOENIX7010
1002
{
1070
    62
1070
     7
1070
    41
1040
1.0
1002
}
  0
LINE
  5
6E5
330
1A
100
AcDbEntity
  8
0
  6
Continuous
 62
     7
100
AcDbLine
 10
237.1228727689769
 20
150.1998154739123
 30
0.0
 11
237.1228727689769
 21
133.6998154739122
 31
0.0
1001
PHOENIX7010
1002
{
1070
    62
1070
     7
1070
    41
1040
1.0
1002
}
  0
ARC
  5
6E6
330
1A
100
AcDbEntity
  8
0
  6
Continuous
 62
     7
100
AcDbCircle
 10
242.1228727689769
 20
150.1998154739123
 30
0.0
 40
5.0
100
AcDbArc
 50
90.00000018363882
 51
180.000000367278
1001
PHOENIX7010
1002
{
1070
    62
1070
     7
1070
    41
1040
1.0
1002
}
  0
LINE
  5
6E7
102
{ACAD_REACTORS
330
911
102
}
330
1A
100
AcDbEntity
  8
0
  6
Continuous
 62
     7
100
AcDbLine
 10
247.1228727689769
 20
155.1998154739123
 30
0.0
 11
242.1228727689769
 21
155.1998154739123
 31
0.0
1001
PHOENIX7010
1002
{
1070
    62
1070
     7
1070
    41
1040
1.0
1002
}
  0
LINE
  5
6E8
330
1A
100
AcDbEntity
  8
0
  6
Continuous
 62
     7
100
AcDbLine
 10
247.1228727689769
 20
229.1998154739123
 30
0.0
 11
247.1228727689769
 21
155.1998154739123
 31
0.0
1001
PHOENIX7010
1002
{
1070
    62
1070
     7
1070
    41
1040
1.0
1002
}
  0
LINE
  5
6E9
102
{ACAD_REACTORS
330
1D51
102
}
330
1A
100
AcDbEntity
  8
0
  6
Continuous
 62
     7
100
AcDbLine
 10
242.1228727689769
 20
229.1998154739123
 30
0.0
 11
247.1228727689769
 21
229.1998154739123
 31
0.0
1001
PHOENIX7010
1002
{
1070
    62
1070
     7
1070
    41
1040
1.0
1002
}
  0
ARC
  5
6EA
102
{ACAD_REACTORS
330
3848
102
}
330
1A
100
AcDbEntity
  8
0
  6
Continuous
 62
     7
100
AcDbCircle
 10
242.1228727689769
 20
234.1998154739123
 30
0.0
 40
5.0
100
AcDbArc
 50
179.9999997943198
 51
269.9999999779594
1001
PHOENIX7010
1002
{
1070
    62
1070
     7
1070
    41
1040
1.0
1002
}
  0
LINE
  5
6EB
330
1A
100
AcDbEntity
  8
0
  6
Continuous
 62
     7
100
AcDbLine
 10
237.1228727689769
 20
250.6998154739123
 30
0.0
 11
237.1228727689769
 21
234.1998154739123
 31
0.0
1001
PHOENIX7010
1002
{
1070
    62
1070
     7
1070
    41
1040
1.0
1002
}
  0
LINE
  5
6EC
330
1A
100
AcDbEntity
  8
0
  6
Continuous
 62
     7
100
AcDbLine
 10
234.7728361489768
 20
250.6998154739123
 30
0.0
 11
237.1228727689769
 21
250.6998154739123
 31
0.0
1001
PHOENIX7010
1002
{
1070
    62
1070
     7
1070
    41
1040
1.0
1002
}
  0
ARC
  5
6ED
330
1A
100
AcDbEntity
  8
0
  6
Continuous
 62
     7
100
AcDbCircle
 10
234.7728666689768
 20
252.6998154739123
 30
0.0
 40
2.0
100
AcDbArc
 50
90.00000018363799
 51
269.999126217322
1001
PHOENIX7010
1002
{
1070
    62
1070
     7
1070
    41
1040
1.0
1002
}
  0
LINE
  5
6EE
330
1A
100
AcDbEntity
  8
0
  6
Continuous
 62
     7
100
AcDbLine
 10
237.1228727689769
 20
254.6998154739123
 30
0.0
 11
234.7728666689768
 21
254.6998154739123
 31
0.0
1001
PHOENIX7010
1002
{
1070
    62
1070
     7
1070
    41
1040
1.0
1002
}
  0
LINE
  5
6EF
330
1A
100
AcDbEntity
  8
0
  6
Continuous
 62
     7
100
AcDbLine
 10
237.1228727689769
 20
256.9498154739123
 30
0.0
 11
237.1228727689769
 21
254.6998154739123
 31
0.0
1001
PHOENIX7010
1002
{
1070
    62
1070
     7
1070
    41
1040
1.0
1002
}
  0
LINE
  5
6F0
330
1A
100
AcDbEntity
  8
0
  6
Continuous
 62
     7
100
AcDbLine
 10
135.9228727689768
 20
256.9498154739123
 30
0.0
 11
237.1228727689769
 21
256.9498154739123
 31
0.0
1001
PHOENIX7010
1002
{
1070
    62
1070
     7
1070
    41
1040
1.0
1002
}
  0
LINE
  5
6F1
330
1A
100
AcDbEntity
  8
0
  6
Continuous
 62
     1
100
AcDbLine
 10
138.2728788689768
 20
255.6998154739123
 30
0.0
 11
138.2728788689768
 21
249.6998154739123
 31
0.0
1001
PHOENIX7010
1002
{
1070
    62
1070
     1
1070
    41
1040
1.0
1002
}
  0
LINE
  5
6F2
102
{ACAD_REACTORS
330
94D
102
}
330
1A
100
AcDbEntity
  8
0
  6
Continuous
 62
     1
100
AcDbLine
 10
134.2728788689768
 20
252.6998154739123
 30
0.0
 11
142.2728788689768
 21
252.6998154739123
 31
0.0
1001
PHOENIX7010
1002
{
1070
    62
1070
     1
1070
    41
1040
1.0
1002
}
  0
LINE
  5
6F3
330
1A
100
AcDbEntity
  8
0
  6
Continuous
 62
     1
100
AcDbLine
 10
234.7728666689768
 20
255.6998154739123
 30
0.0
 11
234.7728666689768
 21
249.6998154739123
 31
0.0
1001
PHOENIX7010
1002
{
1070
    62
1070
     1
1070
    41
1040
1.0
1002
}
  0
LINE
  5
6F4
102
{ACAD_REACTORS
330
1EB6
102
}
330
1A
100
AcDbEntity
  8
0
  6
Continuous
 62
     1
100
AcDbLine
 10
238.7728666689768
 20
252.6998154739123
 30
0.0
 11
230.7728666689768
 21
252.6998154739123
 31
0.0
1001
PHOENIX7010
1002
{
1070
    62
1070
     1
1070
    41
1040
1.0
1002
}
  0
LINE
  5
6F5
330
1A
100
AcDbEntity
  8
0
  6
Continuous
 62
     1
100
AcDbLine
 10
146.9228727689768
 20
255.6998154739123
 30
0.0
 11
146.9228727689768
 21
249.6998154739123
 31
0.0
1001
PHOENIX7010
1002
{
1070
    62
1070
     1
1070
    41
1040
1.0
1002
}
  0
LINE
  5
6F6
330
1A
100
AcDbEntity
  8
0
  6
Continuous
 62
     1
100
AcDbLine
 10
143.9228727689768
 20
252.6998154739123
 30
0.0
 11
149.9228727689768
 21
252.6998154739123
 31
0.0
1001
PHOENIX7010
1002
{
1070
    62
1070
     1
1070
    41
1040
1.0
1002
}
  0
CIRCLE
  5
6F7
330
1A
100
AcDbEntity
  8
0
  6
Continuous
 62
     7
100
AcDbCircle
 10
146.9228727689768
 20
252.6998154739123
 30
0.0
 40
2.0
1001
PHOENIX7010
1002
{
1070
    62
1070
     7
1070
    41
1040
1.0
1002
}
  0
LINE
  5
6F8
102
{ACAD_REACTORS
330
8F4
102
}
330
1A
100
AcDbEntity
  8
0
  6
Continuous
 62
     1
100
AcDbLine
 10
138.2728788689768
 20
128.6998154739123
 30
0.0
 11
138.2728788689768
 21
134.6998154739122
 31
0.0
1001
PHOENIX7010
1002
{
1070
    62
1070
     1
1070
    41
1040
1.0
1002
}
  0
LINE
  5
6F9
102
{ACAD_REACTORS
330
94C
102
}
330
1A
100
AcDbEntity
  8
0
  6
Continuous
 62
     1
100
AcDbLine
 10
134.2728788689768
 20
131.6998154739122
 30
0.0
 11
142.2728788689768
 21
131.6998154739122
 31
0.0
1001
PHOENIX7010
1002
{
1070
    62
1070
     1
1070
    41
1040
1.0
1002
}
  0
LINE
  5
6FA
102
{ACAD_REACTORS
330
8F5
102
}
330
1A
100
AcDbEntity
  8
0
  6
Continuous
 62
     1
100
AcDbLine
 10
234.7728666689768
 20
128.6998154739123
 30
0.0
 11
234.7728666689768
 21
134.6998154739122
 31
0.0
1001
PHOENIX7010
1002
{
1070
    62
1070
     1
1070
    41
1040
1.0
1002
}
  0
LINE
  5
6FB
102
{ACAD_REACTORS
330
1EB7
102
}
330
1A
100
AcDbEntity
  8
0
  6
Continuous
 62
     1
100
AcDbLine
 10
238.7728666689768
 20
131.6998154739122
 30
0.0
 11
230.7728666689768
 21
131.6998154739122
 31
0.0
1001
PHOENIX7010
1002
{
1070
    62
1070
     1
1070
    41
1040
1.0
1002
}
  0
LINE
  5
6FC
102
{ACAD_REACTORS
330
8E6
102
}
330
1A
100
AcDbEntity
  8
0
  6
Continuous
 62
     1
100
AcDbLine
 10
146.9228727689768
 20
128.6998154739123
 30
0.0
 11
146.9228727689768
 21
134.6998154739122
 31
0.0
1001
PHOENIX7010
1002
{
1070
    62
1070
     1
1070
    41
1040
1.0
1002
}
  0
LINE
  5
6FD
330
1A
100
AcDbEntity
  8
0
  6
Continuous
 62
     1
100
AcDbLine
 10
143.9228727689768
 20
131.6998154739122
 30
0.0
 11
149.9228727689768
 21
131.6998154739122
 31
0.0
1001
PHOENIX7010
1002
{
1070
    62
1070
     1
1070
    41
1040
1.0
1002
}
  0
CIRCLE
  5
6FE
330
1A
100
AcDbEntity
  8
0
  6
Continuous
 62
     7
100
AcDbCircle
 10
146.9228727689768
 20
131.6998154739122
 30
0.0
 40
2.0
1001
PHOENIX7010
1002
{
1070
    62
1070
     7
1070
    41
1040
1.0
1002
}
  0
LINE
  5
6FF
102
{ACAD_REACTORS
330
8E7
102
}
330
1A
100
AcDbEntity
  8
0
  6
Continuous
 62
     1
100
AcDbLine
 10
226.1228727689768
 20
128.6998154739123
 30
0.0
 11
226.1228727689768
 21
134.6998154739122
 31
0.0
1001
PHOENIX7010
1002
{
1070
    62
1070
     1
1070
    41
1040
1.0
1002
}
  0
LINE
  5
700
330
1A
100
AcDbEntity
  8
0
  6
Continuous
 62
     1
100
AcDbLine
 10
223.1228727689769
 20
131.6998154739122
 30
0.0
 11
229.1228727689769
 21
131.6998154739122
 31
0.0
1001
PHOENIX7010
1002
{
1070
    62
1070
     1
1070
    41
1040
1.0
1002
}
  0
CIRCLE
  5
701
330
1A
100
AcDbEntity
  8
0
  6
Continuous
 62
     7
100
AcDbCircle
 10
226.1228727689768
 20
131.6998154739122
 30
0.0
 40
2.0
1001
PHOENIX7010
1002
{
1070
    62
1070
     7
1070
    41
1040
1.0
1002
}
  0
LINE
  5
702
330
1A
100
AcDbEntity
  8
0
  6
Continuous
 62
     1
100
AcDbLine
 10
226.1228727689768
 20
249.6998154739123
 30
0.0
 11
226.1228727689768
 21
255.6998154739123
 31
0.0
1001
PHOENIX7010
1002
{
1070
    62
1070
     1
1070
    41
1040
1.0
1002
}
  0
LINE
  5
703
330
1A
100
AcDbEntity
  8
0
  6
Continuous
 62
     1
100
AcDbLine
 10
223.1228727689769
 20
252.6998154739123
 30
0.0
 11
229.1228727689769
 21
252.6998154739123
 31
0.0
1001
PHOENIX7010
1002
{
1070
    62
1070
     1
1070
    41
1040
1.0
1002
}
  0
CIRCLE
  5
704
330
1A
100
AcDbEntity
  8
0
  6
Continuous
 62
     7
100
AcDbCircle
 10
226.1228727689768
 20
252.6998154739123
 30
0.0
 40
2.0
1001
PHOENIX7010
1002
{
1070
    62
1070
     7
1070
    41
1040
1.0
1002
}
  0
DIMENSION
  5
705
330
1A
100
AcDbEntity
  8
0
  6
Continuous
 62
     7
100
AcDbDimension
  2
*D2
 10
148.9228727689768
 20
117.4498154739123
 30
0.0
 11
158.9253727689768
 21
117.4498154739123
 31
0.0
 70
   160
 71
     5
 42
4.0
  3
PHOENIX
100
AcDbAlignedDimension
 13
144.9228727689768
 23
131.6998154739122
 33
0.0
 14
148.9228727689768
 24
131.6998154739122
 34
0.0
100
AcDbRotatedDimension
1001
ACAD
1000
DSTYLE
1002
{
1070
   147
1040
1.25
1002
}
  0
DIMENSION
  5
721
102
{ACAD_REACTORS
330
8E8
102
}
330
1A
100
AcDbEntity
  8
0
  6
Continuous
 62
     7
100
AcDbDimension
  2
*D3
 10
226.1228727689768
 20
110.4498154739123
 30
0.0
 11
186.5228727689768
 21
110.4498154739123
 31
0.0
 70
   160
 71
     5
 42
79.20000000000001
  3
PHOENIX
100
AcDbAlignedDimension
 13
146.9228727689768
 23
128.6998154739123
 33
0.0
 14
226.1228727689768
 24
128.6998154739123
 34
0.0
100
AcDbRotatedDimension
1001
ACAD
1000
DSTYLE
1002
{
1070
   147
1040
1.25
1002
}
  0
DIMENSION
  5
73B
102
{ACAD_REACTORS
330
8F6
102
}
330
1A
100
AcDbEntity
  8
0
  6
Continuous
 62
     7
100
AcDbDimension
  2
*D4
 10
234.7728666689768
 20
103.4498154739122
 30
0.0
 11
186.5228727689768
 21
103.4498154739122
 31
0.0
 70
   160
 71
     5
 42
96.49998779999998
  3
PHOENIX
100
AcDbAlignedDimension
 13
138.2728788689768
 23
128.6998154739123
 33
0.0
 14
234.7728666689768
 24
128.6998154739123
 34
0.0
100
AcDbRotatedDimension
1001
ACAD
1000
DSTYLE
1002
{
1070
   147
1040
1.25
1002
}
  0
DIMENSION
  5
755
102
{ACAD_REACTORS
330
904
102
}
330
1A
100
AcDbEntity
  8
0
  6
Continuous
 62
     7
100
AcDbDimension
  2
*D5
 10
237.1228727689769
 20
96.44981547391223
 30
0.0
 11
186.5228727689768
 21
96.44981547391223
 31
0.0
 70
   160
 71
     5
 42
101.2
  3
PHOENIX
100
AcDbAlignedDimension
 13
135.9228727689768
 23
127.4498154739122
 33
0.0
 14
237.1228727689769
 24
127.4498154739122
 34
0.0
100
AcDbRotatedDimension
1001
ACAD
1000
DSTYLE
1002
{
1070
   147
1040
1.25
1002
}
  0
DIMENSION
  5
76F
102
{ACAD_REACTORS
330
912
102
}
330
1A
100
AcDbEntity
  8
0
  6
Continuous
 62
     7
100
AcDbDimension
  2
*D6
 10
247.1228727689769
 20
89.44981547391225
 30
0.0
 11
186.5228727689768
 21
89.44981547391225
 31
0.0
 70
   160
 71
     5
 42
121.2
  3
PHOENIX
100
AcDbAlignedDimension
 13
125.9228727689768
 23
155.1998154739123
 33
0.0
 14
247.1228727689769
 24
155.1998154739123
 34
0.0
100
AcDbRotatedDimension
1001
ACAD
1000
DSTYLE
1002
{
1070
   147
1040
1.25
1002
}
  0
DIMENSION
  5
789
102
{ACAD_REACTORS
330
920
102
}
330
1A
100
AcDbEntity
  8
0
  6
Continuous
 62
     7
100
AcDbDimension
  2
*D7
 10
118.9228727689769
 20
133.6998154739122
 30
0.0
 11
115.9228727689769
 21
143.7023154739123
 31
0.0
 70
    32
 71
     5
 42
4.0
  3
PHOENIX
100
AcDbAlignedDimension
 13
135.9228727689768
 23
129.6998154739123
 33
0.0
 14
135.9228727689768
 24
133.6998154739122
 34
0.0
 50
90.0
100
AcDbRotatedDimension
1001
ACAD
1000
DSTYLE
1002
{
1070
   147
1040
1.25
1002
}
  0
DIMENSION
  5
7A5
102
{ACAD_REACTORS
330
930
102
}
330
1A
100
AcDbEntity
  8
0
  6
Continuous
 62
     7
100
AcDbDimension
  2
*D8
 10
118.9228727689769
 20
256.9498154739124
 30
0.0
 11
115.7478727689769
 21
243.0748154739124
 31
0.0
 70
    32
  1
(27.75)
 71
     5
 42
27.75000000000003
  3
PHOENIX
100
AcDbAlignedDimension
 13
125.9228727689768
 23
229.1998154739123
 33
0.0
 14
135.9228727689768
 24
256.9498154739123
 34
0.0
 50
90.0
100
AcDbRotatedDimension
1001
ACAD
1000
DSTYLE
1002
{
1070
   271
1070
     0
1070
   147
1040
1.25
1002
}
  0
DIMENSION
  5
7F5
102
{ACAD_REACTORS
330
95B
102
}
330
1A
100
AcDbEntity
  8
0
  6
Continuous
 62
     7
100
AcDbDimension
  2
*D11
 10
111.2106138830661
 20
256.9498154739124
 30
0.0
 11
108.2106138830661
 21
224.5748154739124
 31
0.0
 70
    32
 71
     5
 42
64.75000000000003
  3
PHOENIX
100
AcDbAlignedDimension
 13
125.9228727689768
 23
192.1998154739123
 33
0.0
 14
135.9228727689768
 24
256.9498154739123
 34
0.0
 50
90.0
100
AcDbRotatedDimension
1001
ACAD
1000
DSTYLE
1002
{
1070
   147
1040
1.25
1002
}
  0
DIMENSION
  5
80F
102
{ACAD_REACTORS
330
969
102
}
330
1A
100
AcDbEntity
  8
0
  6
Continuous
 62
     7
100
AcDbDimension
  2
*D12
 10
103.922872768977
 20
256.9498154739124
 30
0.0
 11
100.9225282807879
 21
192.1998154739123
 31
0.0
 70
    32
 71
     5
 42
129.5
  3
PHOENIX
100
AcDbAlignedDimension
 13
135.9228727689768
 23
127.4498154739122
 33
0.0
 14
135.9228727689768
 24
256.9498154739123
 34
0.0
 50
90.0
100
AcDbRotatedDimension
1001
ACAD
1000
DSTYLE
1002
{
1070
   147
1040
1.25
1002
}
  0
LINE
  5
829
330
1A
100
AcDbEntity
  8
0
  6
Continuous
 62
     1
100
AcDbLine
 10
305.986195764109
 20
252.6998154739123
 30
0.0
 11
299.986195764109
 21
252.6998154739123
 31
0.0
1001
PHOENIX7010
1002
{
1070
    62
1070
     1
1070
    41
1040
1.0
1002
}
  0
LINE
  5
82A
330
1A
100
AcDbEntity
  8
0
  6
Continuous
 62
     1
100
AcDbLine
 10
299.986195764109
 20
131.6998154739122
 30
0.0
 11
305.986195764109
 21
131.6998154739122
 31
0.0
1001
PHOENIX7010
1002
{
1070
    62
1070
     1
1070
    41
1040
1.0
1002
}
  0
LINE
  5
82B
330
1A
100
AcDbEntity
  8
0
  6
Continuous
 62
     7
100
AcDbLine
 10
303.986195764109
 20
129.6998154739123
 30
0.0
 11
301.986195764109
 21
129.6998154739123
 31
0.0
1001
PHOENIX7010
1002
{
1070
    62
1070
     7
1070
    41
1040
1.0
1002
}
  0
LINE
  5
82C
330
1A
100
AcDbEntity
  8
0
  6
Continuous
 62
     7
100
AcDbLine
 10
301.986195764109
 20
133.6998154739122
 30
0.0
 11
303.986195764109
 21
133.6998154739122
 31
0.0
1001
PHOENIX7010
1002
{
1070
    62
1070
     7
1070
    41
1040
1.0
1002
}
  0
LINE
  5
82D
330
1A
100
AcDbEntity
  8
0
  6
Continuous
 62
     7
100
AcDbLine
 10
303.986195764109
 20
155.1998154739123
 30
0.0
 11
301.986195764109
 21
155.1998154739123
 31
0.0
1001
PHOENIX7010
1002
{
1070
    62
1070
     7
1070
    41
1040
1.0
1002
}
  0
LINE
  5
82E
330
1A
100
AcDbEntity
  8
0
  6
Continuous
 62
     7
100
AcDbLine
 10
301.986195764109
 20
229.1998154739123
 30
0.0
 11
303.986195764109
 21
229.1998154739123
 31
0.0
1001
PHOENIX7010
1002
{
1070
    62
1070
     7
1070
    41
1040
1.0
1002
}
  0
LINE
  5
82F
330
1A
100
AcDbEntity
  8
0
  6
Continuous
 62
     7
100
AcDbLine
 10
303.986195764109
 20
250.6998154739123
 30
0.0
 11
301.986195764109
 21
250.6998154739123
 31
0.0
1001
PHOENIX7010
1002
{
1070
    62
1070
     7
1070
    41
1040
1.0
1002
}
  0
LINE
  5
830
330
1A
100
AcDbEntity
  8
0
  6
Continuous
 62
     7
100
AcDbLine
 10
301.986195764109
 20
254.6998154739123
 30
0.0
 11
303.986195764109
 21
254.6998154739123
 31
0.0
1001
PHOENIX7010
1002
{
1070
    62
1070
     7
1070
    41
1040
1.0
1002
}
  0
LINE
  5
831
330
1A
100
AcDbEntity
  8
0
  6
Continuous
 62
     1
100
AcDbLine
 10
299.986195764109
 20
192.1998154739123
 30
0.0
 11
305.986195764109
 21
192.1998154739123
 31
0.0
1001
PHOENIX7010
1002
{
1070
    62
1070
     1
1070
    41
1040
1.0
1002
}
  0
LINE
  5
832
330
1A
100
AcDbEntity
  8
0
  6
Continuous
 62
     7
100
AcDbLine
 10
303.986195764109
 20
256.9498154739123
 30
0.0
 11
301.986195764109
 21
256.9498154739123
 31
0.0
1001
PHOENIX7010
1002
{
1070
    62
1070
     7
1070
    41
1040
1.0
1002
}
  0
LINE
  5
833
102
{ACAD_REACTORS
330
976
102
}
330
1A
100
AcDbEntity
  8
0
  6
Continuous
 62
     7
100
AcDbLine
 10
303.986195764109
 20
127.4498154739122
 30
0.0
 11
303.986195764109
 21
256.9498154739123
 31
0.0
1001
PHOENIX7010
1002
{
1070
    62
1070
     7
1070
    41
1040
1.0
1002
}
  0
LINE
  5
834
102
{ACAD_REACTORS
330
975
102
}
330
1A
100
AcDbEntity
  8
0
  6
Continuous
 62
     7
100
AcDbLine
 10
301.986195764109
 20
127.4498154739122
 30
0.0
 11
303.986195764109
 21
127.4498154739122
 31
0.0
1001
PHOENIX7010
1002
{
1070
    62
1070
     7
1070
    41
1040
1.0
1002
}
  0
LINE
  5
835
330
1A
100
AcDbEntity
  8
0
  6
Continuous
 62
     7
100
AcDbLine
 10
301.986195764109
 20
256.9498154739123
 30
0.0
 11
301.986195764109
 21
127.4498154739122
 31
0.0
1001
PHOENIX7010
1002
{
1070
    62
1070
     7
1070
    41
1040
1.0
1002
}
  0
DIMENSION
  5
836
102
{ACAD_REACTORS
330
977
102
}
330
1A
100
AcDbEntity
  8
0
  6
Continuous
 62
     7
100
AcDbDimension
  2
*D13
 10
303.986195764109
 20
117.4498154739123
 30
0.0
 11
313.950509248361
 21
117.4498154739123
 31
0.0
 70
   160
 71
     5
 42
2.0
  3
PHOENIX
100
AcDbAlignedDimension
 13
301.986195764109
 23
127.4498154739122
 33
0.0
 14
303.986195764109
 24
127.4498154739122
 34
0.0
100
AcDbRotatedDimension
1001
ACAD
1000
DSTYLE
1002
{
1070
   147
1040
1.25
1002
}
  0
TEXT
  5
153E
102
{ACAD_REACTORS
330
15E4
102
}
330
1A
100
AcDbEntity
  8
0
  6
Continuous
 62
     1
370
    25
100
AcDbText
 10
348.0
 20
103.25
 30
0.0
 40
2.5
  1
Phenolhartpapier nach
 41
1.399999999999999
 11
348.0
 21
102.5
 31
0.0
100
AcDbText
 73
     1
1001
PHOENIX7010
1002
{
1070
    41
1040
1.0
1070
    62
1070
     1
1002
}
  0
TEXT
  5
153F
102
{ACAD_REACTORS
330
15E4
102
}
330
1A
100
AcDbEntity
  8
0
  6
Continuous
 62
     1
370
    25
100
AcDbText
 10
323.9999999999993
 20
103.2500000000002
 30
0.0
 40
2.5
  1
Material  :
 41
1.399999999999999
 11
323.9999999999993
 21
102.5000000000002
 31
0.0
100
AcDbText
 73
     1
1001
PHOENIX7010
1002
{
1070
    41
1040
1.0
1070
    62
1070
     1
1002
}
  0
LINE
  5
1540
102
{ACAD_REACTORS
330
15D6
102
}
330
1A
100
AcDbEntity
  8
0
  6
Continuous
 62
     5
370
    25
100
AcDbLine
 10
324.5000013512063
 20
118.5
 30
0.0
 11
415.0
 21
118.5
 31
0.0
1001
PHOENIX7010
1002
{
1070
    62
1070
     5
1070
    41
1040
1.0
1002
}
  0
ARC
  5
1541
102
{ACAD_REACTORS
330
15D6
102
}
330
1A
100
AcDbEntity
  8
0
  6
Continuous
 62
     5
370
    25
100
AcDbCircle
 10
324.5000013512063
 20
116.0
 30
0.0
 40
2.5
100
AcDbArc
 50
90.0
 51
180.0
1001
PHOENIX7010
1002
{
1070
    62
1070
     5
1070
    41
1040
1.0
1002
}
  0
LINE
  5
1542
102
{ACAD_REACTORS
330
15D6
102
}
330
1A
100
AcDbEntity
  8
0
  6
Continuous
 62
     5
370
    25
100
AcDbLine
 10
322.0000013512063
 20
116.0
 30
0.0
 11
321.9999988739935
 21
105.0000000000004
 31
0.0
1001
PHOENIX7010
1002
{
1070
    62
1070
     5
1070
    41
1040
1.0
1002
}
  0
MTEXT
  5
1543
102
{ACAD_REACTORS
330
15D7
102
}
330
1A
100
AcDbEntity
  8
0
  6
Continuous
 62
     5
370
    25
100
AcDbMText
 10
324.0000005630029
 20
113.4999999999999
 30
0.0
 40
2.5
 41
0.0
 71
     7
 72
     5
  1
Artikel-Nr.:
 73
     1
 44
1.0
1001
PHOENIX7010
1002
{
1070
    41
1040
1.0
1070
    62
1070
     7
1002
}
1001
ACAD
1000
MTEXTBEGIN
1070
    73
1070
     1
1070
    44
1040
1.0
1070
    74
1070
     0
1000
MTEXTEND
  0
LINE
  5
1544
102
{ACAD_REACTORS
330
15DD
102
}
330
1A
100
AcDbEntity
  8
0
  6
Continuous
 62
     5
370
    25
100
AcDbLine
 10
396.5999999999992
 20
39.87401644621252
 30
0.0
 11
396.5999999999992
 21
37.07401644621246
 31
0.0
1001
PHOENIX7010
1002
{
1070
    62
1070
     5
1070
    41
1040
1.0
1002
}
  0
LINE
  5
1545
102
{ACAD_REACTORS
330
15DD
102
}
330
1A
100
AcDbEntity
  8
0
  6
Continuous
 62
     5
370
    25
100
AcDbLine
 10
398.0695999999994
 20
39.87401644621252
 30
0.0
 11
396.5999999999992
 21
39.87401644621252
 31
0.0
1001
PHOENIX7010
1002
{
1070
    62
1070
     5
1070
    41
1040
1.0
1002
}
  0
ARC
  5
1546
102
{ACAD_REACTORS
330
15DD
102
}
330
1A
100
AcDbEntity
  8
0
  6
Continuous
 62
     5
370
    25
100
AcDbCircle
 10
398.0699999999993
 20
39.17401644621248
 30
0.0
 40
0.7022364274231689
100
AcDbArc
 50
293.498565675962
 51
90.03274044187762
1001
PHOENIX7010
1002
{
1070
    62
1070
     5
1070
    41
1040
1.0
1002
}
  0
LINE
  5
1547
102
{ACAD_REACTORS
330
15DD
102
}
330
1A
100
AcDbEntity
  8
0
  6
Continuous
 62
     5
370
    25
100
AcDbLine
 10
397.9999999999993
 20
37.07401644621246
 30
0.0
 11
396.5999999999992
 21
37.07401644621246
 31
0.0
1001
PHOENIX7010
1002
{
1070
    62
1070
     5
1070
    41
1040
1.0
1002
}
  0
ARC
  5
1548
102
{ACAD_REACTORS
330
15DD
102
}
330
1A
100
AcDbEntity
  8
0
  6
Continuous
 62
     5
370
    25
100
AcDbCircle
 10
398.0920632911245
 20
37.82195315507659
 30
0.0
 40
0.7535814289374009
100
AcDbArc
 50
262.9827781719434
 51
69.9840856104721
1001
PHOENIX7010
1002
{
1070
    62
1070
     5
1070
    41
1040
1.0
1002
}
  0
TEXT
  5
1549
102
{ACAD_REACTORS
330
15DE
102
}
330
1A
100
AcDbEntity
  8
0
  6
Continuous
 62
     1
370
    25
100
AcDbText
 10
386.1794089897821
 20
33.734112845136
 30
0.0
 40
1.399999999999999
  1
A Phoenix Mecano Company
 41
1.199999999999999
100
AcDbText
1001
PHOENIX7010
1002
{
1070
    62
1070
     5
1070
    41
1040
1.0
1002
}
  0
INSERT
  5
154A
102
{ACAD_REACTORS
330
15DE
102
}
330
1A
100
AcDbEntity
  8
0
  6
Continuous
 62
     1
370
    25
100
AcDbBlockReference
  2
*X20
 10
114.1053067642756
 20
-73.83247814040259
 30
0.0
1001
PHOENIX7010
1002
{
1070
    41
1040
1.0
1002
}
1001
ACAD
1000
HATCH
1002
{
1070
    19
1000
_U
1040
0.25
1040
0.8726646259971648
1070
     0
1000
ASC_BOUNDS
1070
     1
1070
     2
1070
     6
1005
0
1005
0
1005
0
1005
0
1005
0
1005
0
1000
ASC_SEEDPOINT
1011
-7422.0
1021
-7001.0
1031
0.0
1002
}
  0
INSERT
  5
154B
102
{ACAD_REACTORS
330
15DE
102
}
330
1A
100
AcDbEntity
  8
0
  6
Continuous
 62
     1
370
    25
100
AcDbBlockReference
  2
*X17
 10
114.1053067642756
 20
-73.83247814040259
 30
0.0
1001
PHOENIX7010
1002
{
1070
    41
1040
1.0
1002
}
1001
ACAD
1000
HATCH
1002
{
1070
    19
1000
_U
1040
0.25
1040
0.7853981633974483
1070
     0
1000
ASC_BOUNDS
1070
     1
1070
     2
1070
    10
1005
0
1005
0
1005
0
1005
0
1005
0
1005
0
1005
0
1005
0
1005
0
1005
0
1000
ASC_SEEDPOINT
1011
-7422.0
1021
-7001.0
1031
0.0
1002
}
  0
LINE
  5
154C
102
{ACAD_REACTORS
330
15DE
102
}
330
1A
100
AcDbEntity
  8
0
  6
Continuous
 62
     1
370
    25
100
AcDbLine
 10
408.5703999999992
 20
47.87401644621252
 30
0.0
 11
405.9515656638092
 21
44.75310557335092
 31
0.0
1001
PHOENIX7010
1002
{
1070
    62
1070
     1
1070
    41
1040
1.0
1002
}
  0
LINE
  5
154D
102
{ACAD_REACTORS
330
15DE
102
}
330
1A
100
AcDbEntity
  8
0
  6
Continuous
 62
     1
370
    25
100
AcDbLine
 10
403.1999999999993
 20
41.47401644621242
 30
0.0
 11
412.9999999999993
 21
41.47401644621242
 31
0.0
1001
PHOENIX7010
1002
{
1070
    62
1070
     1
1070
    41
1040
1.0
1002
}
  0
ARC
  5
154E
102
{ACAD_REACTORS
330
15DE
102
}
330
1A
100
AcDbEntity
  8
0
  6
Continuous
 62
     5
370
    25
100
AcDbCircle
 10
405.6699999999991
 20
38.96401644621244
 30
0.0
 40
0.910000000000025
100
AcDbArc
 50
270.0
 51
90.0
1001
PHOENIX7010
1002
{
1070
    62
1070
     5
1070
    41
1040
1.0
1002
}
  0
INSERT
  5
154F
102
{ACAD_REACTORS
330
15DE
102
}
330
1A
100
AcDbEntity
  8
0
  6
Continuous
 62
     1
370
    25
100
AcDbBlockReference
  2
*X16
 10
114.1053067642756
 20
-73.83247814040259
 30
0.0
1001
PHOENIX7010
1002
{
1070
    41
1040
1.0
1002
}
1001
ACAD
1000
HATCH
1002
{
1070
    19
1000
_U
1040
0.25
1040
0.7853981633974483
1070
     0
1000
ASC_BOUNDS
1070
     1
1070
     2
1070
     8
1005
0
1005
0
1005
0
1005
0
1005
0
1005
0
1005
0
1005
0
1000
ASC_SEEDPOINT
1011
-7422.0
1021
-7001.0
1031
0.0
1002
}
  0
INSERT
  5
1550
102
{ACAD_REACTORS
330
15DE
102
}
330
1A
100
AcDbEntity
  8
0
  6
Continuous
 62
     1
370
    25
100
AcDbBlockReference
  2
*X15
 10
114.1053067642756
 20
-73.83247814040259
 30
0.0
1001
PHOENIX7010
1002
{
1070
    41
1040
1.0
1002
}
1001
ACAD
1000
HATCH
1002
{
1070
    19
1000
_U
1040
0.25
1040
0.7853981633974483
1070
     0
1000
ASC_BOUNDS
1070
     1
1070
     2
1070
    14
1005
0
1005
0
1005
0
1005
0
1005
0
1005
0
1005
0
1005
0
1005
0
1005
0
1005
0
1005
0
1005
0
1005
0
1000
ASC_SEEDPOINT
1011
-7422.0
1021
-7001.0
1031
0.0
1002
}
  0
LINE
  5
1551
102
{ACAD_REACTORS
330
15DE
102
}
330
1A
100
AcDbEntity
  8
0
  6
Continuous
 62
     5
370
    25
100
AcDbLine
 10
404.4799999999992
 20
39.87401644621252
 30
0.0
 11
404.4799999999992
 21
37.07401644621246
 31
0.0
1001
PHOENIX7010
1002
{
1070
    62
1070
     5
1070
    41
1040
1.0
1002
}
  0
ARC
  5
1552
102
{ACAD_REACTORS
330
15DE
102
}
330
1A
100
AcDbEntity
  8
0
  6
Continuous
 62
     5
370
    25
100
AcDbCircle
 10
401.6239999999993
 20
38.59401644621243
 30
0.0
 40
1.34399999999988
100
AcDbArc
 50
0.0
 51
180.0
1001
PHOENIX7010
1002
{
1070
    62
1070
     5
1070
    41
1040
1.0
1002
}
  0
LINE
  5
1553
102
{ACAD_REACTORS
330
15DE
102
}
330
1A
100
AcDbEntity
  8
0
  6
Continuous
 62
     5
370
    25
100
AcDbLine
 10
396.5999999999992
 20
39.87401644621252
 30
0.0
 11
396.5999999999992
 21
37.07401644621246
 31
0.0
1001
PHOENIX7010
1002
{
1070
    62
1070
     5
1070
    41
1040
1.0
1002
}
  0
ARC
  5
1554
102
{ACAD_REACTORS
330
15DE
102
}
330
1A
100
AcDbEntity
  8
0
  6
Continuous
 62
     5
370
    25
100
AcDbCircle
 10
398.0699999999993
 20
39.17401644621248
 30
0.0
 40
0.7022364274231689
100
AcDbArc
 50
293.498565675962
 51
90.03274044187762
1001
PHOENIX7010
1002
{
1070
    62
1070
     5
1070
    41
1040
1.0
1002
}
  0
LINE
  5
1555
102
{ACAD_REACTORS
330
15DE
102
}
330
1A
100
AcDbEntity
  8
0
  6
Continuous
 62
     5
370
    25
100
AcDbLine
 10
397.9999999999993
 20
37.07401644621246
 30
0.0
 11
396.5999999999992
 21
37.07401644621246
 31
0.0
1001
PHOENIX7010
1002
{
1070
    62
1070
     5
1070
    41
1040
1.0
1002
}
  0
ARC
  5
1556
102
{ACAD_REACTORS
330
15DE
102
}
330
1A
100
AcDbEntity
  8
0
  6
Continuous
 62
     5
370
    25
100
AcDbCircle
 10
397.8599999999993
 20
37.91401644621249
 30
0.0
 40
0.4200000000000728
100
AcDbArc
 50
270.0
 51
90.0
1001
PHOENIX7010
1002
{
1070
    62
1070
     5
1070
    41
1040
1.0
1002
}
  0
ARC
  5
1557
102
{ACAD_REACTORS
330
15DE
102
}
330
1A
100
AcDbEntity
  8
0
  6
Continuous
 62
     5
370
    25
100
AcDbCircle
 10
397.8599999999993
 20
39.10401644621243
 30
0.0
 40
0.3500000000000227
100
AcDbArc
 50
270.0
 51
90.0
1001
PHOENIX7010
1002
{
1070
    62
1070
     5
1070
    41
1040
1.0
1002
}
  0
LINE
  5
1558
102
{ACAD_REACTORS
330
15DE
102
}
330
1A
100
AcDbEntity
  8
0
  6
Continuous
 62
     5
370
    25
100
AcDbLine
 10
397.8599999999993
 20
38.33401644621245
 30
0.0
 11
397.1599999999994
 21
38.33401644621245
 31
0.0
1001
PHOENIX7010
1002
{
1070
    62
1070
     5
1070
    41
1040
1.0
1002
}
  0
LINE
  5
1559
102
{ACAD_REACTORS
330
15DE
102
}
330
1A
100
AcDbEntity
  8
0
  6
Continuous
 62
     5
370
    25
100
AcDbLine
 10
397.1599999999994
 20
38.33401644621245
 30
0.0
 11
397.1599999999994
 21
37.49401644621241
 31
0.0
1001
PHOENIX7010
1002
{
1070
    62
1070
     5
1070
    41
1040
1.0
1002
}
  0
LINE
  5
155A
102
{ACAD_REACTORS
330
15DE
102
}
330
1A
100
AcDbEntity
  8
0
  6
Continuous
 62
     5
370
    25
100
AcDbLine
 10
397.1599999999994
 20
37.49401644621241
 30
0.0
 11
397.8599999999993
 21
37.49401644621241
 31
0.0
1001
PHOENIX7010
1002
{
1070
    62
1070
     5
1070
    41
1040
1.0
1002
}
  0
LINE
  5
155B
102
{ACAD_REACTORS
330
15DE
102
}
330
1A
100
AcDbEntity
  8
0
  6
Continuous
 62
     5
370
    25
100
AcDbLine
 10
397.8599999999993
 20
39.45401644621245
 30
0.0
 11
397.1599999999994
 21
39.45401644621245
 31
0.0
1001
PHOENIX7010
1002
{
1070
    62
1070
     5
1070
    41
1040
1.0
1002
}
  0
LINE
  5
155C
102
{ACAD_REACTORS
330
15DE
102
}
330
1A
100
AcDbEntity
  8
0
  6
Continuous
 62
     5
370
    25
100
AcDbLine
 10
397.1599999999994
 20
39.45401644621245
 30
0.0
 11
397.1599999999994
 21
38.7540164462124
 31
0.0
1001
PHOENIX7010
1002
{
1070
    62
1070
     5
1070
    41
1040
1.0
1002
}
  0
LINE
  5
155D
102
{ACAD_REACTORS
330
15DE
102
}
330
1A
100
AcDbEntity
  8
0
  6
Continuous
 62
     5
370
    25
100
AcDbLine
 10
397.1599999999994
 20
38.7540164462124
 30
0.0
 11
397.8599999999993
 21
38.7540164462124
 31
0.0
1001
PHOENIX7010
1002
{
1070
    62
1070
     5
1070
    41
1040
1.0
1002
}
  0
ARC
  5
155E
102
{ACAD_REACTORS
330
15DE
102
}
330
1A
100
AcDbEntity
  8
0
  6
Continuous
 62
     5
370
    25
100
AcDbCircle
 10
401.6239999999993
 20
38.34801644621246
 30
0.0
 40
0.7839999999999919
100
AcDbArc
 50
180.0
 51
0.0
1001
PHOENIX7010
1002
{
1070
    62
1070
     5
1070
    41
1040
1.0
1002
}
  0
ARC
  5
155F
102
{ACAD_REACTORS
330
15DE
102
}
330
1A
100
AcDbEntity
  8
0
  6
Continuous
 62
     5
370
    25
100
AcDbCircle
 10
401.6239999999993
 20
38.59401644621243
 30
0.0
 40
0.7839999999998213
100
AcDbArc
 50
0.0
 51
180.0
1001
PHOENIX7010
1002
{
1070
    62
1070
     5
1070
    41
1040
1.0
1002
}
  0
ARC
  5
1560
102
{ACAD_REACTORS
330
15DE
102
}
330
1A
100
AcDbEntity
  8
0
  6
Continuous
 62
     5
370
    25
100
AcDbCircle
 10
401.6239999999993
 20
38.34801644621246
 30
0.0
 40
1.34400000000005
100
AcDbArc
 50
180.0
 51
0.0
1001
PHOENIX7010
1002
{
1070
    62
1070
     5
1070
    41
1040
1.0
1002
}
  0
ARC
  5
1561
102
{ACAD_REACTORS
330
15DE
102
}
330
1A
100
AcDbEntity
  8
0
  6
Continuous
 62
     5
370
    25
100
AcDbCircle
 10
401.6239999999993
 20
38.34801644621246
 30
0.0
 40
0.7840000000000446
100
AcDbArc
 50
174.7490656834366
 51
5.250934316563351
1001
PHOENIX7010
1002
{
1070
    62
1070
     5
1070
    41
1040
1.0
1002
}
  0
ARC
  5
1562
102
{ACAD_REACTORS
330
15DE
102
}
330
1A
100
AcDbEntity
  8
0
  6
Continuous
 62
     5
370
    25
100
AcDbCircle
 10
401.6239999999993
 20
38.59401644621243
 30
0.0
 40
0.783999999999813
100
AcDbArc
 50
354.7490656834496
 51
185.2509343165504
1001
PHOENIX7010
1002
{
1070
    62
1070
     5
1070
    41
1040
1.0
1002
}
  0
ARC
  5
1563
102
{ACAD_REACTORS
330
15DE
102
}
330
1A
100
AcDbEntity
  8
0
  6
Continuous
 62
     5
370
    25
100
AcDbCircle
 10
401.6239999999993
 20
38.34801644621246
 30
0.0
 40
0.7840000000000446
100
AcDbArc
 50
174.7490656834366
 51
5.250934316563351
1001
PHOENIX7010
1002
{
1070
    62
1070
     5
1070
    41
1040
1.0
1002
}
  0
ARC
  5
1564
102
{ACAD_REACTORS
330
15DE
102
}
330
1A
100
AcDbEntity
  8
0
  6
Continuous
 62
     5
370
    25
100
AcDbCircle
 10
401.6239999999993
 20
38.59401644621243
 30
0.0
 40
0.783999999999813
100
AcDbArc
 50
354.7490656834496
 51
185.2509343165504
1001
PHOENIX7010
1002
{
1070
    62
1070
     5
1070
    41
1040
1.0
1002
}
  0
LINE
  5
1565
102
{ACAD_REACTORS
330
15DE
102
}
330
1A
100
AcDbEntity
  8
0
  6
Continuous
 62
     5
370
    25
100
AcDbLine
 10
400.8399999999992
 20
38.34801644621246
 30
0.0
 11
400.8399999999992
 21
38.59401644621243
 31
0.0
1001
PHOENIX7010
1002
{
1070
    62
1070
     5
1070
    41
1040
1.0
1002
}
  0
LINE
  5
1566
102
{ACAD_REACTORS
330
15DE
102
}
330
1A
100
AcDbEntity
  8
0
  6
Continuous
 62
     5
370
    25
100
AcDbLine
 10
400.2799999999992
 20
38.34801644621246
 30
0.0
 11
400.2799999999992
 21
38.59401644621243
 31
0.0
1001
PHOENIX7010
1002
{
1070
    62
1070
     5
1070
    41
1040
1.0
1002
}
  0
ARC
  5
1567
102
{ACAD_REACTORS
330
15DE
102
}
330
1A
100
AcDbEntity
  8
0
  6
Continuous
 62
     5
370
    25
100
AcDbCircle
 10
398.0920632911245
 20
37.82195315507659
 30
0.0
 40
0.7535814289373106
100
AcDbArc
 50
262.9827781720089
 51
69.98408561048657
1001
PHOENIX7010
1002
{
1070
    62
1070
     5
1070
    41
1040
1.0
1002
}
  0
ARC
  5
1568
102
{ACAD_REACTORS
330
15DE
102
}
330
1A
100
AcDbEntity
  8
0
  6
Continuous
 62
     5
370
    25
100
AcDbCircle
 10
405.5299999999992
 20
38.96401644621244
 30
0.0
 40
0.4900000000000091
100
AcDbArc
 50
270.0
 51
90.0
1001
PHOENIX7010
1002
{
1070
    62
1070
     5
1070
    41
1040
1.0
1002
}
  0
LINE
  5
1569
102
{ACAD_REACTORS
330
15DE
102
}
330
1A
100
AcDbEntity
  8
0
  6
Continuous
 62
     5
370
    25
100
AcDbLine
 10
405.5299999999992
 20
38.47401644621243
 30
0.0
 11
405.0399999999992
 21
38.47401644621243
 31
0.0
1001
PHOENIX7010
1002
{
1070
    62
1070
     5
1070
    41
1040
1.0
1002
}
  0
LINE
  5
156A
102
{ACAD_REACTORS
330
15DE
102
}
330
1A
100
AcDbEntity
  8
0
  6
Continuous
 62
     5
370
    25
100
AcDbLine
 10
405.0399999999992
 20
38.47401644621243
 30
0.0
 11
405.0399999999992
 21
39.45401644621245
 31
0.0
1001
PHOENIX7010
1002
{
1070
    62
1070
     5
1070
    41
1040
1.0
1002
}
  0
LINE
  5
156B
102
{ACAD_REACTORS
330
15DE
102
}
330
1A
100
AcDbEntity
  8
0
  6
Continuous
 62
     5
370
    25
100
AcDbLine
 10
405.0399999999992
 20
39.45401644621245
 30
0.0
 11
405.5299999999992
 21
39.45401644621245
 31
0.0
1001
PHOENIX7010
1002
{
1070
    62
1070
     5
1070
    41
1040
1.0
1002
}
  0
LINE
  5
156C
102
{ACAD_REACTORS
330
15DE
102
}
330
1A
100
AcDbEntity
  8
0
  6
Continuous
 62
     5
370
    25
100
AcDbLine
 10
404.4799999999992
 20
37.07401644621246
 30
0.0
 11
405.0399999999992
 21
37.07401644621246
 31
0.0
1001
PHOENIX7010
1002
{
1070
    62
1070
     5
1070
    41
1040
1.0
1002
}
  0
LINE
  5
156D
102
{ACAD_REACTORS
330
15DE
102
}
330
1A
100
AcDbEntity
  8
0
  6
Continuous
 62
     5
370
    25
100
AcDbLine
 10
405.0399999999992
 20
37.07401644621246
 30
0.0
 11
405.0399999999992
 21
38.05401644621247
 31
0.0
1001
PHOENIX7010
1002
{
1070
    62
1070
     5
1070
    41
1040
1.0
1002
}
  0
LINE
  5
156E
102
{ACAD_REACTORS
330
15DE
102
}
330
1A
100
AcDbEntity
  8
0
  6
Continuous
 62
     5
370
    25
100
AcDbLine
 10
405.0399999999992
 20
38.05401644621247
 30
0.0
 11
405.6699999999991
 21
38.05401644621247
 31
0.0
1001
PHOENIX7010
1002
{
1070
    62
1070
     5
1070
    41
1040
1.0
1002
}
  0
LINE
  5
156F
102
{ACAD_REACTORS
330
15DE
102
}
330
1A
100
AcDbEntity
  8
0
  6
Continuous
 62
     5
370
    25
100
AcDbLine
 10
402.407999999999
 20
38.34801644621246
 30
0.0
 11
402.407999999999
 21
38.59401644621243
 31
0.0
1001
PHOENIX7010
1002
{
1070
    62
1070
     5
1070
    41
1040
1.0
1002
}
  0
LINE
  5
1570
102
{ACAD_REACTORS
330
15DE
102
}
330
1A
100
AcDbEntity
  8
0
  6
Continuous
 62
     5
370
    25
100
AcDbLine
 10
402.9679999999991
 20
38.34801644621246
 30
0.0
 11
402.9679999999991
 21
38.59401644621243
 31
0.0
1001
PHOENIX7010
1002
{
1070
    62
1070
     5
1070
    41
1040
1.0
1002
}
  0
LINE
  5
1571
102
{ACAD_REACTORS
330
15DE
102
}
330
1A
100
AcDbEntity
  8
0
  6
Continuous
 62
     5
370
    25
100
AcDbLine
 10
398.0695999999994
 20
39.87401644621252
 30
0.0
 11
396.5999999999992
 21
39.87401644621252
 31
0.0
1001
PHOENIX7010
1002
{
1070
    62
1070
     5
1070
    41
1040
1.0
1002
}
  0
INSERT
  5
1572
102
{ACAD_REACTORS
330
15DE
102
}
330
1A
100
AcDbEntity
  8
0
  6
Continuous
 62
     5
370
    25
100
AcDbBlockReference
  2
*X21
 10
114.1053067642756
 20
-73.83247814040259
 30
0.0
1001
PHOENIX7010
1002
{
1070
    41
1040
1.0
1002
}
1001
ACAD
1000
HATCH
1002
{
1070
    19
1000
_U
1040
0.6
1040
0.7853981633974483
1070
     0
1002
}
  0
LINE
  5
1573
102
{ACAD_REACTORS
330
15DE
102
}
330
1A
100
AcDbEntity
  8
0
  6
Continuous
 62
     5
370
    25
100
AcDbLine
 10
398.0695999999994
 20
39.87401644621252
 30
0.0
 11
398.0695987221063
 21
39.87625275898484
 31
0.0
1001
PHOENIX7010
1002
{
1070
    62
1070
     5
1070
    41
1040
1.0
1002
}
  0
LINE
  5
1574
102
{ACAD_REACTORS
330
15DE
102
}
330
1A
100
AcDbEntity
  8
0
  6
Continuous
 62
     1
370
    25
100
AcDbLine
 10
405.9118627916113
 20
44.70579096325354
 30
0.0
 11
403.2975130330434
 21
41.59022444030665
 31
0.0
1001
PHOENIX7010
1002
{
1070
    62
1070
     1
1070
    41
1040
1.0
1002
}
  0
LINE
  5
1575
102
{ACAD_REACTORS
330
15DE
102
}
330
1A
100
AcDbEntity
  8
0
  6
Continuous
 62
     1
370
    25
100
AcDbLine
 10
403.2975130330434
 20
41.59022444030665
 30
0.0
 11
403.1999999999993
 21
41.47401644621242
 31
0.0
1001
PHOENIX7010
1002
{
1070
    62
1070
     1
1070
    41
1040
1.0
1002
}
  0
LINE
  5
1576
102
{ACAD_REACTORS
330
15DE
102
}
330
1A
100
AcDbEntity
  8
0
  6
Continuous
 62
     5
370
    25
100
AcDbLine
 10
405.6699999999991
 20
39.87401644621252
 30
0.0
 11
404.4799999999992
 21
39.87401644621252
 31
0.0
1001
PHOENIX7010
1002
{
1070
    62
1070
     5
1070
    41
1040
1.0
1002
}
  0
INSERT
  5
1577
102
{ACAD_REACTORS
330
15DE
102
}
330
1A
100
AcDbEntity
  8
0
  6
Continuous
 62
     1
370
    25
100
AcDbBlockReference
  2
*X19
 10
114.1053067642756
 20
-73.83247814040259
 30
0.0
1001
PHOENIX7010
1002
{
1070
    41
1040
1.0
1002
}
1001
ACAD
1000
HATCH
1002
{
1070
    19
1000
_U
1040
0.25
1040
0.7853981633974483
1070
     0
1000
ASC_BOUNDS
1070
     1
1070
     2
1070
    14
1005
0
1005
0
1005
0
1005
0
1005
0
1005
0
1005
0
1005
0
1005
0
1005
0
1005
0
1005
0
1005
0
1005
0
1000
ASC_SEEDPOINT
1011
-7422.0
1021
-7001.0
1031
0.0
1002
}
  0
INSERT
  5
1578
102
{ACAD_REACTORS
330
15DE
102
}
330
1A
100
AcDbEntity
  8
0
  6
Continuous
 62
     1
370
    25
100
AcDbBlockReference
  2
*X18
 10
114.1053067642756
 20
-73.83247814040259
 30
0.0
1001
PHOENIX7010
1002
{
1070
    41
1040
1.0
1002
}
1001
ACAD
1000
HATCH
1002
{
1070
    19
1000
_U
1040
0.25
1040
0.7853981633974483
1070
     0
1000
ASC_BOUNDS
1070
     1
1070
     2
1070
     6
1005
0
1005
0
1005
0
1005
0
1005
0
1005
0
1000
ASC_SEEDPOINT
1011
-7422.0
1021
-7001.0
1031
0.0
1002
}
  0
LINE
  5
1579
102
{ACAD_REACTORS
330
15DE
102
}
330
1A
100
AcDbEntity
  8
0
  6
Continuous
 62
     5
370
    25
100
AcDbLine
 10
412.9999999999993
 20
37.07401644621246
 30
0.0
 11
412.0199999999991
 21
39.87401644621252
 31
0.0
1001
PHOENIX7010
1002
{
1070
    62
1070
     5
1070
    41
1040
1.0
1002
}
  0
LINE
  5
157A
102
{ACAD_REACTORS
330
15DE
102
}
330
1A
100
AcDbEntity
  8
0
  6
Continuous
 62
     5
370
    25
100
AcDbLine
 10
410.4799999999992
 20
37.07401644621246
 30
0.0
 11
411.4599999999991
 21
39.87401644621252
 31
0.0
1001
PHOENIX7010
1002
{
1070
    62
1070
     5
1070
    41
1040
1.0
1002
}
  0
LINE
  5
157B
102
{ACAD_REACTORS
330
15DE
102
}
330
1A
100
AcDbEntity
  8
0
  6
Continuous
 62
     5
370
    25
100
AcDbLine
 10
408.4399999999992
 20
37.49401644621241
 30
0.0
 11
408.4399999999992
 21
39.87401644621252
 31
0.0
1001
PHOENIX7010
1002
{
1070
    62
1070
     5
1070
    41
1040
1.0
1002
}
  0
LINE
  5
157C
102
{ACAD_REACTORS
330
15DE
102
}
330
1A
100
AcDbEntity
  8
0
  6
Continuous
 62
     5
370
    25
100
AcDbLine
 10
407.8799999999992
 20
39.87401644621252
 30
0.0
 11
407.8799999999992
 21
37.07401644621246
 31
0.0
1001
PHOENIX7010
1002
{
1070
    62
1070
     5
1070
    41
1040
1.0
1002
}
  0
LINE
  5
157D
102
{ACAD_REACTORS
330
15DE
102
}
330
1A
100
AcDbEntity
  8
0
  6
Continuous
 62
     5
370
    25
100
AcDbLine
 10
409.4799999999992
 20
37.07401644621246
 30
0.0
 11
409.4799999999992
 21
37.49401644621241
 31
0.0
1001
PHOENIX7010
1002
{
1070
    62
1070
     5
1070
    41
1040
1.0
1002
}
  0
LINE
  5
157E
102
{ACAD_REACTORS
330
15DE
102
}
330
1A
100
AcDbEntity
  8
0
  6
Continuous
 62
     5
370
    25
100
AcDbLine
 10
409.4799999999992
 20
37.49401644621241
 30
0.0
 11
408.4399999999992
 21
37.49401644621241
 31
0.0
1001
PHOENIX7010
1002
{
1070
    62
1070
     5
1070
    41
1040
1.0
1002
}
  0
LINE
  5
157F
102
{ACAD_REACTORS
330
15DE
102
}
330
1A
100
AcDbEntity
  8
0
  6
Continuous
 62
     5
370
    25
100
AcDbLine
 10
407.8799999999992
 20
37.07401644621246
 30
0.0
 11
409.4799999999992
 21
37.07401644621246
 31
0.0
1001
PHOENIX7010
1002
{
1070
    62
1070
     5
1070
    41
1040
1.0
1002
}
  0
LINE
  5
1580
102
{ACAD_REACTORS
330
15DE
102
}
330
1A
100
AcDbEntity
  8
0
  6
Continuous
 62
     5
370
    25
100
AcDbLine
 10
412.9999999999993
 20
37.07401644621246
 30
0.0
 11
412.4399999999992
 21
37.07401644621246
 31
0.0
1001
PHOENIX7010
1002
{
1070
    62
1070
     5
1070
    41
1040
1.0
1002
}
  0
LINE
  5
1581
102
{ACAD_REACTORS
330
15DE
102
}
330
1A
100
AcDbEntity
  8
0
  6
Continuous
 62
     5
370
    25
100
AcDbLine
 10
412.4399999999992
 20
37.07401644621246
 30
0.0
 11
412.2719999999992
 21
37.63401644621251
 31
0.0
1001
PHOENIX7010
1002
{
1070
    62
1070
     5
1070
    41
1040
1.0
1002
}
  0
LINE
  5
1582
102
{ACAD_REACTORS
330
15DE
102
}
330
1A
100
AcDbEntity
  8
0
  6
Continuous
 62
     5
370
    25
100
AcDbLine
 10
411.7399999999993
 20
37.63401644621251
 30
0.0
 11
412.2719999999992
 21
37.63401644621251
 31
0.0
1001
PHOENIX7010
1002
{
1070
    62
1070
     5
1070
    41
1040
1.0
1002
}
  0
LINE
  5
1583
102
{ACAD_REACTORS
330
15DE
102
}
330
1A
100
AcDbEntity
  8
0
  6
Continuous
 62
     5
370
    25
100
AcDbLine
 10
411.7399999999993
 20
38.05401644621247
 30
0.0
 11
412.1319999999992
 21
38.05401644621247
 31
0.0
1001
PHOENIX7010
1002
{
1070
    62
1070
     5
1070
    41
1040
1.0
1002
}
  0
LINE
  5
1584
102
{ACAD_REACTORS
330
15DE
102
}
330
1A
100
AcDbEntity
  8
0
  6
Continuous
 62
     5
370
    25
100
AcDbLine
 10
411.7399999999993
 20
39.31401644621246
 30
0.0
 11
412.1319999999992
 21
38.05401644621247
 31
0.0
1001
PHOENIX7010
1002
{
1070
    62
1070
     5
1070
    41
1040
1.0
1002
}
  0
LINE
  5
1585
102
{ACAD_REACTORS
330
15DE
102
}
330
1A
100
AcDbEntity
  8
0
  6
Continuous
 62
     5
370
    25
100
AcDbLine
 10
411.7399999999993
 20
39.31401644621246
 30
0.0
 11
411.3479999999992
 21
38.05401644621247
 31
0.0
1001
PHOENIX7010
1002
{
1070
    62
1070
     5
1070
    41
1040
1.0
1002
}
  0
LINE
  5
1586
102
{ACAD_REACTORS
330
15DE
102
}
330
1A
100
AcDbEntity
  8
0
  6
Continuous
 62
     5
370
    25
100
AcDbLine
 10
411.7399999999993
 20
38.05401644621247
 30
0.0
 11
411.3479999999992
 21
38.05401644621247
 31
0.0
1001
PHOENIX7010
1002
{
1070
    62
1070
     5
1070
    41
1040
1.0
1002
}
  0
LINE
  5
1587
102
{ACAD_REACTORS
330
15DE
102
}
330
1A
100
AcDbEntity
  8
0
  6
Continuous
 62
     5
370
    25
100
AcDbLine
 10
411.7399999999993
 20
37.63401644621251
 30
0.0
 11
411.2079999999992
 21
37.63401644621251
 31
0.0
1001
PHOENIX7010
1002
{
1070
    62
1070
     5
1070
    41
1040
1.0
1002
}
  0
LINE
  5
1588
102
{ACAD_REACTORS
330
15DE
102
}
330
1A
100
AcDbEntity
  8
0
  6
Continuous
 62
     5
370
    25
100
AcDbLine
 10
411.0399999999993
 20
37.07401644621246
 30
0.0
 11
411.2079999999992
 21
37.63401644621251
 31
0.0
1001
PHOENIX7010
1002
{
1070
    62
1070
     5
1070
    41
1040
1.0
1002
}
  0
LINE
  5
1589
102
{ACAD_REACTORS
330
15DE
102
}
330
1A
100
AcDbEntity
  8
0
  6
Continuous
 62
     5
370
    25
100
AcDbLine
 10
410.4799999999992
 20
37.07401644621246
 30
0.0
 11
411.0399999999993
 21
37.07401644621246
 31
0.0
1001
PHOENIX7010
1002
{
1070
    62
1070
     5
1070
    41
1040
1.0
1002
}
  0
LINE
  5
158A
102
{ACAD_REACTORS
330
15DE
102
}
330
1A
100
AcDbEntity
  8
0
  6
Continuous
 62
     1
370
    25
100
AcDbLine
 10
412.8895999999992
 20
47.74242171982632
 30
0.0
 11
408.5703999999992
 21
42.59401644621243
 31
0.0
1001
PHOENIX7010
1002
{
1070
    62
1070
     1
1070
    41
1040
1.0
1002
}
  0
LINE
  5
158B
102
{ACAD_REACTORS
330
15DE
102
}
330
1A
100
AcDbEntity
  8
0
  6
Continuous
 62
     1
370
    25
100
AcDbLine
 10
408.5703999999992
 20
42.59401644621243
 30
0.0
 11
408.5703999999992
 21
47.87401644621252
 31
0.0
1001
PHOENIX7010
1002
{
1070
    62
1070
     1
1070
    41
1040
1.0
1002
}
  0
LINE
  5
158C
102
{ACAD_REACTORS
330
15DE
102
}
330
1A
100
AcDbEntity
  8
0
  6
Continuous
 62
     5
370
    25
100
AcDbLine
 10
408.4399999999992
 20
39.87401644621252
 30
0.0
 11
407.8799999999992
 21
39.87401644621252
 31
0.0
1001
PHOENIX7010
1002
{
1070
    62
1070
     5
1070
    41
1040
1.0
1002
}
  0
LINE
  5
158D
102
{ACAD_REACTORS
330
15DE
102
}
330
1A
100
AcDbEntity
  8
0
  6
Continuous
 62
     1
370
    25
100
AcDbLine
 10
412.9999999999993
 20
41.47401644621242
 30
0.0
 11
412.9999999999993
 21
47.87401644621252
 31
0.0
1001
PHOENIX7010
1002
{
1070
    62
1070
     1
1070
    41
1040
1.0
1002
}
  0
LINE
  5
158E
102
{ACAD_REACTORS
330
15DE
102
}
330
1A
100
AcDbEntity
  8
0
  6
Continuous
 62
     5
370
    25
100
AcDbLine
 10
411.7399999999993
 20
39.87401644621252
 30
0.0
 11
412.0199999999991
 21
39.87401644621252
 31
0.0
1001
PHOENIX7010
1002
{
1070
    62
1070
     5
1070
    41
1040
1.0
1002
}
  0
LINE
  5
158F
102
{ACAD_REACTORS
330
15DE
102
}
330
1A
100
AcDbEntity
  8
0
  6
Continuous
 62
     5
370
    25
100
AcDbLine
 10
411.7399999999993
 20
39.87401644621252
 30
0.0
 11
411.4599999999991
 21
39.87401644621252
 31
0.0
1001
PHOENIX7010
1002
{
1070
    62
1070
     5
1070
    41
1040
1.0
1002
}
  0
LINE
  5
1590
102
{ACAD_REACTORS
330
15DE
102
}
330
1A
100
AcDbEntity
  8
0
  6
Continuous
 62
     1
370
    25
100
AcDbLine
 10
412.9999999999993
 20
47.87401644621252
 30
0.0
 11
412.8895999999992
 21
47.74242171982632
 31
0.0
1001
PHOENIX7010
1002
{
1070
    62
1070
     1
1070
    41
1040
1.0
1002
}
  0
TEXT
  5
1591
102
{ACAD_REACTORS
330
15DF
102
}
330
1A
100
AcDbEntity
  8
0
  6
Continuous
 62
     1
370
    25
100
AcDbText
 10
323.9999999999993
 20
98.25000000000024
 30
0.0
 40
2.5
  1
.
 41
1.399999999999999
 11
323.9999999999993
 21
97.50000000000023
 31
0.0
100
AcDbText
 73
     1
1001
PHOENIX7010
1002
{
1070
    41
1040
1.0
1070
    62
1070
     1
1002
}
  0
TEXT
  5
1592
102
{ACAD_REACTORS
330
15DF
102
}
330
1A
100
AcDbEntity
  8
0
  6
Continuous
 62
     1
370
    25
100
AcDbText
 10
348.0
 20
93.25000000000001
 30
0.0
 40
2.5
  1
DIN ISO 2768-mK für Bearbeitung
 41
1.3
 11
348.0
 21
92.5
 31
0.0
100
AcDbText
 73
     1
1001
PHOENIX7010
1002
{
1070
    41
1040
1.0
1070
    62
1070
     1
1002
}
  0
LINE
  5
1593
102
{ACAD_REACTORS
330
15DF
102
}
330
1A
100
AcDbEntity
  8
0
  6
Continuous
 62
     5
370
    25
100
AcDbLine
 10
414.9999999999993
 20
83.00000000000023
 30
0.0
 11
324.4999999999993
 21
83.00000000000023
 31
0.0
1001
PHOENIX7010
1002
{
1070
    62
1070
     5
1070
    41
1040
1.0
1002
}
  0
LINE
  5
1594
102
{ACAD_REACTORS
330
15DF
102
}
330
1A
100
AcDbEntity
  8
0
  6
Continuous
 62
     5
370
    25
100
AcDbLine
 10
415.0
 20
107.5000000000002
 30
0.0
 11
324.4999999999993
 21
107.5000000000002
 31
0.0
1001
PHOENIX7010
1002
{
1070
    62
1070
     5
1070
    41
1040
1.0
1002
}
  0
LINE
  5
1595
102
{ACAD_REACTORS
330
15DF
102
}
330
1A
100
AcDbEntity
  8
0
  6
Continuous
 62
     5
370
    25
100
AcDbLine
 10
414.9999999999993
 20
68.00000000000022
 30
0.0
 11
324.4999999999993
 21
68.00000000000022
 31
0.0
1001
PHOENIX7010
1002
{
1070
    62
1070
     5
1070
    41
1040
1.0
1002
}
  0
LINE
  5
1596
102
{ACAD_REACTORS
330
15DF
102
}
330
1A
100
AcDbEntity
  8
0
  6
Continuous
 62
     5
370
    25
100
AcDbLine
 10
414.9999999999993
 20
51.50000000000023
 30
0.0
 11
324.4999999999993
 21
51.50000000000023
 31
0.0
1001
PHOENIX7010
1002
{
1070
    62
1070
     5
1070
    41
1040
1.0
1002
}
  0
LINE
  5
1597
102
{ACAD_REACTORS
330
15DF
102
}
330
1A
100
AcDbEntity
  8
0
  6
Continuous
 62
     5
370
    25
100
AcDbLine
 10
415.0
 20
20.0
 30
0.0
 11
321.9999999999995
 21
20.0
 31
0.0
1001
PHOENIX7010
1002
{
1070
    62
1070
     5
1070
    41
1040
1.0
1002
}
  0
LINE
  5
1598
102
{ACAD_REACTORS
330
15DF
102
}
330
1A
100
AcDbEntity
  8
0
  6
Continuous
 62
     5
370
    25
100
AcDbLine
 10
414.9999999999997
 20
15.0
 30
0.0
 11
321.9999999999993
 21
15.0
 31
0.0
1001
PHOENIX7010
1002
{
1070
    62
1070
     5
1070
    41
1040
1.0
1002
}
  0
LINE
  5
1599
102
{ACAD_REACTORS
330
15DF
102
}
330
1A
100
AcDbEntity
  8
0
  6
Continuous
 62
     1
370
    25
100
AcDbLine
 10
415.0
 20
10.0
 30
0.0
 11
321.9999999999993
 21
10.0
 31
0.0
1001
PHOENIX7010
1002
{
1070
    62
1070
     1
1070
    41
1040
1.0
1002
}
  0
LINE
  5
159A
102
{ACAD_REACTORS
330
15DF
102
}
330
1A
100
AcDbEntity
  8
0
  6
Continuous
 62
     5
370
    25
100
AcDbLine
 10
414.9999999999993
 20
29.50000000000023
 30
0.0
 11
351.9999999999993
 21
29.50000000000023
 31
0.0
1001
PHOENIX7010
1002
{
1070
    62
1070
     5
1070
    41
1040
1.0
1002
}
  0
LINE
  5
159B
102
{ACAD_REACTORS
330
15DF
102
}
330
1A
100
AcDbEntity
  8
0
  6
Continuous
 62
     5
370
    25
100
AcDbLine
 10
351.9999999999993
 20
51.50000000000023
 30
0.0
 11
351.9999999999993
 21
5.0
 31
0.0
1001
PHOENIX7010
1002
{
1070
    62
1070
     5
1070
    41
1040
1.0
1002
}
  0
LINE
  5
159C
102
{ACAD_REACTORS
330
15DF
102
}
330
1A
100
AcDbEntity
  8
0
  6
Continuous
 62
     1
370
    25
100
AcDbLine
 10
375.9999999999993
 20
20.0
 30
0.0
 11
375.9999999999993
 21
5.0
 31
0.0
1001
PHOENIX7010
1002
{
1070
    62
1070
     1
1070
    41
1040
1.0
1002
}
  0
LINE
  5
159D
102
{ACAD_REACTORS
330
15DF
102
}
330
1A
100
AcDbEntity
  8
0
  6
Continuous
 62
     5
370
    25
100
AcDbLine
 10
321.9999999999993
 20
105.0000000000004
 30
0.0
 11
321.9999999999993
 21
5.0
 31
0.0
1001
PHOENIX7010
1002
{
1070
    62
1070
     5
1070
    41
1040
1.0
1002
}
  0
TEXT
  5
159E
102
{ACAD_REACTORS
330
15DF
102
}
330
1A
100
AcDbEntity
  8
0
  6
Continuous
 62
     1
370
    25
100
AcDbText
 10
323.9999999999993
 20
6.54
 30
0.0
 40
1.8
  1
Fertigungsfreigabe :
 11
323.9999999999993
 21
6.0
 31
0.0
100
AcDbText
 73
     1
1001
PHOENIX7010
1002
{
1070
    41
1040
1.0
1070
    62
1070
     1
1002
}
  0
TEXT
  5
159F
102
{ACAD_REACTORS
330
15DF
102
}
330
1A
100
AcDbEntity
  8
0
  6
Continuous
 62
     1
370
    25
100
AcDbText
 10
323.9999999999993
 20
11.54
 30
0.0
 40
1.8
  1
geprüft :
 11
323.9999999999993
 21
11.0
 31
0.0
100
AcDbText
 73
     1
1001
PHOENIX7010
1002
{
1070
    41
1040
1.0
1070
    62
1070
     1
1002
}
  0
TEXT
  5
15A0
102
{ACAD_REACTORS
330
15DF
102
}
330
1A
100
AcDbEntity
  8
0
  6
Continuous
 62
     1
370
    25
100
AcDbText
 10
361.6373806819627
 20
16.04
 30
0.0
 40
1.8
  1
Datum
 72
     1
 11
364.9999999999995
 21
15.5
 31
0.0
100
AcDbText
 73
     1
1001
PHOENIX7010
1002
{
1070
    41
1040
1.0
1070
    62
1070
     1
1002
}
  0
ARC
  5
15A1
102
{ACAD_REACTORS
330
15DF
102
}
330
1A
100
AcDbEntity
  8
0
  6
Continuous
 62
     5
370
    25
100
AcDbCircle
 10
324.4999999999993
 20
65.50000000000022
 30
0.0
 40
2.5
100
AcDbArc
 50
90.0
 51
180.0
1001
PHOENIX7010
1002
{
1070
    62
1070
     5
1070
    41
1040
1.0
1002
}
  0
LINE
  5
15A2
102
{ACAD_REACTORS
330
15DF
102
}
330
1A
100
AcDbEntity
  8
0
  6
Continuous
 62
     5
370
    25
100
AcDbLine
 10
351.9999999999993
 20
23.5
 30
0.0
 11
321.9999999999995
 21
23.5
 31
0.0
1001
PHOENIX7010
1002
{
1070
    62
1070
     5
1070
    41
1040
1.0
1002
}
  0
TEXT
  5
15A3
102
{ACAD_REACTORS
330
15DF
102
}
330
1A
100
AcDbEntity
  8
0
  6
Continuous
 62
     7
370
    25
100
AcDbText
 10
346.9999999999993
 20
62.04999999999988
 30
0.0
 40
3.5
  1
MR 1000
 41
1.5
 11
346.9999999999993
 21
60.99999999999988
 31
0.0
100
AcDbText
 73
     1
1001
PHOENIX7010
1002
{
1070
    41
1040
1.0
1070
    62
1070
     7
1002
}
  0
TEXT
  5
15A4
102
{ACAD_REACTORS
330
15DF
102
}
330
1A
100
AcDbEntity
  8
0
  6
Continuous
 62
     7
370
    25
100
AcDbText
 10
346.9999999999993
 20
55.39999999999991
 30
0.0
 40
3.5
  1
Grundzeichnung
 41
1.399999999999999
 11
346.9999999999993
 21
54.34999999999991
 31
0.0
100
AcDbText
 73
     1
1001
PHOENIX7010
1002
{
1070
    41
1040
1.0
1070
    62
1070
     7
1002
}
  0
LINE
  5
15A5
102
{ACAD_REACTORS
330
15DF
102
}
330
1A
100
AcDbEntity
  8
0
  6
Continuous
 62
     1
370
    25
100
AcDbLine
 10
336.9999999999993
 20
51.50000000000023
 30
0.0
 11
336.9999999999993
 21
20.0
 31
0.0
1001
PHOENIX7010
1002
{
1070
    62
1070
     1
1070
    41
1040
1.0
1002
}
  0
TEXT
  5
15A6
102
{ACAD_REACTORS
330
15DF
102
}
330
1A
100
AcDbEntity
  8
0
  6
Continuous
 62
     1
370
    25
100
AcDbText
 10
323.4533715179232
 20
20.5
 30
0.0
 40
1.8
  1
Änd.-Nr.:
100
AcDbText
1001
PHOENIX7010
1002
{
1070
    41
1040
1.0
1070
    62
1070
     1
1002
}
  0
TEXT
  5
15A7
102
{ACAD_REACTORS
330
15DF
102
}
330
1A
100
AcDbEntity
  8
0
  6
Continuous
 62
     1
370
    25
100
AcDbText
 10
323.4500000000001
 20
24.49999999999989
 30
0.0
 40
1.8
  1
.
 41
1.199999999999999
100
AcDbText
1001
PHOENIX7010
1002
{
1070
    41
1040
1.0
1070
    62
1070
     1
1002
}
  0
TEXT
  5
15A8
102
{ACAD_REACTORS
330
15DF
102
}
330
1A
100
AcDbEntity
  8
0
  6
Continuous
 62
     1
370
    25
100
AcDbText
 10
323.4500000000001
 20
28.49999999999989
 30
0.0
 40
1.8
  1
.
 41
1.199999999999999
100
AcDbText
1001
PHOENIX7010
1002
{
1070
    41
1040
1.0
1070
    62
1070
     1
1002
}
  0
TEXT
  5
15A9
102
{ACAD_REACTORS
330
15DF
102
}
330
1A
100
AcDbEntity
  8
0
  6
Continuous
 62
     1
370
    25
100
AcDbText
 10
323.4500000000001
 20
36.49999999999989
 30
0.0
 40
1.8
  1
.
 41
1.199999999999999
100
AcDbText
1001
PHOENIX7010
1002
{
1070
    41
1040
1.0
1070
    62
1070
     1
1002
}
  0
TEXT
  5
15AA
102
{ACAD_REACTORS
330
15DF
102
}
330
1A
100
AcDbEntity
  8
0
  6
Continuous
 62
     1
370
    25
100
AcDbText
 10
323.4500000000001
 20
32.49999999999989
 30
0.0
 40
1.8
  1
.
 41
1.199999999999999
100
AcDbText
1001
PHOENIX7010
1002
{
1070
    41
1040
1.0
1070
    62
1070
     1
1002
}
  0
TEXT
  5
15AB
102
{ACAD_REACTORS
330
15DF
102
}
330
1A
100
AcDbEntity
  8
0
  6
Continuous
 62
     1
370
    25
100
AcDbText
 10
323.4500000000001
 20
40.49999999999989
 30
0.0
 40
1.8
  1
.
 41
1.199999999999999
100
AcDbText
1001
PHOENIX7010
1002
{
1070
    41
1040
1.0
1070
    62
1070
     1
1002
}
  0
TEXT
  5
15AC
102
{ACAD_REACTORS
330
15DF
102
}
330
1A
100
AcDbEntity
  8
0
  6
Continuous
 62
     1
370
    25
100
AcDbText
 10
338.4533715179232
 20
20.5
 30
0.0
 40
1.8
  1
Datum:
100
AcDbText
1001
PHOENIX7010
1002
{
1070
    41
1040
1.0
1070
    62
1070
     1
1002
}
  0
TEXT
  5
15AD
102
{ACAD_REACTORS
330
15DF
102
}
330
1A
100
AcDbEntity
  8
0
  6
Continuous
 62
     1
370
    25
100
AcDbText
 10
338.45
 20
24.49999999999989
 30
0.0
 40
1.8
  1
.
 41
1.199999999999999
100
AcDbText
1001
PHOENIX7010
1002
{
1070
    41
1040
1.0
1070
    62
1070
     1
1002
}
  0
TEXT
  5
15AE
102
{ACAD_REACTORS
330
15DF
102
}
330
1A
100
AcDbEntity
  8
0
  6
Continuous
 62
     1
370
    25
100
AcDbText
 10
338.45
 20
28.49999999999989
 30
0.0
 40
1.8
  1
.
 41
1.199999999999999
100
AcDbText
1001
PHOENIX7010
1002
{
1070
    41
1040
1.0
1070
    62
1070
     1
1002
}
  0
TEXT
  5
15AF
102
{ACAD_REACTORS
330
15DF
102
}
330
1A
100
AcDbEntity
  8
0
  6
Continuous
 62
     1
370
    25
100
AcDbText
 10
338.45
 20
32.49999999999989
 30
0.0
 40
1.8
  1
.
 41
1.199999999999999
100
AcDbText
1001
PHOENIX7010
1002
{
1070
    41
1040
1.0
1070
    62
1070
     1
1002
}
  0
TEXT
  5
15B0
102
{ACAD_REACTORS
330
15DF
102
}
330
1A
100
AcDbEntity
  8
0
  6
Continuous
 62
     1
370
    25
100
AcDbText
 10
338.45
 20
36.49999999999989
 30
0.0
 40
1.8
  1
.
 41
1.199999999999999
100
AcDbText
1001
PHOENIX7010
1002
{
1070
    41
1040
1.0
1070
    62
1070
     1
1002
}
  0
TEXT
  5
15B1
102
{ACAD_REACTORS
330
15DF
102
}
330
1A
100
AcDbEntity
  8
0
  6
Continuous
 62
     1
370
    25
100
AcDbText
 10
338.45
 20
40.49999999999989
 30
0.0
 40
1.8
  1
.
 41
1.199999999999999
100
AcDbText
1001
PHOENIX7010
1002
{
1070
    41
1040
1.0
1070
    62
1070
     1
1002
}
  0
TEXT
  5
15B2
102
{ACAD_REACTORS
330
15DF
102
}
330
1A
100
AcDbEntity
  8
0
  6
Continuous
 62
     7
370
    25
100
AcDbText
 10
324.4999999999993
 20
62.05000000000023
 30
0.0
 40
3.5
  1
Artikel:
 41
1.28
 11
324.4999999999993
 21
61.00000000000022
 31
0.0
100
AcDbText
 73
     1
1001
PHOENIX7010
1002
{
1070
    41
1040
1.0
1070
    62
1070
     7
1002
}
  0
TEXT
  5
15B3
102
{ACAD_REACTORS
330
15DF
102
}
330
1A
100
AcDbEntity
  8
0
  6
Continuous
 62
     7
370
    25
100
AcDbText
 10
324.4999999999993
 20
55.40000000000024
 30
0.0
 40
3.5
  1
Kunde  :
 41
1.229999999999999
 11
324.4999999999993
 21
54.35000000000025
 31
0.0
100
AcDbText
 73
     1
1001
PHOENIX7010
1002
{
1070
    41
1040
1.0
1070
    62
1070
     7
1002
}
  0
TEXT
  5
15B4
102
{ACAD_REACTORS
330
15DF
102
}
330
1A
100
AcDbEntity
  8
0
  6
Continuous
 62
     1
370
    25
100
AcDbText
 10
323.4500000000001
 20
48.49999999999988
 30
0.0
 40
1.8
  1
.
 41
1.199999999999999
100
AcDbText
1001
PHOENIX7010
1002
{
1070
    41
1040
1.0
1070
    62
1070
     1
1002
}
  0
TEXT
  5
15B5
102
{ACAD_REACTORS
330
15DF
102
}
330
1A
100
AcDbEntity
  8
0
  6
Continuous
 62
     1
370
    25
100
AcDbText
 10
323.4500000000001
 20
44.49999999999988
 30
0.0
 40
1.8
  1
.
 41
1.199999999999999
100
AcDbText
1001
PHOENIX7010
1002
{
1070
    41
1040
1.0
1070
    62
1070
     1
1002
}
  0
ARC
  5
15B6
102
{ACAD_REACTORS
330
15DF
102
}
330
1A
100
AcDbEntity
  8
0
  6
Continuous
 62
     5
370
    25
100
AcDbCircle
 10
324.4999999999993
 20
49.00000000000023
 30
0.0
 40
2.5
100
AcDbArc
 50
90.0
 51
180.0
1001
PHOENIX7010
1002
{
1070
    62
1070
     5
1070
    41
1040
1.0
1002
}
  0
TEXT
  5
15B7
102
{ACAD_REACTORS
330
15DF
102
}
330
1A
100
AcDbEntity
  8
0
  6
Continuous
 62
     1
370
    25
100
AcDbText
 10
338.45
 20
44.49999999999988
 30
0.0
 40
1.8
  1
.
 41
1.199999999999999
100
AcDbText
1001
PHOENIX7010
1002
{
1070
    41
1040
1.0
1070
    62
1070
     1
1002
}
  0
TEXT
  5
15B8
102
{ACAD_REACTORS
330
15DF
102
}
330
1A
100
AcDbEntity
  8
0
  6
Continuous
 62
     1
370
    25
100
AcDbText
 10
338.45
 20
48.49999999999988
 30
0.0
 40
1.8
  1
.
 41
1.199999999999999
100
AcDbText
1001
PHOENIX7010
1002
{
1070
    41
1040
1.0
1070
    62
1070
     1
1002
}
  0
TEXT
  5
15B9
102
{ACAD_REACTORS
330
15DF
102
}
330
1A
100
AcDbEntity
  8
0
  6
Continuous
 62
     5
370
    25
100
AcDbText
 10
351.0
 20
25.75000000000023
 30
0.0
 40
2.5
  1
   Disk    :
 41
1.399999999999999
 11
351.0
 21
25.00000000000023
 31
0.0
100
AcDbText
 73
     1
1001
PHOENIX7010
1002
{
1070
    41
1040
1.0
1070
    62
1070
     5
1002
}
  0
TEXT
  5
15BA
102
{ACAD_REACTORS
330
15DF
102
}
330
1A
100
AcDbEntity
  8
0
  6
Continuous
 62
     5
370
    25
100
AcDbText
 10
351.0
 20
21.00000000000023
 30
0.0
 40
2.5
  1
   Datum :
 41
1.399999999999999
 11
351.0
 21
20.25000000000023
 31
0.0
100
AcDbText
 73
     1
1001
PHOENIX7010
1002
{
1070
    41
1040
1.0
1070
    62
1070
     5
1002
}
  0
TEXT
  5
15BB
102
{ACAD_REACTORS
330
15DF
102
}
330
1A
100
AcDbEntity
  8
0
  6
Continuous
 62
     5
370
    25
100
AcDbText
 10
374.0
 20
25.74999999999989
 30
0.0
 40
2.5
  1
2 100 732
 41
1.399999999999999
 11
374.0
 21
24.99999999999989
 31
0.0
100
AcDbText
 73
     1
1001
PHOENIX7010
1002
{
1070
    41
1040
1.0
1070
    62
1070
     5
1002
}
  0
TEXT
  5
15BC
102
{ACAD_REACTORS
330
15DF
102
}
330
1A
100
AcDbEntity
  8
0
  6
Continuous
 62
     5
370
    25
100
AcDbText
 10
378.0
 20
20.99999999999988
 30
0.0
 40
2.5
  1
.
 41
1.399999999999999
 11
378.0
 21
20.24999999999989
 31
0.0
100
AcDbText
 73
     1
1001
PHOENIX7010
1002
{
1070
    41
1040
1.0
1070
    62
1070
     5
1002
}
  0
TEXT
  5
15BD
102
{ACAD_REACTORS
330
15DF
102
}
330
1A
100
AcDbEntity
  8
0
  6
Continuous
 62
     7
370
    25
100
AcDbText
 10
324.4999999999993
 20
77.05000000000023
 30
0.0
 40
3.5
  1
Zchn-Nr.:
 41
1.5
 11
324.4999999999993
 21
76.00000000000022
 31
0.0
100
AcDbText
 73
     1
1001
PHOENIX7010
1002
{
1070
    41
1040
1.0
1070
    62
1070
     7
1002
}
  0
TEXT
  5
15BE
102
{ACAD_REACTORS
330
15DF
102
}
330
1A
100
AcDbEntity
  8
0
  6
Continuous
 62
     7
370
    25
100
AcDbText
 10
347.9999999999993
 20
86.04999999999987
 30
0.0
 40
3.5
  1
(1:1)
 41
1.5
 11
347.9999999999993
 21
84.99999999999989
 31
0.0
100
AcDbText
 73
     1
1001
PHOENIX7010
1002
{
1070
    41
1040
1.0
1070
    62
1070
     7
1002
}
  0
TEXT
  5
15BF
102
{ACAD_REACTORS
330
15DF
102
}
330
1A
100
AcDbEntity
  8
0
  6
Continuous
 62
     1
370
    25
100
AcDbText
 10
324.4999999999993
 20
85.75000000000022
 30
0.0
 40
2.5
  1
Maßstab :
 41
1.399999999999999
 11
324.4999999999993
 21
85.00000000000023
 31
0.0
100
AcDbText
 73
     1
1001
PHOENIX7010
1002
{
1070
    41
1040
1.0
1070
    62
1070
     1
1002
}
  0
TEXT
  5
15C0
102
{ACAD_REACTORS
330
15DF
102
}
330
1A
100
AcDbEntity
  8
0
  6
Continuous
 62
     5
370
    25
100
AcDbText
 10
324.4999999999993
 20
70.75000000000023
 30
0.0
 40
2.5
  1
Bem.: 
 41
1.199999999999999
 11
324.4999999999993
 21
70.00000000000023
 31
0.0
100
AcDbText
 73
     1
1001
PHOENIX7010
1002
{
1070
    41
1040
1.0
1070
    62
1070
     5
1002
}
  0
ARC
  5
15C1
102
{ACAD_REACTORS
330
15DF
102
}
330
1A
100
AcDbEntity
  8
0
  6
Continuous
 62
     5
370
    25
100
AcDbCircle
 10
324.4999999999993
 20
80.50000000000023
 30
0.0
 40
2.5
100
AcDbArc
 50
90.0
 51
180.0
1001
PHOENIX7010
1002
{
1070
    62
1070
     5
1070
    41
1040
1.0
1002
}
  0
TEXT
  5
15C2
102
{ACAD_REACTORS
330
15DF
102
}
330
1A
100
AcDbEntity
  8
0
  6
Continuous
 62
     5
370
    25
100
AcDbText
 10
335.9999999999993
 20
70.75000000000023
 30
0.0
 40
2.5
  1
erstellt nach Kd.-Zeichnung: 
 41
1.199999999999999
 11
335.9999999999993
 21
70.00000000000023
 31
0.0
100
AcDbText
 73
     1
1001
PHOENIX7010
1002
{
1070
    41
1040
1.0
1070
    62
1070
     5
1002
}
  0
ARC
  5
15C3
102
{ACAD_REACTORS
330
15DF
102
}
330
1A
100
AcDbEntity
  8
0
  6
Continuous
 62
     5
370
    25
100
AcDbCircle
 10
324.4999999999993
 20
105.0000000000002
 30
0.0
 40
2.5
100
AcDbArc
 50
90.0
 51
180.0
1001
PHOENIX7010
1002
{
1070
    62
1070
     5
1070
    41
1040
1.0
1002
}
  0
TEXT
  5
15C4
102
{ACAD_REACTORS
330
15DF
102
}
330
1A
100
AcDbEntity
  8
0
  6
Continuous
 62
     7
370
    25
100
AcDbText
 10
355.2867554282402
 20
77.04999999999988
 30
0.0
 40
3.5
  1
3G 1000.057.01
 41
1.5
 11
355.2867554282402
 21
75.99999999999988
 31
0.0
100
AcDbText
 73
     1
1001
PHOENIX7010
1002
{
1070
    41
1040
1.0
1070
    62
1070
     7
1002
}
  0
TEXT
  5
15C5
102
{ACAD_REACTORS
330
15DF
102
}
330
1A
100
AcDbEntity
  8
0
  6
Continuous
 62
     1
370
    25
100
AcDbText
 10
388.7477499999993
 20
16.04
 30
0.0
 40
1.8
  1
Unterschrift
 72
     1
 11
395.4999999999993
 21
15.5
 31
0.0
100
AcDbText
 73
     1
1001
PHOENIX7010
1002
{
1070
    41
1040
1.0
1070
    62
1070
     1
1002
}
  0
CIRCLE
  5
15C6
102
{ACAD_REACTORS
330
15DF
102
}
330
1A
100
AcDbEntity
  8
0
  6
Continuous
 62
     5
370
    25
100
AcDbCircle
 10
410.4999999999997
 20
88.50000000000022
 30
0.0
 40
3.5
1001
PHOENIX7010
1002
{
1070
    62
1070
     5
1070
    41
1040
1.0
1002
}
  0
LINE
  5
15C7
102
{ACAD_REACTORS
330
15DF
102
}
330
1A
100
AcDbEntity
  8
0
  6
Continuous
 62
     5
370
    25
100
AcDbLine
 10
405.4999999999997
 20
85.00000000000023
 30
0.0
 11
405.4999999999997
 21
92.00000000000022
 31
0.0
1001
PHOENIX7010
1002
{
1070
    62
1070
     5
1070
    41
1040
1.0
1002
}
  0
CIRCLE
  5
15C8
102
{ACAD_REACTORS
330
15DF
102
}
330
1A
100
AcDbEntity
  8
0
  6
Continuous
 62
     5
370
    25
100
AcDbCircle
 10
410.4999999999997
 20
88.50000000000022
 30
0.0
 40
1.75
1001
PHOENIX7010
1002
{
1070
    62
1070
     5
1070
    41
1040
1.0
1002
}
  0
LINE
  5
15C9
102
{ACAD_REACTORS
330
15DF
102
}
330
1A
100
AcDbEntity
  8
0
  6
ACAD_ISO04W100
 62
     1
370
    25
100
AcDbLine
 10
410.4999999999997
 20
84.00000000000023
 30
0.0
 11
410.4999999999997
 21
93.00000000000023
 31
0.0
1001
PHOENIX7010
1002
{
1070
    62
1070
     1
1070
    41
1040
1.0
1002
}
  0
LINE
  5
15CA
102
{ACAD_REACTORS
330
15DF
102
}
330
1A
100
AcDbEntity
  8
0
  6
Continuous
 62
     5
370
    25
100
AcDbLine
 10
398.4999999999998
 20
86.75000000000023
 30
0.0
 11
398.4999999999998
 21
90.25000000000023
 31
0.0
1001
PHOENIX7010
1002
{
1070
    62
1070
     5
1070
    41
1040
1.0
1002
}
  0
LINE
  5
15CB
102
{ACAD_REACTORS
330
15DF
102
}
330
1A
100
AcDbEntity
  8
0
  6
ACAD_ISO04W100
 62
     1
370
    25
100
AcDbLine
 10
414.9999999999997
 20
88.50000000000022
 30
0.0
 11
397.4999999999998
 21
88.50000000000022
 31
0.0
1001
PHOENIX7010
1002
{
1070
    62
1070
     1
1070
    41
1040
1.0
1002
}
  0
LINE
  5
15CC
102
{ACAD_REACTORS
330
15DF
102
}
330
1A
100
AcDbEntity
  8
0
  6
Continuous
 62
     5
370
    25
100
AcDbLine
 10
405.4999999999997
 20
85.00000000000023
 30
0.0
 11
398.4999999999998
 21
86.75000000000023
 31
0.0
1001
PHOENIX7010
1002
{
1070
    62
1070
     5
1070
    41
1040
1.0
1002
}
  0
LINE
  5
15CD
102
{ACAD_REACTORS
330
15DF
102
}
330
1A
100
AcDbEntity
  8
0
  6
Continuous
 62
     5
370
    25
100
AcDbLine
 10
405.4999999999997
 20
92.00000000000022
 30
0.0
 11
398.4999999999998
 21
90.25000000000023
 31
0.0
1001
PHOENIX7010
1002
{
1070
    62
1070
     5
1070
    41
1040
1.0
1002
}
  0
TEXT
  5
15CE
102
{ACAD_REACTORS
330
15E0
102
}
330
1A
100
AcDbEntity
  8
0
  6
Continuous
 62
     1
370
    25
100
AcDbText
 10
348.0
 20
98.25000000000001
 30
0.0
 40
2.5
  1
DIN 7735 Klasse II Typ 2061
 41
1.399999999999999
 11
348.0
 21
97.5
 31
0.0
100
AcDbText
 73
     1
1001
PHOENIX7010
1002
{
1070
    41
1040
1.0
1070
    62
1070
     1
1002
}
  0
TEXT
  5
15CF
102
{ACAD_REACTORS
330
15E1
102
}
330
1A
100
AcDbEntity
  8
0
  6
Continuous
 62
     1
370
    25
100
AcDbText
 10
323.9999999999993
 20
93.25000000000022
 30
0.0
 40
2.5
  1
Allg. Tol. :
 41
1.399999999999999
 11
323.9999999999993
 21
92.50000000000023
 31
0.0
100
AcDbText
 73
     1
1001
PHOENIX7010
1002
{
1070
    41
1040
1.0
1070
    62
1070
     1
1002
}
  0
TEXT
  5
15D0
102
{ACAD_REACTORS
330
15E2
102
}
330
1A
100
AcDbEntity
  8
0
  6
Continuous
 62
     3
370
    25
100
AcDbText
 10
348.1503101400308
 20
109.402004562218
 30
0.0
 40
7.0
  1
.
 41
1.1
 11
348.1503101400308
 21
107.302004562218
 31
0.0
100
AcDbText
 73
     1
1001
PHOENIX7010
1002
{
1070
    41
1040
1.0
1070
    62
1070
     1
1002
}
  0
TEXT
  5
15D1
102
{ACAD_REACTORS
330
15E2
102
}
330
1A
100
AcDbEntity
  8
0
  6
Continuous
 62
     1
370
    25
100
AcDbText
 10
348.0
 20
93.25000000000001
 30
0.0
 40
2.5
  1
DIN ISO 2768-mK für Bearbeitung
 41
1.3
 11
348.0
 21
92.5
 31
0.0
100
AcDbText
 73
     1
1001
PHOENIX7010
1002
{
1070
    41
1040
1.0
1070
    62
1070
     1
1002
}
  0
INSERT
  5
15D2
102
{ACAD_REACTORS
330
15E2
102
}
330
1A
100
AcDbEntity
  8
0
  6
Continuous
 62
     3
370
    25
100
AcDbBlockReference
  2
PH_GRPBLK
 10
324.5000013512063
 20
118.5
 30
0.0
1001
PHOENIX7010
1002
{
1070
    41
1040
1.0
1002
}
  0
INSERT
  5
15E5
102
{ACAD_REACTORS
330
15E4
102
}
330
1A
100
AcDbEntity
  8
0
  6
Continuous
 62
     5
370
    35
100
AcDbBlockReference
  2
PH_GRPBLK
 10
415.0
 20
5.0
 30
0.0
  0
DIMENSION
  5
1AB3
102
{ACAD_REACTORS
330
1D52
102
}
330
1A
100
AcDbEntity
  8
0
  6
Continuous
 62
     5
370
    35
100
AcDbDimension
  2
*D22
 10
254.1228727689768
 20
155.1998154739123
 30
0.0
 11
251.8728727689767
 21
192.1998154739123
 31
0.0
 70
    32
 71
     5
 42
74.0
  3
PHOENIX
100
AcDbAlignedDimension
 13
247.1228727689769
 23
229.1998154739123
 33
0.0
 14
247.1228727689769
 24
155.1998154739123
 34
0.0
 50
90.0
100
AcDbRotatedDimension
1001
ACAD
1000
DSTYLE
1002
{
1070
   147
1040
1.0
1070
   271
1070
     6
1070
   272
1070
     6
1070
   140
1040
2.5
1002
}
  0
DIMENSION
  5
1D6E
102
{ACAD_REACTORS
330
1EB8
102
}
330
1A
100
AcDbEntity
  8
0
  6
Continuous
 62
     5
370
    35
100
AcDbDimension
  2
*D23
 10
259.1228727689768
 20
131.6998154739122
 30
0.0
 11
256.8726267059846
 21
192.1998154739123
 31
0.0
 70
    32
 71
     5
 42
121.0
  3
PHOENIX
100
AcDbAlignedDimension
 13
238.7728666689768
 23
252.6998154739123
 33
0.0
 14
238.7728666689768
 24
131.6998154739122
 34
0.0
 50
90.0
100
AcDbRotatedDimension
1001
ACAD
1000
DSTYLE
1002
{
1070
   147
1040
1.0
1070
   271
1070
     6
1070
   272
1070
     6
1070
   140
1040
2.5
1002
}
  0
DIMENSION
  5
3754
102
{ACAD_REACTORS
330
3849
102
}
330
1A
100
AcDbEntity
  8
0
  6
Continuous
 62
     5
370
    35
100
AcDbDimension
  2
*D24
 10
242.1228727689765
 20
234.1998154739121
 30
0.0
 11
246.3287977993846
 21
238.1464792151245
 31
0.0
 70
   164
 71
     5
 42
4.999999999999602
  3
phoenix$4
100
AcDbRadialDimension
 15
238.4767482115593
 25
230.7784450303916
 35
0.0
 40
0.0
1001
ACAD
1000
DSTYLE
1002
{
1070
   344
1005
35
1070
   343
1005
35
1070
   279
1070
     1
1070
   173
1070
     1
1070
    41
1040
3.72
1070
   147
1040
1.0
1070
   271
1070
     6
1070
   272
1070
     6
1070
   179
1070
     0
1070
    79
1070
     0
1070
   140
1040
2.5
1002
}
  0
ENDSEC
  0
SECTION
  2
OBJECTS
  0
DICTIONARY
  5
C
330
0
100
AcDbDictionary
281
     1
  3
ACAD_COLOR
350
1359
  3
ACAD_GROUP
350
D
  3
ACAD_LAYOUT
350
A44
  3
ACAD_MATERIAL
350
1358
  3
ACAD_MLEADERSTYLE
350
1AA8
  3
ACAD_MLINESTYLE
350
E
  3
ACAD_PLOTSETTINGS
350
A45
  3
ACAD_PLOTSTYLENAME
350
A42
  3
ACAD_SCALELIST
350
1A86
  3
ACAD_TABLESTYLE
350
1A84
  3
ACAD_VISUALSTYLE
350
1A70
  3
ACASAPPOBJECT
350
D4
  3
ACASGREF_MASTER
350
84
  3
ACCELVIEW
350
DA
  3
ACDB_RECOMPOSE_DATA
350
3868
  3
AcDbVariableDictionary
350
A52
  3
ACDMSYSVARMGR
350
A0
  3
ACGREF_MASTER
350
82
  3
ACME_COMMAND_HISTORY
350
80
  3
ACME_SCOPE_NAME
350
7F
  3
AD_APPL
350
93
  3
AD_DRAWMGR_NAME
350
B4
  3
AD_GREF_MODULE
350
9B
  3
AD_HOLENOTE_REPOSITORY
350
9A
  3
ADSYSVARMGR
350
89
  3
AMI_MASTER
350
83
  3
AUTOCAD_ASSEMBLIES_PROJECT
350
C0
  3
DESIGNER_ASSEMBLIES_SYSVARS
350
BB
  3
DWGPROPS
350
3869
  3
PH_OBJREACTOR_DICT
350
3C
  3
PH_ROOTGROUP_DICT
350
3B
  3
PH_VARS
350
31
  0
DICTIONARY
  5
3741
330
2
100
AcDbDictionary
280
     1
281
     1
  3
ACAD_LAYERSTATES
360
3742
  0
DICTIONARY
  5
373A
330
F
100
AcDbDictionary
280
     1
281
     1
  3
ADSK_XREC_LAYER_RECONCILED
360
373B
  0
DICTIONARY
  5
373C
330
2026
100
AcDbDictionary
280
     1
281
     1
  3
ADSK_XREC_LAYER_RECONCILED
360
373D
  0
DICTIONARY
  5
1359
102
{ACAD_REACTORS
330
C
102
}
330
C
100
AcDbDictionary
281
     1
  0
DICTIONARY
  5
D
102
{ACAD_REACTORS
330
C
102
}
330
C
100
AcDbDictionary
281
     1
  3
*A1
350
1EDD
  3
PH_BOUNDARYLIST
350
3D
  0
DICTIONARY
  5
A44
102
{ACAD_REACTORS
330
C
102
}
330
C
100
AcDbDictionary
281
     1
  3
Layout1
350
A47
  3
Model
350
A46
  0
DICTIONARY
  5
1358
102
{ACAD_REACTORS
330
C
102
}
330
C
100
AcDbDictionary
281
     1
  3
ByBlock
350
1A60
  3
ByLayer
350
1A58
  3
Global
350
1A68
  0
DICTIONARY
  5
1AA8
102
{ACAD_REACTORS
330
C
102
}
330
C
100
AcDbDictionary
281
     1
  3
Standard
350
1AA9
  0
DICTIONARY
  5
E
102
{ACAD_REACTORS
330
C
102
}
330
C
100
AcDbDictionary
281
     1
  3
STANDARD
350
13
  0
DICTIONARY
  5
A45
102
{ACAD_REACTORS
330
C
102
}
330
C
100
AcDbDictionary
281
     1
  0
ACDBDICTIONARYWDFLT
  5
A42
102
{ACAD_REACTORS
330
C
102
}
330
C
100
AcDbDictionary
281
     1
  3
Normal
350
A43
100
AcDbDictionaryWithDefault
340
A43
  0
DICTIONARY
  5
1A86
102
{ACAD_REACTORS
330
C
102
}
330
C
100
AcDbDictionary
281
     1
  3
A0
350
1A87
  3
A1
350
1A88
  3
A2
350
1A89
  3
A3
350
1A8A
  3
A4
350
1A8B
  3
A5
350
1A8C
  3
A6
350
1A8D
  3
A7
350
1A8E
  3
A8
350
1A8F
  3
A9
350
1A90
  3
B0
350
1A91
  3
B1
350
1A92
  3
B2
350
1A93
  3
B3
350
1A94
  3
B4
350
1A95
  3
B5
350
1A96
  3
B6
350
1A97
  3
B7
350
1A98
  3
B8
350
1A99
  3
B9
350
1A9A
  3
C0
350
1A9B
  3
C1
350
1A9C
  3
C2
350
1A9D
  3
C3
350
1A9E
  3
C4
350
1A9F
  3
C5
350
1AA0
  3
C6
350
1AA1
  3
C7
350
1AA2
  3
C8
350
1AA3
  3
C9
350
1AA4
  3
D0
350
1AA5
  3
D1
350
1AA6
  3
D2
350
1AA7
  0
DICTIONARY
  5
1A84
102
{ACAD_REACTORS
330
C
102
}
330
C
100
AcDbDictionary
281
     1
  3
Standard
350
1A85
  0
DICTIONARY
  5
1A70
102
{ACAD_REACTORS
330
C
102
}
330
C
100
AcDbDictionary
281
     1
  3
2dWireframe
350
1A76
  3
3D Hidden
350
1A78
  3
3dWireframe
350
1A77
  3
Basic
350
1A75
  3
Brighten
350
1A7C
  3
ColorChange
350
1A80
  3
Conceptual
350
1A79
  3
Dim
350
1A7B
  3
EdgeColorOff
350
1A83
  3
Facepattern
350
1A7F
  3
Flat
350
1A71
  3
FlatWithEdges
350
1A72
  3
Gouraud
350
1A73
  3
GouraudWithEdges
350
1A74
  3
JitterOff
350
1A81
  3
Linepattern
350
1A7E
  3
OverhangOff
350
1A82
  3
Realistic
350
1A7A
  3
Thicken
350
1A7D
  0
ACAD_PROXY_OBJECT
  5
D4
102
{ACAD_REACTORS
330
C
102
}
330
C
100
AcDbProxyObject
 90
      499
 91
      540
 95
   393235
 70
     0
 93
        2
310
BF
360
D2
 94
        0
1001
ACAD
1000
AcRTDxfName
1000
ASAPP
1000
AcRTDxfName
1000
ASAPP
1000
AcRTDxfName
1000
ASAPP
  0
ACAD_PROXY_OBJECT
  5
84
102
{ACAD_REACTORS
330
C
102
}
330
C
100
AcDbProxyObject
 90
      499
 91
      506
 95
   393235
 70
     0
 93
       34
310
010000407F
 94
        0
1001
ACAD
1000
AcRTDxfName
1000
ACASGREFMASTER
1000
AcRTDxfName
1000
ACASGREFMASTER
1000
AcRTDxfName
1000
ACASGREFMASTER
  0
ACAD_PROXY_OBJECT
  5
DA
102
{ACAD_REACTORS
330
C
102
}
330
C
100
AcDbProxyObject
 90
      499
 91
      541
 95
   393235
 70
     0
 93
       12
310
901F
330
0
 94
        0
1001
ACAD
1000
AcRTDxfName
1000
AGDICTIONARY
1000
AcRTDxfName
1000
AGDICTIONARY
1000
AcRTDxfName
1000
AGDICTIONARY
  0
XRECORD
  5
3868
102
{ACAD_REACTORS
330
C
102
}
330
C
100
AcDbXrecord
280
     1
 90
        1
330
1A85
  0
DICTIONARY
  5
A52
102
{ACAD_REACTORS
330
C
102
}
330
C
100
AcDbDictionary
281
     1
  3
CANNOSCALE
350
374C
  3
CMLEADERSTYLE
350
374A
  3
CTABLESTYLE
350
3749
  3
DIMASSOC
350
A53
  3
INDEXCTL
350
3864
  3
LAYEREVAL
350
374E
  3
LAYERNOTIFY
350
374F
  3
LIGHTINGUNITS
350
374D
  3
MSLTSCALE
350
374B
  3
PROJECTNAME
350
18A5
  3
SORTENTS
350
3863
  3
XCLIPFRAME
350
3865
  0
ACAD_PROXY_OBJECT
  5
A0
102
{ACAD_REACTORS
330
C
102
}
330
C
100
AcDbProxyObject
 90
      499
 91
      511
 95
   393235
 70
     0
 93
      184
310
4C5124810100000000000000000000000000000000000000
330
A1
330
A2
330
A3
330
A4
330
A5
330
A6
330
A7
330
A9
330
AA
330
AB
330
AC
330
AD
330
AE
330
AF
330
B0
330
B1
330
B2
330
B3
 94
        0
1001
ACAD
1000
AcRTDxfName
1000
"IM_SYSVAR_MAN"
1000
AcRTDxfName
1000
"IM_SYSVAR_MAN"
1000
AcRTDxfName
1000
"IM_SYSVAR_MAN"
  0
ACAD_PROXY_OBJECT
  5
82
102
{ACAD_REACTORS
330
C
102
}
330
C
100
AcDbProxyObject
 90
      499
 91
      504
 95
   393235
 70
     0
 93
      114
310
01010041000000000000000000003F
 94
        0
1001
ACAD
1000
AcRTDxfName
1000
ACGREFMASTER
1000
AcRTDxfName
1000
ACGREFMASTER
1000
AcRTDxfName
1000
ACGREFMASTER
  0
ACAD_PROXY_OBJECT
  5
80
102
{ACAD_REACTORS
330
C
102
}
330
C
100
AcDbProxyObject
 90
      499
 91
      502
 95
   393235
 70
     0
 93
     1726
310
4280508554E444546494E4580508554E444546494E458050C41445F434F4E56455254523140805084E202D20554E444F014213880B4815539113C050C414D4C54595045434845434B41405084E202D20554E444F014313880B481312539155165411405094E202D204C41594552014313880B481312539155165411405084E
310
202D20554E444F01431053531516541150D21150D2D03014213880B4815539113C05094E202D204C41594552014213880B4815539113C0504554E444F80504554E444F80504554E444F80504554E444F80506534156454153B
 94
        0
1001
ACAD
1000
AcRTDxfName
1000
ACMECOMMANDHISTORY
1000
AcRTDxfName
1000
ACMECOMMANDHISTORY
1000
AcRTDxfName
1000
ACMECOMMANDHISTORY
  0
ACAD_PROXY_OBJECT
  5
7F
102
{ACAD_REACTORS
330
C
102
}
330
C
100
AcDbProxyObject
 90
      499
 91
      501
 95
   393235
 70
     0
 93
      464
310
01010040932000000000000000000000000000000000000000000000000000000000000000000000000000000000000000000000000000090100AA
360
85
360
86
360
87
360
88
360
8A
360
8B
360
8C
360
8D
360
8E
360
8F
360
90
360
91
360
92
360
95
360
96
360
97
360
98
360
99
360
9C
360
9D
360
9E
360
9F
360
A1
360
A2
360
A3
360
A4
360
A5
360
A6
360
A7
360
A9
360
AA
360
AB
360
AC
360
AD
360
AE
360
AF
360
B0
360
B1
360
B2
360
B3
360
BC
360
BD
360
BE
360
BF
360
C6
360
C7
360
C8
360
C9
360
CA
360
CE
330
0
 94
        0
1001
ACAD
1000
AcRTDxfName
1000
ACMESCOPE
1000
AcRTDxfName
1000
ACMESCOPE
1000
AcRTDxfName
1000
ACMESCOPE
  0
ACAD_PROXY_OBJECT
  5
93
102
{ACAD_REACTORS
330
C
102
}
330
C
100
AcDbProxyObject
 90
      499
 91
      515
 95
   393235
 70
     0
 93
       42
310
00010200453F
330
85
 94
        0
1001
ACAD
1000
AcRTDxfName
1000
NAMEDAPPL
1000
AcRTDxfName
1000
NAMEDAPPL
1000
AcRTDxfName
1000
NAMEDAPPL
  0
ACAD_PROXY_OBJECT
  5
B4
102
{ACAD_REACTORS
330
C
102
}
330
C
100
AcDbProxyObject
 90
      499
 91
      527
 95
   393235
 70
     0
 93
       42
310
00010000453F
330
9C
 94
        0
1001
ACAD
1000
AcRTDxfName
1000
AM_DWGMGR_NAME
1000
AcRTDxfName
1000
AM_DWGMGR_NAME
1000
AcRTDxfName
1000
AM_DWGMGR_NAME
  0
ACAD_PROXY_OBJECT
  5
9B
102
{ACAD_REACTORS
330
C
102
}
330
C
100
AcDbProxyObject
 90
      499
 91
      522
 95
   393235
 70
     0
 93
      114
310
00000042800000000000000000003F
 94
        0
1001
ACAD
1000
AcRTDxfName
1000
AcAdGrefModule
1000
AcRTDxfName
1000
AcAdGrefModule
1000
AcRTDxfName
1000
AcAdGrefModule
  0
ACAD_PROXY_OBJECT
  5
9A
102
{ACAD_REACTORS
330
C
102
}
330
C
100
AcDbProxyObject
 90
      499
 91
      521
 95
   393235
 70
     0
 93
        8
310
0029
330
99
 94
        0
1001
ACAD
1000
AcRTDxfName
1000
AM_HNTEMPLATE_MGR_NAME
1000
AcRTDxfName
1000
AM_HNTEMPLATE_MGR_NAME
1000
AcRTDxfName
1000
AM_HNTEMPLATE_MGR_NAME
  0
ACAD_PROXY_OBJECT
  5
89
102
{ACAD_REACTORS
330
C
102
}
330
C
100
AcDbProxyObject
 90
      499
 91
      511
 95
   393235
 70
     0
 93
      104
310
9094410100000000000000000000
330
8A
330
8B
330
8C
330
8D
330
8E
330
8F
330
90
330
91
330
92
 94
        0
1001
ACAD
1000
AcRTDxfName
1000
"IM_SYSVAR_MAN"
1000
AcRTDxfName
1000
"IM_SYSVAR_MAN"
1000
AcRTDxfName
1000
"IM_SYSVAR_MAN"
  0
ACAD_PROXY_OBJECT
  5
83
102
{ACAD_REACTORS
330
C
102
}
330
C
100
AcDbProxyObject
 90
      499
 91
      505
 95
   393235
 70
     0
 93
       34
310
010000407F
 94
        0
1001
ACAD
1000
AcRTDxfName
1000
AmiMaster
1000
AcRTDxfName
1000
AmiMaster
1000
AcRTDxfName
1000
AmiMaster
  0
ACAD_PROXY_OBJECT
  5
C0
102
{ACAD_REACTORS
330
C
102
}
330
C
100
AcDbProxyObject
 90
      499
 91
      528
 95
   393235
 70
     0
 93
       58
310
010200420000003F
330
C8
330
CE
330
C9
 94
        0
1001
ACAD
1000
AcRTDxfName
1000
ACAMPROJECT
1000
AcRTDxfName
1000
ACAMPROJECT
1000
AcRTDxfName
1000
ACAMPROJECT
  0
ACAD_PROXY_OBJECT
  5
BB
102
{ACAD_REACTORS
330
C
102
}
330
C
100
AcDbProxyObject
 90
      499
 91
      511
 95
   393235
 70
     0
 93
       64
310
904441010000000096
330
BC
330
BD
330
BE
330
BF
 94
        0
1001
ACAD
1000
AcRTDxfName
1000
"IM_SYSVAR_MAN"
1000
AcRTDxfName
1000
"IM_SYSVAR_MAN"
1000
AcRTDxfName
1000
"IM_SYSVAR_MAN"
  0
XRECORD
  5
3869
102
{ACAD_REACTORS
330
C
102
}
330
C
100
AcDbXrecord
280
     1
  1
DWGPROPS COOKIE
  2

  3

  4

  6

  7

  8
kleemann
  9

300
=
301
=
302
=
303
=
304
=
305
=
306
=
307
=
308
=
309
=
 40
0.0891748958333334
 41
2450973.31570537
 42
2457331.582096505
  1

 90
        0
  0
DICTIONARY
  5
3C
102
{ACAD_REACTORS
330
C
102
}
330
C
100
AcDbDictionary
281
     1
  3
*A1
350
8E6
  3
*A10
350
92E
  3
*A11
350
92F
  3
*A12
350
976
  3
*A13
350
8E7
  3
*A16
350
95B
  3
*A2
350
903
  3
*A20
350
910
  3
*A21
350
967
  3
*A22
350
968
  3
*A23
350
977
  3
*A24
350
969
  3
*A25
350
8E8
  3
*A26
350
975
  3
*A27
350
1D51
  3
*A28
350
1D52
  3
*A29
350
1EB6
  3
*A3
350
904
  3
*A30
350
1EB7
  3
*A31
350
1EB8
  3
*A32
350
930
  3
*A33
350
8F4
  3
*A34
350
8F5
  3
*A35
350
8F6
  3
*A36
350
911
  3
*A37
350
902
  3
*A38
350
3848
  3
*A39
350
3849
  3
*A4
350
95A
  3
*A5
350
912
  3
*A6
350
91E
  3
*A7
350
91F
  3
*A9
350
920
  0
DICTIONARY
  5
3B
102
{ACAD_REACTORS
330
C
102
}
330
C
100
AcDbDictionary
281
     1
  3
$PH$AAAA3H
350
688
  3
$PH$AAAGCandP
350
15E3
  0
PH_VARS
  5
31
102
{ACAD_REACTORS
330
C
102
}
330
C
  0
DICTIONARY
  5
3742
102
{ACAD_REACTORS
330
3741
102
}
330
3741
100
AcDbDictionary
281
     1
  0
XRECORD
  5
373B
102
{ACAD_REACTORS
330
373A
102
}
330
373A
100
AcDbXrecord
280
     1
290
     1
  0
XRECORD
  5
373D
102
{ACAD_REACTORS
330
373C
102
}
330
373C
100
AcDbXrecord
280
     1
290
     1
  0
GROUP
  5
1EDD
102
{ACAD_REACTORS
330
D
102
}
330
D
100
AcDbGroup
300

 70
     0
 71
     0
  0
GROUP
  5
3D
102
{ACAD_REACTORS
330
D
102
}
330
D
100
AcDbGroup
300

 70
     0
 71
     0
  0
LAYOUT
  5
A47
102
{ACAD_XDICTIONARY
360
386B
102
}
102
{ACAD_REACTORS
330
A44
102
}
330
A44
100
AcDbPlotSettings
  1

  2
Lexmark
  4

  6

 40
0.0
 41
0.0
 42
0.0
 43
0.0
 44
0.0
 45
0.0
 46
0.0
 47
0.0
 48
0.0
 49
0.0
140
0.0
141
0.0
142
1.0
143
1.0
 70
   688
 72
     0
 73
     0
 74
     5
  7

 75
    16
147
1.0
148
0.0
149
0.0
100
AcDbLayout
  1
Layout1
 70
     1
 71
     1
 10
0.0
 20
0.0
 11
420.0
 21
297.0
 12
0.0
 22
0.0
 32
0.0
 14
1.000000000000000E+20
 24
1.000000000000000E+20
 34
1.000000000000000E+20
 15
-1.000000000000000E+20
 25
-1.000000000000000E+20
 35
-1.000000000000000E+20
146
0.0
 13
0.0
 23
0.0
 33
0.0
 16
1.0
 26
0.0
 36
0.0
 17
0.0
 27
1.0
 37
0.0
 76
     0
330
17
  0
LAYOUT
  5
A46
102
{ACAD_XDICTIONARY
360
3747
102
}
102
{ACAD_REACTORS
330
A44
102
}
330
A44
100
AcDbPlotSettings
  1

  2
none_device
  4
Letter_(8.50_x_11.00_Inches)
  6

 40
6.349999904632568
 41
6.349999904632568
 42
6.350006103515625
 43
6.350006103515625
 44
215.8999938964844
 45
279.3999938964844
 46
0.0
 47
0.0
 48
0.0
 49
0.0
140
0.0
141
0.0
142
1.0
143
53.07743237807757
 70
 11952
 72
     0
 73
     1
 74
     0
  7

 75
     0
147
0.0188403989265507
148
1743.875261350263
149
1.199541989464728
100
AcDbLayout
  1
Model
 70
     1
 71
     0
 10
0.0
 20
0.0
 11
12.0
 21
9.0
 12
0.0
 22
0.0
 32
0.0
 14
0.0
 24
0.0
 34
0.0
 15
0.0
 25
0.0
 35
0.0
146
0.0
 13
0.0
 23
0.0
 33
0.0
 16
1.0
 26
0.0
 36
0.0
 17
0.0
 27
1.0
 37
0.0
 76
     0
330
1A
331
1A4F
1001
ACAD_PSEXT
1000
Kein
1000
Kein
1000
Nicht anwendbar
1000
Das Layout wird erst geplottet, wenn ein neuer Plotter-Konfigurationsname ausgewählt wird.
1070
     0
  0
MATERIAL
  5
1A60
102
{ACAD_XDICTIONARY
360
1A61
102
}
102
{ACAD_REACTORS
330
1358
102
}
330
1358
100
AcDbMaterial
  1
ByBlock
 72
     0
 43
0.0208333333333333
 43
0.0
 43
0.0
 43
0.0
 43
0.0
 43
0.0208333333333333
 43
0.0
 43
0.0
 43
0.0
 43
0.0
 43
1.0
 43
0.0
 43
0.0
 43
0.0
 43
0.0
 43
1.0
 77
     0
 47
0.0208333333333333
 47
0.0
 47
0.0
 47
0.0
 47
0.0
 47
0.0208333333333333
 47
0.0
 47
0.0
 47
0.0
 47
0.0
 47
1.0
 47
0.0
 47
0.0
 47
0.0
 47
0.0
 47
1.0
171
     0
 49
0.0208333333333333
 49
0.0
 49
0.0
 49
0.0
 49
0.0
 49
0.0208333333333333
 49
0.0
 49
0.0
 49
0.0
 49
0.0
 49
1.0
 49
0.0
 49
0.0
 49
0.0
 49
0.0
 49
1.0
175
     0
142
0.0208333333333333
142
0.0
142
0.0
142
0.0
142
0.0
142
0.0208333333333333
142
0.0
142
0.0
142
0.0
142
0.0
142
1.0
142
0.0
142
0.0
142
0.0
142
0.0
142
1.0
179
     0
144
0.0208333333333333
144
0.0
144
0.0
144
0.0
144
0.0
144
0.0208333333333333
144
0.0
144
0.0
144
0.0
144
0.0
144
1.0
144
0.0
144
0.0
144
0.0
144
0.0
144
1.0
147
0.0208333333333333
147
0.0
147
0.0
147
0.0
147
0.0
147
0.0208333333333333
147
0.0
147
0.0
147
0.0
147
0.0
147
1.0
147
0.0
147
0.0
147
0.0
147
0.0
147
1.0
  0
MATERIAL
  5
1A58
102
{ACAD_XDICTIONARY
360
1A59
102
}
102
{ACAD_REACTORS
330
1358
102
}
330
1358
100
AcDbMaterial
  1
ByLayer
 72
     0
 43
0.0208333333333333
 43
0.0
 43
0.0
 43
0.0
 43
0.0
 43
0.0208333333333333
 43
0.0
 43
0.0
 43
0.0
 43
0.0
 43
1.0
 43
0.0
 43
0.0
 43
0.0
 43
0.0
 43
1.0
 77
     0
 47
0.0208333333333333
 47
0.0
 47
0.0
 47
0.0
 47
0.0
 47
0.0208333333333333
 47
0.0
 47
0.0
 47
0.0
 47
0.0
 47
1.0
 47
0.0
 47
0.0
 47
0.0
 47
0.0
 47
1.0
171
     0
 49
0.0208333333333333
 49
0.0
 49
0.0
 49
0.0
 49
0.0
 49
0.0208333333333333
 49
0.0
 49
0.0
 49
0.0
 49
0.0
 49
1.0
 49
0.0
 49
0.0
 49
0.0
 49
0.0
 49
1.0
175
     0
142
0.0208333333333333
142
0.0
142
0.0
142
0.0
142
0.0
142
0.0208333333333333
142
0.0
142
0.0
142
0.0
142
0.0
142
1.0
142
0.0
142
0.0
142
0.0
142
0.0
142
1.0
179
     0
144
0.0208333333333333
144
0.0
144
0.0
144
0.0
144
0.0
144
0.0208333333333333
144
0.0
144
0.0
144
0.0
144
0.0
144
1.0
144
0.0
144
0.0
144
0.0
144
0.0
144
1.0
147
0.0208333333333333
147
0.0
147
0.0
147
0.0
147
0.0
147
0.0208333333333333
147
0.0
147
0.0
147
0.0
147
0.0
147
1.0
147
0.0
147
0.0
147
0.0
147
0.0
147
1.0
  0
MATERIAL
  5
1A68
102
{ACAD_XDICTIONARY
360
1A69
102
}
102
{ACAD_REACTORS
330
1358
102
}
330
1358
100
AcDbMaterial
  1
Global
 72
     0
 43
0.0208333333333333
 43
0.0
 43
0.0
 43
0.0
 43
0.0
 43
0.0208333333333333
 43
0.0
 43
0.0
 43
0.0
 43
0.0
 43
1.0
 43
0.0
 43
0.0
 43
0.0
 43
0.0
 43
1.0
 77
     0
 47
0.0208333333333333
 47
0.0
 47
0.0
 47
0.0
 47
0.0
 47
0.0208333333333333
 47
0.0
 47
0.0
 47
0.0
 47
0.0
 47
1.0
 47
0.0
 47
0.0
 47
0.0
 47
0.0
 47
1.0
171
     0
 49
0.0208333333333333
 49
0.0
 49
0.0
 49
0.0
 49
0.0
 49
0.0208333333333333
 49
0.0
 49
0.0
 49
0.0
 49
0.0
 49
1.0
 49
0.0
 49
0.0
 49
0.0
 49
0.0
 49
1.0
175
     0
142
0.0208333333333333
142
0.0
142
0.0
142
0.0
142
0.0
142
0.0208333333333333
142
0.0
142
0.0
142
0.0
142
0.0
142
1.0
142
0.0
142
0.0
142
0.0
142
0.0
142
1.0
179
     0
144
0.0208333333333333
144
0.0
144
0.0
144
0.0
144
0.0
144
0.0208333333333333
144
0.0
144
0.0
144
0.0
144
0.0
144
1.0
144
0.0
144
0.0
144
0.0
144
0.0
144
1.0
147
0.0208333333333333
147
0.0
147
0.0
147
0.0
147
0.0
147
0.0208333333333333
147
0.0
147
0.0
147
0.0
147
0.0
147
1.0
147
0.0
147
0.0
147
0.0
147
0.0
147
1.0
  0
MLEADERSTYLE
  5
1AA9
102
{ACAD_REACTORS
330
1AA8
102
}
330
1AA8
100
AcDbMLeaderStyle
170
     2
171
     1
172
     0
 90
        2
 40
0.0
 41
0.0
173
     1
 91
-1056964608
340
14
 92
       -2
290
     1
 42
0.09
291
     1
 43
0.36
  3
Standard
 44
0.18
300

342
10
174
     1
178
     6
175
     1
176
     0
 93
-1056964608
 45
0.18
292
     0
297
     0
 46
0.18
 94
-1056964608
 47
1.0
 49
1.0
140
1.0
293
     1
141
0.0
294
     1
177
     0
142
1.0
295
     0
296
     0
143
0.125
1001
ACAD_MLEADERVER
1070
     2
  0
MLINESTYLE
  5
13
102
{ACAD_REACTORS
330
E
102
}
330
E
100
AcDbMlineStyle
  2
STANDARD
 70
     0
  3

 62
     0
 51
90.0
 52
90.0
 71
     2
 49
0.5
 62
   256
  6
BYLAYER
 49
-0.5
 62
   256
  6
BYLAYER
  0
ACDBPLACEHOLDER
  5
A43
102
{ACAD_REACTORS
330
A42
102
}
330
A42
  0
SCALE
  5
1A87
102
{ACAD_REACTORS
330
1A86
102
}
330
1A86
100
AcDbScale
 70
     0
300
1:1
140
1.0
141
1.0
290
     1
  0
SCALE
  5
1A88
102
{ACAD_REACTORS
330
1A86
102
}
330
1A86
100
AcDbScale
 70
     0
300
1:2
140
1.0
141
2.0
290
     0
  0
SCALE
  5
1A89
102
{ACAD_REACTORS
330
1A86
102
}
330
1A86
100
AcDbScale
 70
     0
300
1:4
140
1.0
141
4.0
290
     0
  0
SCALE
  5
1A8A
102
{ACAD_REACTORS
330
1A86
102
}
330
1A86
100
AcDbScale
 70
     0
300
1:5
140
1.0
141
5.0
290
     0
  0
SCALE
  5
1A8B
102
{ACAD_REACTORS
330
1A86
102
}
330
1A86
100
AcDbScale
 70
     0
300
1:8
140
1.0
141
8.0
290
     0
  0
SCALE
  5
1A8C
102
{ACAD_REACTORS
330
1A86
102
}
330
1A86
100
AcDbScale
 70
     0
300
1:10
140
1.0
141
10.0
290
     0
  0
SCALE
  5
1A8D
102
{ACAD_REACTORS
330
1A86
102
}
330
1A86
100
AcDbScale
 70
     0
300
1:16
140
1.0
141
16.0
290
     0
  0
SCALE
  5
1A8E
102
{ACAD_REACTORS
330
1A86
102
}
330
1A86
100
AcDbScale
 70
     0
300
1:20
140
1.0
141
20.0
290
     0
  0
SCALE
  5
1A8F
102
{ACAD_REACTORS
330
1A86
102
}
330
1A86
100
AcDbScale
 70
     0
300
1:30
140
1.0
141
30.0
290
     0
  0
SCALE
  5
1A90
102
{ACAD_REACTORS
330
1A86
102
}
330
1A86
100
AcDbScale
 70
     0
300
1:40
140
1.0
141
40.0
290
     0
  0
SCALE
  5
1A91
102
{ACAD_REACTORS
330
1A86
102
}
330
1A86
100
AcDbScale
 70
     0
300
1:50
140
1.0
141
50.0
290
     0
  0
SCALE
  5
1A92
102
{ACAD_REACTORS
330
1A86
102
}
330
1A86
100
AcDbScale
 70
     0
300
1:100
140
1.0
141
100.0
290
     0
  0
SCALE
  5
1A93
102
{ACAD_REACTORS
330
1A86
102
}
330
1A86
100
AcDbScale
 70
     0
300
2:1
140
2.0
141
1.0
290
     0
  0
SCALE
  5
1A94
102
{ACAD_REACTORS
330
1A86
102
}
330
1A86
100
AcDbScale
 70
     0
300
4:1
140
4.0
141
1.0
290
     0
  0
SCALE
  5
1A95
102
{ACAD_REACTORS
330
1A86
102
}
330
1A86
100
AcDbScale
 70
     0
300
8:1
140
8.0
141
1.0
290
     0
  0
SCALE
  5
1A96
102
{ACAD_REACTORS
330
1A86
102
}
330
1A86
100
AcDbScale
 70
     0
300
10:1
140
10.0
141
1.0
290
     0
  0
SCALE
  5
1A97
102
{ACAD_REACTORS
330
1A86
102
}
330
1A86
100
AcDbScale
 70
     0
300
100:1
140
100.0
141
1.0
290
     0
  0
SCALE
  5
1A98
102
{ACAD_REACTORS
330
1A86
102
}
330
1A86
100
AcDbScale
 70
     0
300
1/128" = 1'-0"
140
0.0078125
141
12.0
290
     0
  0
SCALE
  5
1A99
102
{ACAD_REACTORS
330
1A86
102
}
330
1A86
100
AcDbScale
 70
     0
300
1/64" = 1'-0"
140
0.015625
141
12.0
290
     0
  0
SCALE
  5
1A9A
102
{ACAD_REACTORS
330
1A86
102
}
330
1A86
100
AcDbScale
 70
     0
300
1/32" = 1'-0"
140
0.03125
141
12.0
290
     0
  0
SCALE
  5
1A9B
102
{ACAD_REACTORS
330
1A86
102
}
330
1A86
100
AcDbScale
 70
     0
300
1/16" = 1'-0"
140
0.0625
141
12.0
290
     0
  0
SCALE
  5
1A9C
102
{ACAD_REACTORS
330
1A86
102
}
330
1A86
100
AcDbScale
 70
     0
300
3/32" = 1'-0"
140
0.09375
141
12.0
290
     0
  0
SCALE
  5
1A9D
102
{ACAD_REACTORS
330
1A86
102
}
330
1A86
100
AcDbScale
 70
     0
300
1/8" = 1'-0"
140
0.125
141
12.0
290
     0
  0
SCALE
  5
1A9E
102
{ACAD_REACTORS
330
1A86
102
}
330
1A86
100
AcDbScale
 70
     0
300
3/16" = 1'-0"
140
0.1875
141
12.0
290
     0
  0
SCALE
  5
1A9F
102
{ACAD_REACTORS
330
1A86
102
}
330
1A86
100
AcDbScale
 70
     0
300
1/4" = 1'-0"
140
0.25
141
12.0
290
     0
  0
SCALE
  5
1AA0
102
{ACAD_REACTORS
330
1A86
102
}
330
1A86
100
AcDbScale
 70
     0
300
3/8" = 1'-0"
140
0.375
141
12.0
290
     0
  0
SCALE
  5
1AA1
102
{ACAD_REACTORS
330
1A86
102
}
330
1A86
100
AcDbScale
 70
     0
300
1/2" = 1'-0"
140
0.5
141
12.0
290
     0
  0
SCALE
  5
1AA2
102
{ACAD_REACTORS
330
1A86
102
}
330
1A86
100
AcDbScale
 70
     0
300
3/4" = 1'-0"
140
0.75
141
12.0
290
     0
  0
SCALE
  5
1AA3
102
{ACAD_REACTORS
330
1A86
102
}
330
1A86
100
AcDbScale
 70
     0
300
1" = 1'-0"
140
1.0
141
12.0
290
     0
  0
SCALE
  5
1AA4
102
{ACAD_REACTORS
330
1A86
102
}
330
1A86
100
AcDbScale
 70
     0
300
1-1/2" = 1'-0"
140
1.5
141
12.0
290
     0
  0
SCALE
  5
1AA5
102
{ACAD_REACTORS
330
1A86
102
}
330
1A86
100
AcDbScale
 70
     0
300
3" = 1'-0"
140
3.0
141
12.0
290
     0
  0
SCALE
  5
1AA6
102
{ACAD_REACTORS
330
1A86
102
}
330
1A86
100
AcDbScale
 70
     0
300
6" = 1'-0"
140
6.0
141
12.0
290
     0
  0
SCALE
  5
1AA7
102
{ACAD_REACTORS
330
1A86
102
}
330
1A86
100
AcDbScale
 70
     0
300
1'-0" = 1'-0"
140
12.0
141
12.0
290
     0
  0
TABLESTYLE
  5
1A85
102
{ACAD_XDICTIONARY
360
3866
102
}
102
{ACAD_REACTORS
330
1A84
102
}
330
1A84
100
AcDbTableStyle
  3
Standard
 70
     0
 71
     0
 40
0.06
 41
0.06
280
     0
281
     0
  7
STANDARD
140
0.18
170
     2
 62
     0
 63
     7
283
     0
274
    -2
284
     1
 64
     0
275
    -2
285
     1
 65
     0
276
    -2
286
     1
 66
     0
277
    -2
287
     1
 67
     0
278
    -2
288
     1
 68
     0
279
    -2
289
     1
 69
     0
  7
STANDARD
140
0.25
170
     5
 62
     0
 63
     7
283
     0
274
    -2
284
     1
 64
     0
275
    -2
285
     1
 65
     0
276
    -2
286
     1
 66
     0
277
    -2
287
     1
 67
     0
278
    -2
288
     1
 68
     0
279
    -2
289
     1
 69
     0
  7
STANDARD
140
0.18
170
     5
 62
     0
 63
     7
283
     0
274
    -2
284
     1
 64
     0
275
    -2
285
     1
 65
     0
276
    -2
286
     1
 66
     0
277
    -2
287
     1
 67
     0
278
    -2
288
     1
 68
     0
279
    -2
289
     1
 69
     0
  0
VISUALSTYLE
  5
1A76
102
{ACAD_XDICTIONARY
360
387A
102
}
102
{ACAD_REACTORS
330
1A70
102
}
330
1A70
100
AcDbVisualStyle
  2
2dWireframe
 70
     4
 71
     0
 72
     2
 73
     0
 90
        0
 40
-0.6
 41
-30.0
 62
     5
 63
     7
 74
     1
 91
        4
 64
     7
 65
   257
 75
     1
175
     1
 42
1.0
 92
        0
 66
   257
 43
1.0
 76
     1
 77
     6
 78
     2
 67
     7
 79
     5
170
     0
171
     0
290
     0
174
     0
 93
        1
 44
0.0
173
     0
291
     0
 45
0.0
1001
ACAD
1000
AcDbSavedByObjectVersion
1070
     0
  0
VISUALSTYLE
  5
1A78
102
{ACAD_XDICTIONARY
360
387E
102
}
102
{ACAD_REACTORS
330
1A70
102
}
330
1A70
100
AcDbVisualStyle
  2
3D Hidden
 70
     6
 71
     1
 72
     2
 73
     2
 90
        0
 40
-0.6
 41
-30.0
 62
     5
 63
     7
 74
     2
 91
        2
 64
     7
 65
   257
 75
     2
175
     1
 42
179.0
 92
        0
 66
   257
 43
1.0
 76
     1
 77
     6
 78
     2
 67
     7
 79
     3
170
     0
171
     0
290
     0
174
     0
 93
        1
 44
0.0
173
     0
291
     0
 45
0.0
1001
ACAD
1000
AcDbSavedByObjectVersion
1070
     0
  0
VISUALSTYLE
  5
1A77
102
{ACAD_XDICTIONARY
360
387C
102
}
102
{ACAD_REACTORS
330
1A70
102
}
330
1A70
100
AcDbVisualStyle
  2
3dWireframe
 70
     5
 71
     0
 72
     2
 73
     0
 90
        0
 40
-0.6
 41
-30.0
 62
     5
 63
     7
 74
     1
 91
        4
 64
     7
 65
   257
 75
     1
175
     1
 42
1.0
 92
        0
 66
   257
 43
1.0
 76
     1
 77
     6
 78
     2
 67
     7
 79
     5
170
     0
171
     0
290
     0
174
     0
 93
        1
 44
0.0
173
     0
291
     0
 45
0.0
1001
ACAD
1000
AcDbSavedByObjectVersion
1070
     0
  0
VISUALSTYLE
  5
1A75
102
{ACAD_XDICTIONARY
360
3878
102
}
102
{ACAD_REACTORS
330
1A70
102
}
330
1A70
100
AcDbVisualStyle
  2
Basic
 70
     7
 71
     1
 72
     0
 73
     1
 90
        0
 40
-0.6
 41
-30.0
 62
     5
 63
     7
 74
     0
 91
        4
 64
     7
 65
   257
 75
     1
175
     1
 42
1.0
 92
        8
 66
     7
 43
1.0
 76
     1
 77
     6
 78
     2
 67
     7
 79
     5
170
     0
171
     0
290
     0
174
     0
 93
        1
 44
0.0
173
     0
291
     1
 45
0.0
1001
ACAD
1000
AcDbSavedByObjectVersion
1070
     0
  0
VISUALSTYLE
  5
1A7C
102
{ACAD_XDICTIONARY
360
3886
102
}
102
{ACAD_REACTORS
330
1A70
102
}
330
1A70
100
AcDbVisualStyle
  2
Brighten
 70
    12
 71
     2
 72
     2
 73
     0
 90
        0
 40
-0.6
 41
-30.0
 62
     5
 63
     7
 74
     1
 91
        4
 64
     7
 65
   257
 75
     1
175
     1
 42
1.0
 92
        8
 66
     7
 43
1.0
 76
     1
 77
     6
 78
     2
 67
     7
 79
     5
170
     0
171
     0
290
     0
174
     0
 93
        1
 44
50.0
173
     0
291
     1
 45
0.0
1001
ACAD
1000
AcDbSavedByObjectVersion
1070
     0
  0
VISUALSTYLE
  5
1A80
102
{ACAD_XDICTIONARY
360
388E
102
}
102
{ACAD_REACTORS
330
1A70
102
}
330
1A70
100
AcDbVisualStyle
  2
ColorChange
 70
    16
 71
     2
 72
     2
 73
     3
 90
        0
 40
-0.6
 41
-30.0
 62
     5
 63
     8
 74
     1
 91
        4
 64
     7
 65
   257
 75
     1
175
     1
 42
1.0
 92
        8
 66
     8
 43
1.0
 76
     1
 77
     6
 78
     2
 67
     7
 79
     5
170
     0
171
     0
290
     0
174
     0
 93
        1
 44
0.0
173
     0
291
     1
 45
0.0
1001
ACAD
1000
AcDbSavedByObjectVersion
1070
     0
  0
VISUALSTYLE
  5
1A79
102
{ACAD_XDICTIONARY
360
3880
102
}
102
{ACAD_REACTORS
330
1A70
102
}
330
1A70
100
AcDbVisualStyle
  2
Conceptual
 70
     9
 71
     3
 72
     2
 73
     0
 90
        0
 40
-0.6
 41
-30.0
 62
     5
 63
     7
 74
     2
 91
        2
 64
     7
 65
   257
 75
     1
175
     1
 42
179.0
 92
        8
 66
     7
 43
1.0
 76
     1
 77
     6
 78
     2
 67
     7
 79
     3
170
     0
171
     0
290
     0
174
     0
 93
        1
 44
0.0
173
     0
291
     0
 45
0.0
1001
ACAD
1000
AcDbSavedByObjectVersion
1070
     0
  0
VISUALSTYLE
  5
1A7B
102
{ACAD_XDICTIONARY
360
3884
102
}
102
{ACAD_REACTORS
330
1A70
102
}
330
1A70
100
AcDbVisualStyle
  2
Dim
 70
    11
 71
     2
 72
     2
 73
     0
 90
        0
 40
-0.6
 41
-30.0
 62
     5
 63
     7
 74
     1
 91
        4
 64
     7
 65
   257
 75
     1
175
     1
 42
1.0
 92
        8
 66
     7
 43
1.0
 76
     1
 77
     6
 78
     2
 67
     7
 79
     5
170
     0
171
     0
290
     0
174
     0
 93
        1
 44
-50.0
173
     0
291
     1
 45
0.0
1001
ACAD
1000
AcDbSavedByObjectVersion
1070
     0
  0
VISUALSTYLE
  5
1A83
102
{ACAD_XDICTIONARY
360
3894
102
}
102
{ACAD_REACTORS
330
1A70
102
}
330
1A70
100
AcDbVisualStyle
  2
EdgeColorOff
 70
    22
 71
     2
 72
     2
 73
     0
 90
        0
 40
-0.6
 41
-30.0
 62
     5
 63
     7
 74
     1
 91
        4
 64
     7
 65
   257
 75
     1
175
     1
 42
1.0
 92
        8
 66
     7
 43
1.0
 76
     1
 77
     6
 78
     2
 67
     7
 79
     5
170
     0
171
     0
290
     0
174
     0
 93
        1
 44
0.0
173
     0
291
     1
 45
0.0
1001
ACAD
1000
AcDbSavedByObjectVersion
1070
     0
  0
VISUALSTYLE
  5
1A7F
102
{ACAD_XDICTIONARY
360
388C
102
}
102
{ACAD_REACTORS
330
1A70
102
}
330
1A70
100
AcDbVisualStyle
  2
Facepattern
 70
    15
 71
     2
 72
     2
 73
     0
 90
        0
 40
-0.6
 41
-30.0
 62
     5
 63
     7
 74
     1
 91
        4
 64
     7
 65
   257
 75
     1
175
     1
 42
1.0
 92
        8
 66
     7
 43
1.0
 76
     1
 77
     6
 78
     2
 67
     7
 79
     5
170
     0
171
     0
290
     0
174
     0
 93
        1
 44
0.0
173
     0
291
     1
 45
0.0
1001
ACAD
1000
AcDbSavedByObjectVersion
1070
     0
  0
VISUALSTYLE
  5
1A71
102
{ACAD_XDICTIONARY
360
3870
102
}
102
{ACAD_REACTORS
330
1A70
102
}
330
1A70
100
AcDbVisualStyle
  2
Flat
 70
     0
 71
     2
 72
     1
 73
     1
 90
        2
 40
-0.6
 41
30.0
 62
     5
 63
     7
 74
     0
 91
        4
 64
     7
 65
   257
 75
     1
175
     1
 42
1.0
 92
        8
 66
     7
 43
1.0
 76
     1
 77
     6
 78
     2
 67
     7
 79
     5
170
     0
171
     0
290
     0
174
     0
 93
       13
 44
0.0
173
     0
291
     1
 45
0.0
1001
ACAD
1000
AcDbSavedByObjectVersion
1070
     0
  0
VISUALSTYLE
  5
1A72
102
{ACAD_XDICTIONARY
360
3872
102
}
102
{ACAD_REACTORS
330
1A70
102
}
330
1A70
100
AcDbVisualStyle
  2
FlatWithEdges
 70
     1
 71
     2
 72
     1
 73
     1
 90
        2
 40
-0.6
 41
30.0
 62
     5
 63
     7
 74
     1
 91
        4
 64
     7
 65
   257
 75
     1
175
     1
 42
1.0
 92
        0
 66
   257
 43
1.0
 76
     1
 77
     6
 78
     2
 67
     7
 79
     5
170
     0
171
     0
290
     0
174
     0
 93
       13
 44
0.0
173
     0
291
     1
 45
0.0
1001
ACAD
1000
AcDbSavedByObjectVersion
1070
     0
  0
VISUALSTYLE
  5
1A73
102
{ACAD_XDICTIONARY
360
3874
102
}
102
{ACAD_REACTORS
330
1A70
102
}
330
1A70
100
AcDbVisualStyle
  2
Gouraud
 70
     2
 71
     2
 72
     2
 73
     1
 90
        2
 40
-0.6
 41
30.0
 62
     5
 63
     7
 74
     0
 91
        4
 64
     7
 65
   257
 75
     1
175
     1
 42
1.0
 92
        0
 66
     7
 43
1.0
 76
     1
 77
     6
 78
     2
 67
     7
 79
     5
170
     0
171
     0
290
     0
174
     0
 93
       13
 44
0.0
173
     0
291
     1
 45
0.0
1001
ACAD
1000
AcDbSavedByObjectVersion
1070
     0
  0
VISUALSTYLE
  5
1A74
102
{ACAD_XDICTIONARY
360
3876
102
}
102
{ACAD_REACTORS
330
1A70
102
}
330
1A70
100
AcDbVisualStyle
  2
GouraudWithEdges
 70
     3
 71
     2
 72
     2
 73
     1
 90
        2
 40
-0.6
 41
30.0
 62
     5
 63
     7
 74
     1
 91
        4
 64
     7
 65
   257
 75
     1
175
     1
 42
1.0
 92
        0
 66
   257
 43
1.0
 76
     1
 77
     6
 78
     2
 67
     7
 79
     5
170
     0
171
     0
290
     0
174
     0
 93
       13
 44
0.0
173
     0
291
     1
 45
0.0
1001
ACAD
1000
AcDbSavedByObjectVersion
1070
     0
  0
VISUALSTYLE
  5
1A81
102
{ACAD_XDICTIONARY
360
3890
102
}
102
{ACAD_REACTORS
330
1A70
102
}
330
1A70
100
AcDbVisualStyle
  2
JitterOff
 70
    20
 71
     2
 72
     2
 73
     0
 90
        0
 40
-0.6
 41
-30.0
 62
     5
 63
     7
 74
     1
 91
        4
 64
     7
 65
   257
 75
     1
175
     1
 42
1.0
 92
       10
 66
     7
 43
1.0
 76
     1
 77
     6
 78
     2
 67
     7
 79
     5
170
     0
171
     0
290
     0
174
     0
 93
        1
 44
0.0
173
     0
291
     1
 45
0.0
1001
ACAD
1000
AcDbSavedByObjectVersion
1070
     0
  0
VISUALSTYLE
  5
1A7E
102
{ACAD_XDICTIONARY
360
388A
102
}
102
{ACAD_REACTORS
330
1A70
102
}
330
1A70
100
AcDbVisualStyle
  2
Linepattern
 70
    14
 71
     2
 72
     2
 73
     0
 90
        0
 40
-0.6
 41
-30.0
 62
     5
 63
     7
 74
     1
 91
        4
 64
     7
 65
   257
 75
     7
175
     7
 42
1.0
 92
        8
 66
     7
 43
1.0
 76
     1
 77
     6
 78
     2
 67
     7
 79
     5
170
     0
171
     0
290
     0
174
     0
 93
        1
 44
0.0
173
     0
291
     1
 45
0.0
1001
ACAD
1000
AcDbSavedByObjectVersion
1070
     0
  0
VISUALSTYLE
  5
1A82
102
{ACAD_XDICTIONARY
360
3892
102
}
102
{ACAD_REACTORS
330
1A70
102
}
330
1A70
100
AcDbVisualStyle
  2
OverhangOff
 70
    21
 71
     2
 72
     2
 73
     0
 90
        0
 40
-0.6
 41
-30.0
 62
     5
 63
     7
 74
     1
 91
        4
 64
     7
 65
   257
 75
     1
175
     1
 42
1.0
 92
        9
 66
     7
 43
1.0
 76
     1
 77
     6
 78
     2
 67
     7
 79
     5
170
     0
171
     0
290
     0
174
     0
 93
        1
 44
0.0
173
     0
291
     1
 45
0.0
1001
ACAD
1000
AcDbSavedByObjectVersion
1070
     0
  0
VISUALSTYLE
  5
1A7A
102
{ACAD_XDICTIONARY
360
3882
102
}
102
{ACAD_REACTORS
330
1A70
102
}
330
1A70
100
AcDbVisualStyle
  2
Realistic
 70
     8
 71
     2
 72
     2
 73
     0
 90
        0
 40
-0.6
 41
-30.0
 62
     5
 63
     7
 74
     1
 91
        0
 64
     7
 65
   257
 75
     1
175
     1
 42
1.0
 92
        8
 66
     8
 43
1.0
 76
     1
 77
     6
 78
     2
 67
     7
 79
     5
170
     0
171
     0
290
     0
174
     0
 93
       13
 44
0.0
173
     0
291
     0
 45
0.0
1001
ACAD
1000
AcDbSavedByObjectVersion
1070
     0
  0
VISUALSTYLE
  5
1A7D
102
{ACAD_XDICTIONARY
360
3888
102
}
102
{ACAD_REACTORS
330
1A70
102
}
330
1A70
100
AcDbVisualStyle
  2
Thicken
 70
    13
 71
     2
 72
     2
 73
     0
 90
        0
 40
-0.6
 41
-30.0
 62
     5
 63
     7
 74
     1
 91
        4
 64
     7
 65
   257
 75
     1
175
     1
 42
1.0
 92
       12
 66
     7
 43
1.0
 76
     1
 77
     6
 78
     2
 67
     7
 79
     5
170
     0
171
     0
290
     0
174
     0
 93
        1
 44
0.0
173
     0
291
     1
 45
0.0
1001
ACAD
1000
AcDbSavedByObjectVersion
1070
     0
  0
ACAD_PROXY_OBJECT
  5
D2
330
0
100
AcDbProxyObject
 90
      499
 91
      538
 95
   393235
 70
     0
 93
      736
310
9084D2E312E3232336407014B7269BC41100000000000000E03F1EC52B91F85EA10FE1EC52B91F85EA10FD034153471EC52B91F85EA10FC000000FC83D797414650540C000000000000E03F3F2A7C749358940FC000000FC83D7974158
 94
        0
1001
ACAD
1000
AcRTDxfName
1000
ASSYSVARS
1000
AcRTDxfName
1000
ASSYSVARS
1000
AcRTDxfName
1000
ASSYSVARS
  0
DICTIONARYVAR
  5
374C
102
{ACAD_REACTORS
330
A52
102
}
330
A52
100
DictionaryVariables
280
     0
  1
1:1
  0
DICTIONARYVAR
  5
374A
102
{ACAD_REACTORS
330
A52
102
}
330
A52
100
DictionaryVariables
280
     0
  1
STANDARD
  0
DICTIONARYVAR
  5
3749
102
{ACAD_REACTORS
330
A52
102
}
330
A52
100
DictionaryVariables
280
     0
  1
STANDARD
  0
DICTIONARYVAR
  5
A53
102
{ACAD_REACTORS
330
A52
102
}
330
A52
100
DictionaryVariables
280
     0
  1
1
  0
DICTIONARYVAR
  5
3864
102
{ACAD_REACTORS
330
A52
102
}
330
A52
100
DictionaryVariables
280
     0
  1
0
  0
DICTIONARYVAR
  5
374E
102
{ACAD_REACTORS
330
A52
102
}
330
A52
100
DictionaryVariables
280
     0
  1
1
  0
DICTIONARYVAR
  5
374F
102
{ACAD_REACTORS
330
A52
102
}
330
A52
100
DictionaryVariables
280
     0
  1
15
  0
DICTIONARYVAR
  5
374D
102
{ACAD_REACTORS
330
A52
102
}
330
A52
100
DictionaryVariables
280
     0
  1
0
  0
DICTIONARYVAR
  5
374B
102
{ACAD_REACTORS
330
A52
102
}
330
A52
100
DictionaryVariables
280
     0
  1
0
  0
DICTIONARYVAR
  5
18A5
102
{ACAD_REACTORS
330
A52
102
}
330
A52
100
DictionaryVariables
280
     0
  1

  0
DICTIONARYVAR
  5
3863
102
{ACAD_REACTORS
330
A52
102
}
330
A52
100
DictionaryVariables
280
     0
  1
127
  0
DICTIONARYVAR
  5
3865
102
{ACAD_REACTORS
330
A52
102
}
330
A52
100
DictionaryVariables
280
     0
  1
2
  0
ACAD_PROXY_OBJECT
  5
85
330
0
100
AcDbProxyObject
 90
      499
 91
      507
 95
   393235
 70
     0
 93
      354
310
000000000000405AA6A9AA40504646174650142118B8C4B8C8C8CD9C0504646174650142118B8C4B8C8C8CD9FF
330
7F
330
86
330
87
330
89
330
0
330
0
 94
        0
1001
ACAD
1000
AcRTDxfName
1000
ADAPPL
1000
AcRTDxfName
1000
ADAPPL
1000
AcRTDxfName
1000
ADAPPL
  0
ACAD_PROXY_OBJECT
  5
86
330
0
100
AcDbProxyObject
 90
      499
 91
      508
 95
   393235
 70
     0
 93
      120
310
00009024410100000092080002A6A600
330
7F
330
96
330
95
330
0
 94
        0
1001
ACAD
1000
AcRTDxfName
1000
DEPMGR
1000
AcRTDxfName
1000
DEPMGR
1000
AcRTDxfName
1000
DEPMGR
  0
ACAD_PROXY_OBJECT
  5
87
330
0
100
AcDbProxyObject
 90
      499
 91
      509
 95
   393235
 70
     0
 93
       46
310
00000000920B
330
7F
330
0
330
88
 94
        0
1001
ACAD
1000
AcRTDxfName
1000
PARAMMGR
1000
AcRTDxfName
1000
PARAMMGR
1000
AcRTDxfName
1000
PARAMMGR
  0
ACAD_PROXY_OBJECT
  5
88
330
0
100
AcDbProxyObject
 90
      499
 91
      510
 95
   393235
 70
     0
 93
       22
310
0000AB
330
7F
 94
        0
1001
ACAD
1000
AcRTDxfName
1000
PARAMSCOPE
1000
AcRTDxfName
1000
PARAMSCOPE
1000
AcRTDxfName
1000
PARAMSCOPE
  0
ACAD_PROXY_OBJECT
  5
8A
330
0
100
AcDbProxyObject
 90
      499
 91
      512
 95
   393235
 70
     0
 93
      124
310
00000142905350D3D39114D414D6905F
330
7F
 94
        0
1001
ACAD
1000
AcRTDxfName
1000
SYSTEM_VAR_INT
1000
AcRTDxfName
1000
SYSTEM_VAR_INT
1000
AcRTDxfName
1000
SYSTEM_VAR_INT
  0
ACAD_PROXY_OBJECT
  5
8B
330
0
100
AcDbProxyObject
 90
      499
 91
      512
 95
   393235
 70
     0
 93
      124
310
000001429053549553115353D111501F
330
7F
 94
        0
1001
ACAD
1000
AcRTDxfName
1000
SYSTEM_VAR_INT
1000
AcRTDxfName
1000
SYSTEM_VAR_INT
1000
AcRTDxfName
1000
SYSTEM_VAR_INT
  0
ACAD_PROXY_OBJECT
  5
8C
330
0
100
AcDbProxyObject
 90
      499
 91
      512
 95
   393235
 70
     0
 93
      108
310
00000142105354D2D353D111501F
330
7F
 94
        0
1001
ACAD
1000
AcRTDxfName
1000
SYSTEM_VAR_INT
1000
AcRTDxfName
1000
SYSTEM_VAR_INT
1000
AcRTDxfName
1000
SYSTEM_VAR_INT
  0
ACAD_PROXY_OBJECT
  5
8D
330
0
100
AcDbProxyObject
 90
      499
 91
      512
 95
   393235
 70
     0
 93
      140
310
000001435053511253511254D41353D1116F
330
7F
 94
        0
1001
ACAD
1000
AcRTDxfName
1000
SYSTEM_VAR_INT
1000
AcRTDxfName
1000
SYSTEM_VAR_INT
1000
AcRTDxfName
1000
SYSTEM_VAR_INT
  0
ACAD_PROXY_OBJECT
  5
8E
330
0
100
AcDbProxyObject
 90
      499
 91
      513
 95
   393235
 70
     0
 93
      180
310
00000142905354D2D05391D513D300000000000001040F
330
7F
 94
        0
1001
ACAD
1000
AcRTDxfName
1000
SYSTEM_VAR_REAL
1000
AcRTDxfName
1000
SYSTEM_VAR_REAL
1000
AcRTDxfName
1000
SYSTEM_VAR_REAL
  0
ACAD_PROXY_OBJECT
  5
8F
330
0
100
AcDbProxyObject
 90
      499
 91
      514
 95
   393235
 70
     0
 93
      164
310
00000142505354D2D4D516531140505434F4E542AF
330
7F
 94
        0
1001
ACAD
1000
AcRTDxfName
1000
SYSTEM_VAR_STR
1000
AcRTDxfName
1000
SYSTEM_VAR_STR
1000
AcRTDxfName
1000
SYSTEM_VAR_STR
  0
ACAD_PROXY_OBJECT
  5
90
330
0
100
AcDbProxyObject
 90
      499
 91
      512
 95
   393235
 70
     0
 93
      108
310
00000142105350D351111253501F
330
7F
 94
        0
1001
ACAD
1000
AcRTDxfName
1000
SYSTEM_VAR_INT
1000
AcRTDxfName
1000
SYSTEM_VAR_INT
1000
AcRTDxfName
1000
SYSTEM_VAR_INT
  0
ACAD_PROXY_OBJECT
  5
91
330
0
100
AcDbProxyObject
 90
      499
 91
      514
 95
   393235
 70
     0
 93
      116
310
00000142505354105491925311406F
330
7F
 94
        0
1001
ACAD
1000
AcRTDxfName
1000
SYSTEM_VAR_STR
1000
AcRTDxfName
1000
SYSTEM_VAR_STR
1000
AcRTDxfName
1000
SYSTEM_VAR_STR
  0
ACAD_PROXY_OBJECT
  5
92
330
0
100
AcDbProxyObject
 90
      499
 91
      512
 95
   393235
 70
     0
 93
      100
310
00000142105350D3D35414D5AF
330
7F
 94
        0
1001
ACAD
1000
AcRTDxfName
1000
SYSTEM_VAR_INT
1000
AcRTDxfName
1000
SYSTEM_VAR_INT
1000
AcRTDxfName
1000
SYSTEM_VAR_INT
  0
ACAD_PROXY_OBJECT
  5
95
330
0
100
AcDbProxyObject
 90
      499
 91
      517
 95
   393235
 70
     0
 93
      164
310
000092090148200A00000440000FFFFFFFF000000F
330
7F
330
96
330
86
330
0
 94
        0
1001
ACAD
1000
AcRTDxfName
1000
ADBASE
1000
AcRTDxfName
1000
ADBASE
1000
AcRTDxfName
1000
ADBASE
  0
ACAD_PROXY_OBJECT
  5
96
330
0
100
AcDbProxyObject
 90
      499
 91
      518
 95
   393235
 70
     0
 93
       82
310
000040520802482A80003F
330
7F
330
95
330
86
330
0
 94
        0
1001
ACAD
1000
AcRTDxfName
1000
BODYID
1000
AcRTDxfName
1000
BODYID
1000
AcRTDxfName
1000
BODYID
  0
ACAD_PROXY_OBJECT
  5
97
330
0
100
AcDbProxyObject
 90
      499
 91
      510
 95
   393235
 70
     0
 93
       22
310
0000AB
330
7F
 94
        0
1001
ACAD
1000
AcRTDxfName
1000
PARAMSCOPE
1000
AcRTDxfName
1000
PARAMSCOPE
1000
AcRTDxfName
1000
PARAMSCOPE
  0
ACAD_PROXY_OBJECT
  5
98
330
0
100
AcDbProxyObject
 90
      499
 91
      519
 95
   393235
 70
     0
 93
       38
310
000000920B
330
7F
330
0
 94
        0
1001
ACAD
1000
AcRTDxfName
1000
WORKPLANEDISPLAYMGR
1000
AcRTDxfName
1000
WORKPLANEDISPLAYMGR
1000
AcRTDxfName
1000
WORKPLANEDISPLAYMGR
  0
ACAD_PROXY_OBJECT
  5
99
330
0
100
AcDbProxyObject
 90
      499
 91
      520
 95
   393235
 70
     0
 93
     3204
310
0000419208050A44555243485F424F4852014254D050D2D7D093D2148050C44555243485F5A594C494E440142D4D050D2D7D696531253910050B44555243485F4B4547454C014294D050D2D7D2D151D15310648201451EC94958C8094950535112504811155490D20B9F4051D7B252563202525414D4449412058202525414
310
D4445502054494546457D014F5EC94958C8094950535112504811155490D20B9F57141ED6965312539108094958C80949505350D112504816080949505350D09111540815125151915F405467B252563202525414D4449412058202525414D4445502054494546457D5C507B5A594C494E4420252563202525414D43444941
310
2058202525414D43424445502054494546457D014E5EC94958C8094950535112504811155490D20B9F57141ED2D151D15308094958C80949505350D112504816080949505350D4D05391C949591F405427B252563202525414D4449412058202525414D4445502054494546457D5C507B4B4547454C20252563202525414D4
310
34449412058202525414D4353414E472525647DF
330
7F
 94
        0
1001
ACAD
1000
AcRTDxfName
1000
ADHNTMPLT
1000
AcRTDxfName
1000
ADHNTMPLT
1000
AcRTDxfName
1000
ADHNTMPLT
  0
ACAD_PROXY_OBJECT
  5
9C
330
0
100
AcDbProxyObject
 90
      499
 91
      523
 95
   393235
 70
     0
 93
      332
310
0000014119185D1940508442E312E32323362014119185D1940508442E312E323233624050100000000F
330
7F
330
9D
330
9F
330
A0
330
0
 94
        0
1001
ACAD
1000
AcRTDxfName
1000
AM_DRAWING_MGR
1000
AcRTDxfName
1000
AM_DRAWING_MGR
1000
AcRTDxfName
1000
AM_DRAWING_MGR
  0
ACAD_PROXY_OBJECT
  5
9D
330
0
100
AcDbProxyObject
 90
      499
 91
      524
 95
   393235
 70
     0
 93
       56
310
0000901441010000
330
7F
330
9E
 94
        0
1001
ACAD
1000
AcRTDxfName
1000
AM_DWG_DOCUMENT
1000
AcRTDxfName
1000
AM_DWG_DOCUMENT
1000
AcRTDxfName
1000
AM_DWG_DOCUMENT
  0
ACAD_PROXY_OBJECT
  5
9E
330
0
100
AcDbProxyObject
 90
      499
 91
      525
 95
   393235
 70
     0
 93
       40
310
0000A4410100
330
7F
 94
        0
1001
ACAD
1000
AcRTDxfName
1000
AM_DWG_SHEET
1000
AcRTDxfName
1000
AM_DWG_SHEET
1000
AcRTDxfName
1000
AM_DWG_SHEET
  0
ACAD_PROXY_OBJECT
  5
9F
330
0
100
AcDbProxyObject
 90
      499
 91
      526
 95
   393235
 70
     0
 93
       68
310
0000A44101920A482F
330
7F
 94
        0
1001
ACAD
1000
AcRTDxfName
1000
AM_VIEWDIMPARMAP
1000
AcRTDxfName
1000
AM_VIEWDIMPARMAP
1000
AcRTDxfName
1000
AM_VIEWDIMPARMAP
  0
ACAD_PROXY_OBJECT
  5
A1
330
0
100
AcDbProxyObject
 90
      499
 91
      512
 95
   393235
 70
     0
 93
      108
310
000001421053521310D05310D01F
330
7F
 94
        0
1001
ACAD
1000
AcRTDxfName
1000
SYSTEM_VAR_INT
1000
AcRTDxfName
1000
SYSTEM_VAR_INT
1000
AcRTDxfName
1000
SYSTEM_VAR_INT
  0
ACAD_PROXY_OBJECT
  5
A2
330
0
100
AcDbProxyObject
 90
      499
 91
      512
 95
   393235
 70
     0
 93
      124
310
000001429053541493D295165411501F
330
7F
 94
        0
1001
ACAD
1000
AcRTDxfName
1000
SYSTEM_VAR_INT
1000
AcRTDxfName
1000
SYSTEM_VAR_INT
1000
AcRTDxfName
1000
SYSTEM_VAR_INT
  0
ACAD_PROXY_OBJECT
  5
A3
330
0
100
AcDbProxyObject
 90
      499
 91
      512
 95
   393235
 70
     0
 93
      124
310
00000142905354915554D1511253501F
330
7F
 94
        0
1001
ACAD
1000
AcRTDxfName
1000
SYSTEM_VAR_INT
1000
AcRTDxfName
1000
SYSTEM_VAR_INT
1000
AcRTDxfName
1000
SYSTEM_VAR_INT
  0
ACAD_PROXY_OBJECT
  5
A4
330
0
100
AcDbProxyObject
 90
      499
 91
      512
 95
   393235
 70
     0
 93
      132
310
00000143105354D150D51253D39112536F
330
7F
 94
        0
1001
ACAD
1000
AcRTDxfName
1000
SYSTEM_VAR_INT
1000
AcRTDxfName
1000
SYSTEM_VAR_INT
1000
AcRTDxfName
1000
SYSTEM_VAR_INT
  0
ACAD_PROXY_OBJECT
  5
A5
330
0
100
AcDbProxyObject
 90
      499
 91
      512
 95
   393235
 70
     0
 93
      124
310
00000142905355941093D4911154901F
330
7F
 94
        0
1001
ACAD
1000
AcRTDxfName
1000
SYSTEM_VAR_INT
1000
AcRTDxfName
1000
SYSTEM_VAR_INT
1000
AcRTDxfName
1000
SYSTEM_VAR_INT
  0
ACAD_PROXY_OBJECT
  5
A6
330
0
100
AcDbProxyObject
 90
      499
 91
      512
 95
   393235
 70
     0
 93
      116
310
0000014290535115D1D0D3D313D4AF
330
7F
 94
        0
1001
ACAD
1000
AcRTDxfName
1000
SYSTEM_VAR_INT
1000
AcRTDxfName
1000
SYSTEM_VAR_INT
1000
AcRTDxfName
1000
SYSTEM_VAR_INT
  0
ACAD_PROXY_OBJECT
  5
A7
330
0
100
AcDbProxyObject
 90
      499
 91
      514
 95
   393235
 70
     0
 93
      196
310
0000014290535212511315165411405085645524445434B54F
330
7F
 94
        0
1001
ACAD
1000
AcRTDxfName
1000
SYSTEM_VAR_STR
1000
AcRTDxfName
1000
SYSTEM_VAR_STR
1000
AcRTDxfName
1000
SYSTEM_VAR_STR
  0
ACAD_PROXY_OBJECT
  5
A9
330
0
100
AcDbProxyObject
 90
      499
 91
      514
 95
   393235
 70
     0
 93
      196
310
00000142905354D150D315165411405085048414E544F4D32F
330
7F
 94
        0
1001
ACAD
1000
AcRTDxfName
1000
SYSTEM_VAR_STR
1000
AcRTDxfName
1000
SYSTEM_VAR_STR
1000
AcRTDxfName
1000
SYSTEM_VAR_STR
  0
ACAD_PROXY_OBJECT
  5
AA
330
0
100
AcDbProxyObject
 90
      499
 91
      512
 95
   393235
 70
     0
 93
      108
310
00000142105354D51114D0D5102F
330
7F
 94
        0
1001
ACAD
1000
AcRTDxfName
1000
SYSTEM_VAR_INT
1000
AcRTDxfName
1000
SYSTEM_VAR_INT
1000
AcRTDxfName
1000
SYSTEM_VAR_INT
  0
ACAD_PROXY_OBJECT
  5
AB
330
0
100
AcDbProxyObject
 90
      499
 91
      512
 95
   393235
 70
     0
 93
      108
310
00000142105354D511151054102F
330
7F
 94
        0
1001
ACAD
1000
AcRTDxfName
1000
SYSTEM_VAR_INT
1000
AcRTDxfName
1000
SYSTEM_VAR_INT
1000
AcRTDxfName
1000
SYSTEM_VAR_INT
  0
ACAD_PROXY_OBJECT
  5
AC
330
0
100
AcDbProxyObject
 90
      499
 91
      512
 95
   393235
 70
     0
 93
      108
310
00000142105354D511111513102F
330
7F
 94
        0
1001
ACAD
1000
AcRTDxfName
1000
SYSTEM_VAR_INT
1000
AcRTDxfName
1000
SYSTEM_VAR_INT
1000
AcRTDxfName
1000
SYSTEM_VAR_INT
  0
ACAD_PROXY_OBJECT
  5
AD
330
0
100
AcDbProxyObject
 90
      499
 91
      513
 95
   393235
 70
     0
 93
      148
310
00000141905350D310D34295C8FC2F528BC3FF
330
7F
 94
        0
1001
ACAD
1000
AcRTDxfName
1000
SYSTEM_VAR_REAL
1000
AcRTDxfName
1000
SYSTEM_VAR_REAL
1000
AcRTDxfName
1000
SYSTEM_VAR_REAL
  0
ACAD_PROXY_OBJECT
  5
AE
330
0
100
AcDbProxyObject
 90
      499
 91
      513
 95
   393235
 70
     0
 93
      156
310
00000141D05350D311D05402B8716D9CEF7C33FF
330
7F
 94
        0
1001
ACAD
1000
AcRTDxfName
1000
SYSTEM_VAR_REAL
1000
AcRTDxfName
1000
SYSTEM_VAR_REAL
1000
AcRTDxfName
1000
SYSTEM_VAR_REAL
  0
ACAD_PROXY_OBJECT
  5
AF
330
0
100
AcDbProxyObject
 90
      499
 91
      513
 95
   393235
 70
     0
 93
      164
310
00000142105350D313D4D2150295C8FC2F528BC3FF
330
7F
 94
        0
1001
ACAD
1000
AcRTDxfName
1000
SYSTEM_VAR_REAL
1000
AcRTDxfName
1000
SYSTEM_VAR_REAL
1000
AcRTDxfName
1000
SYSTEM_VAR_REAL
  0
ACAD_PROXY_OBJECT
  5
B0
330
0
100
AcDbProxyObject
 90
      499
 91
      512
 95
   393235
 70
     0
 93
      100
310
00000141D05350D3141054901F
330
7F
 94
        0
1001
ACAD
1000
AcRTDxfName
1000
SYSTEM_VAR_INT
1000
AcRTDxfName
1000
SYSTEM_VAR_INT
1000
AcRTDxfName
1000
SYSTEM_VAR_INT
  0
ACAD_PROXY_OBJECT
  5
B1
330
0
100
AcDbProxyObject
 90
      499
 91
      512
 95
   393235
 70
     0
 93
      100
310
0000014210535590539254D22F
330
7F
 94
        0
1001
ACAD
1000
AcRTDxfName
1000
SYSTEM_VAR_INT
1000
AcRTDxfName
1000
SYSTEM_VAR_INT
1000
AcRTDxfName
1000
SYSTEM_VAR_INT
  0
ACAD_PROXY_OBJECT
  5
B2
330
0
100
AcDbProxyObject
 90
      499
 91
      513
 95
   393235
 70
     0
 93
      188
310
00000142D0535312539155121250D2C295C8FC2F5289C3FF
330
7F
 94
        0
1001
ACAD
1000
AcRTDxfName
1000
SYSTEM_VAR_REAL
1000
AcRTDxfName
1000
SYSTEM_VAR_REAL
1000
AcRTDxfName
1000
SYSTEM_VAR_REAL
  0
ACAD_PROXY_OBJECT
  5
B3
330
0
100
AcDbProxyObject
 90
      499
 91
      514
 95
   393235
 70
     0
 93
      156
310
00000142105350D315165411405054D49545445F
330
7F
 94
        0
1001
ACAD
1000
AcRTDxfName
1000
SYSTEM_VAR_STR
1000
AcRTDxfName
1000
SYSTEM_VAR_STR
1000
AcRTDxfName
1000
SYSTEM_VAR_STR
  0
ACAD_PROXY_OBJECT
  5
BC
330
0
100
AcDbProxyObject
 90
      499
 91
      512
 95
   393235
 70
     0
 93
      132
310
00000142D05050555513D4D3D31591501F
330
7F
 94
        0
1001
ACAD
1000
AcRTDxfName
1000
SYSTEM_VAR_INT
1000
AcRTDxfName
1000
SYSTEM_VAR_INT
1000
AcRTDxfName
1000
SYSTEM_VAR_INT
  0
ACAD_PROXY_OBJECT
  5
BD
330
0
100
AcDbProxyObject
 90
      499
 91
      512
 95
   393235
 70
     0
 93
      156
310
00000143905050555513D054D4D153509311501F
330
7F
 94
        0
1001
ACAD
1000
AcRTDxfName
1000
SYSTEM_VAR_INT
1000
AcRTDxfName
1000
SYSTEM_VAR_INT
1000
AcRTDxfName
1000
SYSTEM_VAR_INT
  0
ACAD_PROXY_OBJECT
  5
BE
330
0
100
AcDbProxyObject
 90
      499
 91
      512
 95
   393235
 70
     0
 93
      148
310
00000143505055925155D49154D513D491501F
330
7F
 94
        0
1001
ACAD
1000
AcRTDxfName
1000
SYSTEM_VAR_INT
1000
AcRTDxfName
1000
SYSTEM_VAR_INT
1000
AcRTDxfName
1000
SYSTEM_VAR_INT
  0
ACAD_PROXY_OBJECT
  5
BF
330
0
100
AcDbProxyObject
 90
      499
 91
      512
 95
   393235
 70
     0
 93
      124
310
00000142D050525394D15495105094EF
330
7F
 94
        0
1001
ACAD
1000
AcRTDxfName
1000
SYSTEM_VAR_INT
1000
AcRTDxfName
1000
SYSTEM_VAR_INT
1000
AcRTDxfName
1000
SYSTEM_VAR_INT
  0
ACAD_PROXY_OBJECT
  5
C6
330
0
100
AcDbProxyObject
 90
      499
 91
      531
 95
   393235
 70
     0
 93
       32
310
0000000000
330
7F
340
C3
330
C7
330
C3
 94
        0
1001
ACAD
1000
AcRTDxfName
1000
ACAMGRCOMPDEF
1000
AcRTDxfName
1000
ACAMGRCOMPDEF
1000
AcRTDxfName
1000
ACAMGRCOMPDEF
  0
ACAD_PROXY_OBJECT
  5
C7
330
0
100
AcDbProxyObject
 90
      499
 91
      532
 95
   393235
 70
     0
 93
      143
310
0000014213905351539313D4D0400522080D
330
7F
330
C6
 94
        0
1001
ACAD
1000
AcRTDxfName
1000
ACAMCOMPDEF
1000
AcRTDxfName
1000
ACAMCOMPDEF
1000
AcRTDxfName
1000
ACAMCOMPDEF
  0
ACAD_PROXY_OBJECT
  5
C8
330
0
100
AcDbProxyObject
 90
      499
 91
      533
 95
   393235
 70
     0
 93
       72
310
000000A44101A4410100
330
7F
330
C7
 94
        0
1001
ACAD
1000
AcRTDxfName
1000
ACAMCOMPDEFMGR
1000
AcRTDxfName
1000
ACAMCOMPDEFMGR
1000
AcRTDxfName
1000
ACAMCOMPDEFMGR
  0
ACAD_PROXY_OBJECT
  5
C9
330
0
100
AcDbProxyObject
 90
      499
 91
      534
 95
   393235
 70
     0
 93
       80
310
0000901441010000000066
330
7F
330
CA
330
CA
330
CA
330
CA
 94
        0
1001
ACAD
1000
AcRTDxfName
1000
AMCONTEXTMGR
1000
AcRTDxfName
1000
AMCONTEXTMGR
1000
AcRTDxfName
1000
AMCONTEXTMGR
  0
ACAD_PROXY_OBJECT
  5
CA
330
0
100
AcDbProxyObject
 90
      499
 91
      535
 95
   393235
 70
     0
 93
      173
310
00000000406AAAAAAAAAAAAAAAAA806A44101A441017
330
7F
330
C9
330
C7
 94
        0
1001
ACAD
1000
AcRTDxfName
1000
ACAMCONTEXTMODELER
1000
AcRTDxfName
1000
ACAMCONTEXTMODELER
1000
AcRTDxfName
1000
ACAMCONTEXTMODELER
  0
ACAD_PROXY_OBJECT
  5
CE
330
0
100
AcDbProxyObject
 90
      499
 91
      536
 95
   393235
 70
     0
 93
       26
310
0000803F
330
7F
330
0
 94
        0
1001
ACAD
1000
AcRTDxfName
1000
ACAMDRAWINGMAN
1000
AcRTDxfName
1000
ACAMDRAWINGMAN
1000
AcRTDxfName
1000
ACAMDRAWINGMAN
  0
PH_ENTDIMREACTOR
  5
8E6
102
{ACAD_REACTORS
330
3C
102
}
330
3C
  0
PH_ENTDIMREACTOR
  5
92E
102
{ACAD_REACTORS
330
3C
102
}
330
3C
  0
PH_ENTDIMREACTOR
  5
92F
102
{ACAD_REACTORS
330
3C
102
}
330
3C
  0
PH_ENTDIMREACTOR
  5
976
102
{ACAD_REACTORS
330
3C
102
}
330
3C
  0
PH_ENTDIMREACTOR
  5
8E7
102
{ACAD_REACTORS
330
3C
102
}
330
3C
  0
PH_DIMENTREACTOR
  5
95B
102
{ACAD_REACTORS
330
3C
102
}
330
3C
  0
PH_ENTDIMREACTOR
  5
903
102
{ACAD_REACTORS
330
3C
102
}
330
3C
  0
PH_ENTDIMREACTOR
  5
910
102
{ACAD_REACTORS
330
3C
102
}
330
3C
  0
PH_ENTDIMREACTOR
  5
967
102
{ACAD_REACTORS
330
3C
102
}
330
3C
  0
PH_ENTDIMREACTOR
  5
968
102
{ACAD_REACTORS
330
3C
102
}
330
3C
  0
PH_DIMENTREACTOR
  5
977
102
{ACAD_REACTORS
330
3C
102
}
330
3C
  0
PH_DIMENTREACTOR
  5
969
102
{ACAD_REACTORS
330
3C
102
}
330
3C
  0
PH_DIMENTREACTOR
  5
8E8
102
{ACAD_REACTORS
330
3C
102
}
330
3C
  0
PH_ENTDIMREACTOR
  5
975
102
{ACAD_REACTORS
330
3C
102
}
330
3C
  0
PH_ENTDIMREACTOR
  5
1D51
102
{ACAD_REACTORS
330
3C
102
}
330
3C
  0
PH_DIMENTREACTOR
  5
1D52
102
{ACAD_REACTORS
330
3C
102
}
330
3C
  0
PH_ENTDIMREACTOR
  5
1EB6
102
{ACAD_REACTORS
330
3C
102
}
330
3C
  0
PH_DIMENTREACTOR
  5
904
102
{ACAD_REACTORS
330
3C
102
}
330
3C
  0
PH_ENTDIMREACTOR
  5
1EB7
102
{ACAD_REACTORS
330
3C
102
}
330
3C
  0
PH_DIMENTREACTOR
  5
1EB8
102
{ACAD_REACTORS
330
3C
102
}
330
3C
  0
PH_DIMENTREACTOR
  5
930
102
{ACAD_REACTORS
330
3C
102
}
330
3C
  0
PH_ENTDIMREACTOR
  5
8F4
102
{ACAD_REACTORS
330
3C
102
}
330
3C
  0
PH_ENTDIMREACTOR
  5
8F5
102
{ACAD_REACTORS
330
3C
102
}
330
3C
  0
PH_DIMENTREACTOR
  5
8F6
102
{ACAD_REACTORS
330
3C
102
}
330
3C
  0
PH_ENTDIMREACTOR
  5
911
102
{ACAD_REACTORS
330
3C
102
}
330
3C
  0
PH_ENTDIMREACTOR
  5
902
102
{ACAD_REACTORS
330
3C
102
}
330
3C
  0
PH_ENTDIMREACTOR
  5
3848
102
{ACAD_REACTORS
330
3C
102
}
330
3C
  0
PH_DIMENTREACTOR
  5
3849
102
{ACAD_REACTORS
330
3C
102
}
330
3C
  0
PH_ENTDIMREACTOR
  5
95A
102
{ACAD_REACTORS
330
3C
102
}
330
3C
  0
PH_DIMENTREACTOR
  5
912
102
{ACAD_REACTORS
330
3C
102
}
330
3C
  0
PH_ENTDIMREACTOR
  5
91E
102
{ACAD_REACTORS
330
3C
102
}
330
3C
  0
PH_ENTDIMREACTOR
  5
91F
102
{ACAD_REACTORS
330
3C
102
}
330
3C
  0
PH_DIMENTREACTOR
  5
920
102
{ACAD_REACTORS
330
3C
102
}
330
3C
  0
DICTIONARY
  5
688
102
{ACAD_REACTORS
330
3B
102
}
330
3B
100
AcDbDictionary
281
     1
  3
$PH$AAAA
350
68A
  3
PH_GRPMEMBERS
350
A4C
  0
DICTIONARY
  5
15E3
102
{ACAD_REACTORS
330
3B
102
}
330
3B
100
AcDbDictionary
281
     1
  3
$PH$AAAASchriftkopf_B
350
15D3
  3
PH_GRPMEMBERS
350
15E4
  0
DICTIONARY
  5
386B
330
A47
100
AcDbDictionary
280
     1
281
     1
  3
ACAD_XREC_ROUNDTRIP
360
386C
  0
DICTIONARY
  5
3747
330
A46
100
AcDbDictionary
280
     1
281
     1
  3
ACAD_XREC_ROUNDTRIP
360
386A
  3
ADSK_XREC_LAYOUTTHUMBNAIL
360
3748
  0
DICTIONARY
  5
1A61
330
1A60
100
AcDbDictionary
280
     1
281
     1
  3
ACAD_XREC_ROUNDTRIP
360
386E
  3
BUMPTILE
360
1A63
  3
DIFFUSETILE
360
1A62
  3
OPACITYTILE
360
1A66
  3
REFLECTIONTILE
360
1A65
  3
REFRACTIONTILE
360
1A67
  3
SPECULARTILE
360
1A64
  0
DICTIONARY
  5
1A59
330
1A58
100
AcDbDictionary
280
     1
281
     1
  3
ACAD_XREC_ROUNDTRIP
360
386D
  3
BUMPTILE
360
1A5B
  3
DIFFUSETILE
360
1A5A
  3
OPACITYTILE
360
1A5E
  3
REFLECTIONTILE
360
1A5D
  3
REFRACTIONTILE
360
1A5F
  3
SPECULARTILE
360
1A5C
  0
DICTIONARY
  5
1A69
330
1A68
100
AcDbDictionary
280
     1
281
     1
  3
ACAD_XREC_ROUNDTRIP
360
386F
  3
BUMPTILE
360
1A6B
  3
DIFFUSETILE
360
1A6A
  3
OPACITYTILE
360
1A6E
  3
REFLECTIONTILE
360
1A6D
  3
REFRACTIONTILE
360
1A6F
  3
SPECULARTILE
360
1A6C
  0
DICTIONARY
  5
3866
330
1A85
100
AcDbDictionary
280
     1
281
     1
  3
ACAD_ROUNDTRIP_2008_TABLESTYLE_CELLSTYLEMAP
360
3867
  3
ACAD_XREC_ROUNDTRIP
360
3896
  0
DICTIONARY
  5
387A
330
1A76
100
AcDbDictionary
280
     1
281
     1
  3
ACAD_XREC_ROUNDTRIP
360
387B
  0
DICTIONARY
  5
387E
330
1A78
100
AcDbDictionary
280
     1
281
     1
  3
ACAD_XREC_ROUNDTRIP
360
387F
  0
DICTIONARY
  5
387C
330
1A77
100
AcDbDictionary
280
     1
281
     1
  3
ACAD_XREC_ROUNDTRIP
360
387D
  0
DICTIONARY
  5
3878
330
1A75
100
AcDbDictionary
280
     1
281
     1
  3
ACAD_XREC_ROUNDTRIP
360
3879
  0
DICTIONARY
  5
3886
330
1A7C
100
AcDbDictionary
280
     1
281
     1
  3
ACAD_XREC_ROUNDTRIP
360
3887
  0
DICTIONARY
  5
388E
330
1A80
100
AcDbDictionary
280
     1
281
     1
  3
ACAD_XREC_ROUNDTRIP
360
388F
  0
DICTIONARY
  5
3880
330
1A79
100
AcDbDictionary
280
     1
281
     1
  3
ACAD_XREC_ROUNDTRIP
360
3881
  0
DICTIONARY
  5
3884
330
1A7B
100
AcDbDictionary
280
     1
281
     1
  3
ACAD_XREC_ROUNDTRIP
360
3885
  0
DICTIONARY
  5
3894
330
1A83
100
AcDbDictionary
280
     1
281
     1
  3
ACAD_XREC_ROUNDTRIP
360
3895
  0
DICTIONARY
  5
388C
330
1A7F
100
AcDbDictionary
280
     1
281
     1
  3
ACAD_XREC_ROUNDTRIP
360
388D
  0
DICTIONARY
  5
3870
330
1A71
100
AcDbDictionary
280
     1
281
     1
  3
ACAD_XREC_ROUNDTRIP
360
3871
  0
DICTIONARY
  5
3872
330
1A72
100
AcDbDictionary
280
     1
281
     1
  3
ACAD_XREC_ROUNDTRIP
360
3873
  0
DICTIONARY
  5
3874
330
1A73
100
AcDbDictionary
280
     1
281
     1
  3
ACAD_XREC_ROUNDTRIP
360
3875
  0
DICTIONARY
  5
3876
330
1A74
100
AcDbDictionary
280
     1
281
     1
  3
ACAD_XREC_ROUNDTRIP
360
3877
  0
DICTIONARY
  5
3890
330
1A81
100
AcDbDictionary
280
     1
281
     1
  3
ACAD_XREC_ROUNDTRIP
360
3891
  0
DICTIONARY
  5
388A
330
1A7E
100
AcDbDictionary
280
     1
281
     1
  3
ACAD_XREC_ROUNDTRIP
360
388B
  0
DICTIONARY
  5
3892
330
1A82
100
AcDbDictionary
280
     1
281
     1
  3
ACAD_XREC_ROUNDTRIP
360
3893
  0
DICTIONARY
  5
3882
330
1A7A
100
AcDbDictionary
280
     1
281
     1
  3
ACAD_XREC_ROUNDTRIP
360
3883
  0
DICTIONARY
  5
3888
330
1A7D
100
AcDbDictionary
280
     1
281
     1
  3
ACAD_XREC_ROUNDTRIP
360
3889
  0
DICTIONARY
  5
68A
102
{ACAD_REACTORS
330
688
102
}
330
688
100
AcDbDictionary
281
     1
  3
PH_GRPMEMBERS
350
A4B
  0
PH_GROUP
  5
A4C
102
{ACAD_REACTORS
330
688
102
}
330
688
  0
DICTIONARY
  5
15D3
102
{ACAD_REACTORS
330
15E3
102
}
330
15E3
100
AcDbDictionary
280
     1
281
     1
  3
$PH$AAAAERKL_B
360
15D4
  3
$PH$AAABSCHRIFTKOPF_B
360
15D8
  3
PH_GRPMEMBERS
360
15E2
  0
PH_GROUP
  5
15E4
102
{ACAD_REACTORS
330
15E3
102
}
330
15E3
  0
XRECORD
  5
386C
102
{ACAD_REACTORS
330
386B
102
}
330
386B
100
AcDbXrecord
280
     1
102
SHADEPLOT
 70
     0
102
SHADEPLOTRESLEVEL
 70
     2
102
SHADEPLOTCUSTOMDPI
 70
   300
  0
XRECORD
  5
386A
102
{ACAD_REACTORS
330
3747
102
}
330
3747
100
AcDbXrecord
280
     1
102
SHADEPLOT
 70
     0
102
SHADEPLOTRESLEVEL
 70
     2
102
SHADEPLOTCUSTOMDPI
 70
   300
  0
XRECORD
  5
3748
102
{ACAD_REACTORS
330
3747
102
}
330
3747
100
AcDbXrecord
280
     1
310
28000000000100008800000001000800000000000088000000000000000000000001000000000000F0FCFE0000000000FFFFFF000000000000000000000000000000000000000000000000000000000000000000330000006600000099000000CC000000FF00000000330000333300006633000099330000CC330000FF3300
310
0000660000336600006666000099660000CC660000FF66000000990000339900006699000099990000CC990000FF99000000CC000033CC000066CC000099CC0000CCCC0000FFCC000000FF000033FF000066FF000099FF0000CCFF0000FFFF000000003300330033006600330099003300CC003300FF003300003333003333
310
33006633330099333300CC333300FF33330000663300336633006666330099663300CC663300FF66330000993300339933006699330099993300CC993300FF99330000CC330033CC330066CC330099CC3300CCCC3300FFCC330000FF330033FF330066FF330099FF3300CCFF3300FFFF330000006600330066006600660099
310
006600CC006600FF00660000336600333366006633660099336600CC336600FF33660000666600336666006666660099666600CC666600FF66660000996600339966006699660099996600CC996600FF99660000CC660033CC660066CC660099CC6600CCCC6600FFCC660000FF660033FF660066FF660099FF6600CCFF6600
310
FFFF660000009900330099006600990099009900CC009900FF00990000339900333399006633990099339900CC339900FF33990000669900336699006666990099669900CC669900FF66990000999900339999006699990099999900CC999900FF99990000CC990033CC990066CC990099CC9900CCCC9900FFCC990000FF99
310
0033FF990066FF990099FF9900CCFF9900FFFF99000000CC003300CC006600CC009900CC00CC00CC00FF00CC000033CC003333CC006633CC009933CC00CC33CC00FF33CC000066CC003366CC006666CC009966CC00CC66CC00FF66CC000099CC003399CC006699CC009999CC00CC99CC00FF99CC0000CCCC0033CCCC0066CC
310
CC0099CCCC00CCCCCC00FFCCCC0000FFCC0033FFCC0066FFCC0099FFCC00CCFFCC00FFFFCC000000FF003300FF006600FF009900FF00CC00FF00FF00FF000033FF003333FF006633FF009933FF00CC33FF00FF33FF000066FF003366FF006666FF009966FF00CC66FF00FF66FF000099FF003399FF006699FF009999FF00CC
310
99FF00FF99FF0000CCFF0033CCFF0066CCFF0099CCFF00CCCCFF00FFCCFF0000FFFF0033FFFF0066FFFF0099FFFF00CCFFFF00FFFFFF00000000000D0D0D001A1A1A00282828003535350043434300505050005D5D5D006B6B6B00787878008686860093939300A1A1A100AEAEAE00BBBBBB00C9C9C900D6D6D600E4E4E400
310
F1F1F100FFFFFF0000000000000000000000000000000000000000000000000000000000000000000000000000000000E1E1E1E1E1E1E1E1E1E1E1E1E1E1E1E1E1E1E1E1E1E1E1E1E1E1E1E1E1E1E1E1BEBEBEBEBEBEBEBEBEBEBEBEBEBEBEBEBEBEBEBEBEBEBEBEBEBEBEBEBEBEBEBEBEBEBEBEBEBEBEBEBEBEBEBEBEBEBE
310
BEBEBEBEBEBEBEBEBEBEBEBEBEBEBEBEBEBEBEBEBEBEBEBEBEBEBEBEBEBEBEBEBEBEBEBEBEBEBEBEBEBEBEBEBEBEBEBEBEBEBEBEBEBEBEBEBEBEBEBEBEBEBEBEBEBEBEBEBEBEBEBEBEBEBEBEBEBEBEBEBEBEBEBEBEBEBEBEBEBEBEBEBEBEBEBEBEBEBEBEBEBEBEBEBEBEBEBEBEBEBEBEBEBEBEBEBEBEBEBEBEBEBEBEBEBEBE
310
BEBEBEBEBEBEBEBEBEBEBEBEBEBEBEBEBEBEE1E1E1E1E1E1E1E1E1E1E1E1E1E1E1E1E1E1E1E1E1E1E1E1E1E1E1E1E1E1E1E1E1E1E1E1E1E1E1E1E1E1E1E1E1E1E1E1E1E1E1E1E1E1E1E1E1E1E1E1E1E1E1E1BEE1E1E1E1E1E1E1E1E1E1E1E1E1E1E1E1E1E1E1E1E1E1E1E1E1E1E1E1E1E1E1E1E1E1E1E1E1E1E1E1E1E1E1E1
310
E1E1E1E1E1E1E1E1E1E1E1E1BEE1E1E1E1E1E1E1E1E1E1E1E1E1E1E1E1E1E1E1E1E1E1E1E1E1E1E1E1E1E1E1E1E1E1E1E1E1E1E1E1E1E1E1E1E1E1E1BEE1E1E1E1E1E1E1E1E1E1E1E1E1E1E1E1E1E1E1E1E1E1E1E1E1E1E1E1E1E1E1E1E1E1E1E1E1E1E1E1E1E1E1E1E1E1E1E1E1E1E1E1E1E1E1E1E1E1E1E1E1E1E1E1E1E1
310
E1E1E1E1E1E1E1E1E1E1E1E1E1E1E1E1E1E1E1BEE1E1E1E1E1E1E1E1E1E1E1E1E1E1E1E1E1E1E1E1E1E1E1E1E1E1E1E1E1E1E1E1E1E1E1E1E1E1E1E1E1E1E1E1E1E1E1E1E1E1E1E1E1E1E1E1E1E1E1E1E1E1E1E1BEE1E1E1E1E1E1E1E1E1E1E1E1E1E128282828282828282828282828282828282828282828282828282828
310
2828282828282828282828282828282828282828282828282828282828282828282828282828282828282828282828282828282828282828282828282828BE28282828282828282828282828282828282828282828282828282828282828282828282828282828280F2828282828282828282828280F282828282828282828
310
28BE28282828282828282828282828282828280FE1BEE1E1E1E1E1E1E1E1E1E1E1E1E1E1E1E1E1E1E1E1E1E1E1E1E1E1E1E1E1E1E1E1E1E1E1E1E1E1E1E1E1E1E1E1E1E1E1E1E1E1E1E1E1E1E1E1E1E1E1E1E1E1E1E1BEE1E1E1E1E1E1E1E1E1E1E1E1E1E128E1E1E1E1E1E1E1E1E1E1E1E1E1E1E1E1E1E1E1E1E1E1E1E1E1
310
E1E1E1E1E1E1E1E1E1E1E1E1E1E1E1E1E1E1E1E1E1E1E1E1E1E1E1E1E1E1E1E1E1E1E1E1E1E1E1E1E1E1E1E1E1E1E1E1E1E1E1E1E1E1E1E1E1E1E1E1E1E1E1E1E1E1E1E1E1E1E1E1E1E1E1E1E1E1E1E1E1E1E1E1E1E1E1E1E1E1E1E1E1E1E1E1E1E1E1E1E1E1E1E1E1E10FBEBEBEBEBEBEBEBEBEBEBEE10FE1E1E1E1E1E1E1
310
E1E1E1BEE1E1E1E1E1E1E1E1E1E1E1E1E1E1E1E1E128E1BEE1E1E1E1E1E1E1E1E1E1E1E1E1E1E1E1E1E1E1E1E1E1E1E1E1E1E1E1E1E1E1E1E1E1E1E1E1E1E1E1E1E1E1E1E1E1E1E1E1E1E1E1E1E1E1E1E1E1E1E1E1E1E1E1BEE1E1E1E1E1E1E1E1E1E1E1E1E1E128E1E1E1E1E1E1E1E1E1E1E1E1E1E1E1E1E1E1E1E1E1E1E1
310
E1E1E1E1E1E1E1E1E1E1E1E1E1E1E1E1E1E1E1E1E1E1E1E1E1E1E1E1E1E1E1E1E1E1E1E1E1E1E1E1E1E1E1E1E1E1E1E1E1E1E1E1E1E1E1E1E1E1E1E1E1E1E1E1E1E1E1E1E1E1E1E1E1E1E1E1E1E1E1E1E1E1E1E1E1E1E1E1E1E1E1E1E1E1E1E1E1E1E1E1E1E1E1E1E1E1E1E10FBEBEBEBEBEBEBEBEBEBEE1E10FE1E1E1E1E1
310
E1E1E1E1E1BEE1E1E1E1E1E1E1E1E1E1E1E1E1E1E1E1E128E1BEE1E1E1E1E1E1E1E1E1E1E1E1E1E1E1E1E1E1E1E1E1E1E1E1E1E1E1E1E1E1E1E1E1E1E1E1E1E1E1E1E1E1E1E1E1E1E1E1E1E1E1E1E1E1E1E1E1E1E1E1E1E1E1E1BEE1E1E1E1E1E1E1E1E1E1E1E1E1E128E1E1E1E1E1E1E1E1E1E1E1E1E1E1E1E1E1E1E1E1E1
310
E1E1E1E1E1E1E1E1E1E1E1E1E1E1E1E1E1E1E1E1E1E1E1E1E1E1E1E1E1E1E1E1E1E1E1E1E1E1E1E1E1E1E1E1E1E1E1E1E1E1E1E1E1E1E1E1E1E1E1E1E1E1E1E1E1E1E1E1E1E1E1E1E1E1E1E1E1E1E1E1E1E1E1E1E1E1E1E1E1E1E1E1E1E1E1E1E1E1E1E1E1E1E1E1E1E1E1E1E1E10FBEBEBEBEBEBEBEBEBEBEBEBE0FBEBEBE
310
BEBEBEBEBEBEBEBEBEBEBEBEBEBEBEBEBEBEBEBEBEBEBEBEBEBEE1BEE1E1E1E1E1E1E1E1E1E1E1E1E1E1E1E1E1E1E1E1E1E1E1E1E1E1E1E1E1E1E1E1E1E1E1E1E1E1E1E1E1E1E1E1E1E1E1E1E1E1E1E1E1E1E1E1E1E1E1E1E1E1E1E1BEE1E1E1E1E1E1E1E1E1E1E1E1E1E128E1E1E1E1E1E1E1E1E1E1E1E1E1E1E1E1E1E1E1
310
E1E1E1E1E1E1E1E1E1E1E1E1E1E1E1E1E1E1E1E1E1E1E1E1E1E1E1E1E1E1E1E1E1E1E1E1E1E1E1E1E1E1E1E1E1E1E1E1E1E1E1E1E1E1E1E1E1E1E1E1E1E1E1E1E1E1E1E1E1E1E1E1E1E1E1E1E1E1E1E1E1E1E1E1E1E1E1E1E1E1E1E1E1E1E1E1E1E1E1E1E1E1E1E1E1E1E1E1E1E1E1E10FBEBEBEBEBEE1E1E1E1E1E1E10FE1
310
E1E1E1E1E1E1E1E1E1BEE1E1E1E1E1E1E1E1E1E1E1E1E1E1E1E1E128E1BEE1E1E1E1E1E1E1E1E1E1E1E1E1E1E1E1E1E1E1E1E1E1E1E1E1E1E1E1E1E1E1E1E1E1E1E1E1E1E1E1E1E1E1E1E1E1E1E1E1E1E1E1E1E1E1E1E1E1E1E1E1E1E1E1BEE1E1E1E1E1E1E1E1E1E1E1E1E1E128E1E1E1E1E1E1E1E1E1E1E1E1E1E1E1E1E1
310
E1E1E1E1E1E1E1E1E1E1E1E1E1E1E1E1E1E1E1E1E1E1E1E1E1E1E1E1E1E1E1E1E1E1E1E1E1E1E1E1E1E1E1E1E1E1E1E1E1E1E1E1E1E1E1E1E1E1E1E1E1E1E1E1E1E1E1E1E1E1E1E1E1E1E1E1E1E1E1E1E1E1E1E1E1E1E1E1E1E1E1E1E1E1E1E1E1E1E1E1E1E1E1E1E1E1E1E1E1E1E1E1E1E10F0F0F0F0F0F0F0F0F0F0F0F0F
310
0F0F0F0F0FBEBEBEBE0F0FBE0F0F0F0F0FBEBEBEBEBEBEBE0F0F0F0F0F0FE1BEE1E1E1E1E1E1E1E1E1E1E1E1E1E1E1E1E1E1E1E1E1E1E1E1E1E1E1E1E1E1E1E1E1E1E1E1E1E1E1E1E1E1E1E1E1E1E1E1E1E1E1E1E1E1E1E1E1E1E1E1E1E1E1E1BEE1E1E1E1E1E1E1E1E1E1E1E1E1E128E1E1E1E1E1E1E1E1E1E1E1E1E1E1E1
310
E1E1E1E1E1E1E1E1E1E1E1E1E1E1E1E1E1E1E1E1E1E1E1E1E1E1E1E1E1E1E1E1E1E1E1E1E1E1E1E1E1E1E1E1E1E1E1E1E1E1E1E1E1E1E1E1E1E1E1E1E1E1E1E1E1E1E1E1E1E1E1E1E1E1E1E1E1E1E1E1E1E1E1E1E1E1E1E1E1E1E1E1E1E1E1E1E1E1E1E1E1E1E1E1E1E1E1E1E1E1E1E1E1E1E1E10FE1E1E1E1E1E1E1E1E1E1
310
E1E10FE1E1E1E1BEBEBEBEE1E1BEE1E1E1E1E1BEBEBEBEBEBEBEE1E1E1E1E128E1BEE1E1E1E1E1E1E1E1E1E1E1E1E1E1E1E1E1E1E1E1E1E1E1E1E1E1E1E1E1E1E1E1E1E1E1E1E1E1E1E1E1E1E1E1E1E1E1E1E1E1E1E1E1E1E1E1E1E1E1E1E1E1E1E1BEE1E1E1E1E1E1E1E1E1E1E1E1E1E128E1E1E1E1E1E1E1E1E1E1E1E1E1
310
E1E1E1E1E1E1E1E1E1E1E1E1E1E1E1E1E1E1E1E1E1E1E1E1E1E1E1E1E1E1E1E1E1E1E1E1E1E1E1E1E1E1E1E1E1E1E1E1E1E1E1E1E1E1E1E1E1E1E1E1E1E1E1E1E1E1E1E1E1E1E1E1E1E1E1E1E1E1E1E1E1E1E1E1E1E1E1E1E1E1E1E1E1E1E1E1E1E1E1E1E1E1E1E1E1E1E1E1E1E1E1E1E1E1E1E1E1E10FBEBEBEBEBE0FBEBE
310
BEBE0F0F0F0F0F0F0F0F0F0F0F0F0FBE0F0F0F0F0F0F0F0F0F0F0F0F0F0F0F0F0F0FE1BEE1E1E1E1E1E1E1E1E1E1E1E1E1E1E1E1E1E1E1E1E1E1E1E1E1E1E1E1E1E1E1E1E1E1E1E1E1E1E1E1E1E1E1E1E1E1E1E1E1E1E1E1E1E1E1E1E1E1E1E1E1E1E1E1BEE1E1E1E1E1E1E1E1E1E1E1E1E1E128E1E1E1E1E1E1E1E1E1E1E1
310
E1E1E1E1E1E1E1E1E1E1E1E1E1E1E1E1E1E1E1E1E1E1E1E1E1E1E1E1E1E1E1E1E1E1E1E1E1E1E1E1E1E1E1E1E1E1E1E1E1E1E1E1E1E1E1E1E1E1E1E1E1E1E1E1E1E1E1E1E1E1E1E1E1E1E1E1E1E1E1E1E1E1E1E1E1E1E1E1E1E1E1E1E1E1E1E1E1E1E1E1E1E1E1E1E1E1E1E1E1E1E1E1E1E1E1E1E1E1E1E10FBEBEBEBEBEE1
310
BEBEBEBEE1E10FE10F0F0F0F0F0F0F0FE1E1E10FE1E1E1E1E1E1E1E1E1E1E1E1E1E1E128E1BEE1E1E1E1E1E1E1E1E1E1E1E1E1E1E1E1E1E1E1E1E1E1E1E1E1E1E1E1E1E1E1E1E1E1E1E1E1E1E1E1E1E1E1E1E1E1E1E1E1E1E1E1E1E1E1E1E1E1E1E1E1E1E1E1BEE1E1E1E1E1E1E1E1E1E1E1E1E1E128E1E1E1E1E1E1E1E1E1
310
E1E1E1E1E1E1E1E1E1E1E1E1E1E1E1E1E1E1E1E1E1E1E1E1E1E1E1E1E1E1E1E1E1E1E1E1E1E1E1E1E1E1E1E1E1E1E1E1E1E1E1E1E1E1E1E1E1E1E1E1E1E1E1E1E1E1E1E1E1E1E1E1E1E1E1E1E1E1E1E1E1E1E1E1E1E1E1E1E1E1E1E1E1E1E1E1E1E1E1E1E1E1E1E1E1E1E1E1E1E1E1E1E1E1E1E1E1E1E1E1E1E10FBE0F0F0F
310
0F0FBE0F0F0F0F0F0FE10F0FE10FE1E1E1E1E1E1E1E1E1E1E1E1E1E1E1E1E1E1E1E1E1E1E128E1BEE1E1E1E1E1E1E1E1E1E1E1E1E1E1E1E1E1E1E1E1E1E1E1E1E1E1E1E1E1E1E1E1E1E1E1E1E1E1E1E1E1E1E1E1E1E1E1E1E1E1E1E1E1E1E1E1E1E1E1E1E1E1E1E1BEE1E1E1E1E1E1E1E1E1E1E1E1E1E128E1E1E1E1E1E1E1
310
E1E1E1E1E1E1E1E1E1E1E1E1E1E1E1E1E1E1E1E1E1E1E1E1E1E1E1E1E1E1E1E1E1E1E1E1E1E1E1E1E1E1E1E1E1E1E1E1E1E1E1E1E1E1E1E1E1E1E1E1E1E1E1E1E1E1E1E1E1E1E1E1E1E1E1E1E1E1E1E1E1E1E1E1E1E1E1E1E1E1E1E1E1E1E1E1E1E1E1E1E1E1E1E1E1E1E1E1E1E1E1E1E1E1E1E1E1E1E1E1E1E1E1E10FE1E1
310
E1E1E1E1BEE1E1E1E1E10FE10F0F0F0F0FE1E10FE10FE10F0F0FE10F0F0FE1E1E1E1E1E1E1E1E128E1BEE1E1E1E1E1E1E1E1E1E1E1E1E1E1E1E1E1E1E1E1E1E1E1E1E1E1E1E1E1E1E1E1E1E1E1E1E1E1E1E1E1E1E1E1E1E1E1E1E1E1E1E1E1E1E1E1E1E1E1E1E1E1E1E1BEE1E1E1E1E1E1E1E1E1E1E1E1E1E128E1E1E1E1E1
310
E1E1E1E1E1E1E1E1E1E1E1E1E1E1E1E1E1E1E1E1E1E1E1E1E1E1E1E1E1E1E1E1E1E1E1E1E1E1E1E1E1E1E1E1E1E1E1E1E1E1E1E1E1E1E1E1E1E1E1E1E1E1E1E1E1E1E1E1E1E1E1E1E1E1E1E1E1E1E1E1E1E1E1E1E1E1E1E1E1E1E1E1E1E1E1E1E1E1E1E1E1E1E1E1E1E1E1E1E1E1E1E1E1E1E1E1E1E1E1E1E1E1E1E1E1E10F
310
BEE1E1E1E1E1BEE1E1E1E1E10F0F0F0F0F0F0F0F0F0F0F0F0F0F0F0F0F0F0F0F0F0F0F0F0F0F0F0F0F0FE1BEE1E1E1E1E1E1E1E1E1E1E1E1E1E1E1E1E1E1E1E1E1E1E1E1E1E1E1E1E1E1E1E1E1E1E1E1E1E1E1E1E1E1E1E1E1E1E1E1E1E1E1E1E1E1E1E1E1E1E1E1E1E1E1E1BEE1E1E1E1E1E1E1E1E1E1E1E1E1E128E1E1E1
310
E1E1E1E1E1E1E1E1E1E1E1E1E1E1E1E1E1E1E1E1E1E1E1E1E1E1E1E1E1E1E1E1E1E1E1E1E1E1E1E1E1E1E1E1E1E1E1E1E1E1E1E1E1E1E1E1E1E1E1E1E1E1E1E1E1E1E1E1E1E1E1E1E1E1E1E1E1E1E1E1E1E1E1E1E1E1E1E1E1E1E1E1E1E1E1E1E1E1E1E1E1E1E1E1E1E1E1E1E1E1E1E1E1E1E1E1E1E1E1E1E1E1E1E1E1E1E1
310
E10FE1E1E1E1E1E1BEE1E1E1E1E10FE1E1E1E1E1E1E1E1E1E1E1E1E1E1E1E1E1E1E1E1E1E1E1E1E1E1E1E128E1BEE1E1E1E1E1E1E1E1E1E1E1E1E1E1E1E1E1E1E1E1E1E1E1E1E1E1E1E1E1E1E1E1E1E1E1E1E1E1E1E1E1E1E1E1E1E1E1E1E1E1E1E1E1E1E1E1E1E1E1E1E1E1E1E1BEE1E1E1E1E1E1E1E1E1E1E1E1E1E128E1
310
E1E1E1E1E1E1E1E1E1E1E1E1E1E1E1E1E1E1E1E1E1E1E1E1E1E1E1E1E1E1E1E1E1E1E1E1E1E1E1E1E1E1E1E1E1E1E1E1E1E1E1E1E1E1E1E1E1E1E1E1E1E1E1E1E1E1E1E1E1E1E1E1E1E1E1E1E1E1E1E1E1E1E1E1E1E1E1E1E1E1E1E1E1E1E1E1E1E1E1E1E1E1E1E1E1E1E1E1E1E1E1E1E1E1E1E1E1E1E1E1E1E1E1E1E1E1E1
310
E1E1E10FBEE1E1E1E1E1BEE1E1E1E1E10FE1E1E1E1E1E1E1E1E1E1E1E1E1E1E1BEBEBEBEBEBEBEBEBEBEBEBEBE28E1BEE1E1E1E1E1E1E1E1E1E1E1E1E1E1E1E1E1E1E1E1E1E1E1E1E1E1E1E1E1E1E1E1E1E1E1E1E1E1E1E1E1E1E1E1E1E1E1E1E1E1E1E1E1E1E1E1E1E1E1E1E1E1E1E1BEE1E1E1E1E1E1E1E1E1E1E1E1E1E1
310
28E1E1E1E1E1E1E1E1E1E1E1E1E1E1E1E1E1E1E1E1E1E1E1E1E1E1E1E1E1E1E1E1E1E1E1E1E1E1E1E1E1E1E1E1E1E1E1E1E1E1E1E1E1E1E1E1E1E1E1E1E1E1E1E1E1E1E1E1E1E1E1E1E1E1E1E1E1E1E1E1E1E1E1E1E1E1E1E1E1E1E1E1E1E1E1E1E1E1E1E1E1E1E1E1E1E1E1E1E1E1E1E1E1E1E1E1E1E1E1E1E1E1E1E1E1E1
310
E1E1E1E1E10FE1E1E1E1E1E1BEE1E1E1E1E10FE1E1E1E1E1E1E1E1E1E1E1E1E1E1E1BEBEBEBEBEBEBEBEBEBEBEBEBE28E1BEE1E1E1E1E1E1E1E1E1E1E1E1E1E1E1E1E1E1E1E1E1E1E1E1E1E1E1E1E1E1E1E1E1E1E1E1E1E1E1E1E1E1E1E1E1E1E1E1E1E1E1E1E1E1E1E1E1E1E1E1E1E1E1E1BEE1E1E1E1E1E1E1E1E1E1E1E1
310
E1E128E1E1E1E1E1E1E1E1E1E1E1E1E1E1E1E1E1E1E1E1E1E1E1E1E1E1E1E1E1E1E1E1E1E1E1E1E1E1E1E1E1E1E1E1E1E1E1E1E1E1E1E1E1E1E1E1E1E1E1E1E1E1E1E1E1E1E1E1E1E1E1E1E1E1E1E1E1E1E1E1E1E1E1E1E1E1E1E1E1E1E1E1E1E1E1E1E1E1E1E1E1E1E1E1E1E1E1E1E1E1E1E1E1E1E1E1E1E1E1E1E1E1E1E1
310
E1E1E1E1E1E1E10FBEE1E1E1E1E1BEE1E1E1E1E10FE1E1E1E1E1E1E1E1E1E1E1E1E1E1E1E1E1E1E1E10F0F0F0F0F0F0F0F28E1BEE1E1E1E1E1E1E1E1E1E1E1E1E1E1E1E1E1E1E1E1E1E1E1E1E1E1E1E1E1E1E1E1E1E1E1E1E1E1E1E1E1E1E1E1E1E1E1E1E1E1E1E1E1E1E1E1E1E1E1E1E1E1E1E1BEE1E1E1E1E1E1E1E1E1E1
310
E1E1E1E128E1E1E1E1E1E1E1E1E1E1E1E1E1E1E1E1E1E1E1E1E1E1E1E1E1E1E1E1E1E1E1E1E1E1E1E1E1E1E1E1E1E1E1E1E1E1E1E1E1E1E1E1E1E1E1E1E1E1E1E1E1E1E1E1E1E1E1E1E1E1E1E1E1E1E1E1E1E1E1E1E1E1E1E1E1E1E1E1E1E1E1E1E1E1E1E1E1E1E1E1E1E1E1E1E1E1E1E1E1E1E1E1E1E1E1E1E1E1E1E1E1E1
310
E1E1E1E1E1E1E1E1E10FBEE1E1E1E1E1BEE1E1E1E1E10FE1E1E1E1E1E1E1E1E1E1E1E1E1E1E1E1E1E1E1E10F0F0F0F0F0FBE0F28E1BEE1E1E1E1E1E1E1E1E1E1E1E1E1E1E1E1E1E1E1E1E1E1E1E1E1E1E1E1E1E1E1E1E1E1E1E1E1E1E1E1E1E1E1E1E1E1E1E1E1E1E1E1E1E1E1E1E1E1E1E1E1E1E1E1BEE1E1E1E1E1E1E1E1
310
E1E1E1E1E1E128E1E1E1E1E1E1E1E1E1E1E1E1E1E1E1E1E1E1E1E1E1E1E1E1E1E1E1E1E1E1E1E1E1E1E1E1E1E1E1E1E1E1E1E1E1E1E1E1E1E1E1E1E1E1E1E1E1E1E1E1E1E1E1E1E1E1E1E1E1E1E1E1E1E1E1E1E1E1E1E1E1E1E1E1E1E1E1E1E1E1E1E1E1E1E1E1E1E1E1E1E1E1E1E1E1E1E1E1E1E1E1E1E1E1E1E1E1E1E1E1
310
E1E1E1E1E1E1E1E1E1E1E10FBEE1E1E1E1E1BEE1E1E1E1E10FE1E1E1E1E1E1E1E1E1E1E1E1E1E1E1E1E1E1E1E1E10F0FBEBEBEBEBE28E1BEE1E1E1E1E1E1E1E1E1E1E1E1E1E1E1E1E1E1E1E1E1E1E1E1E1E1E1E1E1E1E1E1E1E1E1E1E1E1E1E1E1E1E1E1E1E1E1E1E1E1E1E1E1E1E1E1E1E1E1E1E1E1E1E1BEE1E1E1E1E1E1
310
E1E1E1E1E1E1E1E128E1E1E1E1E1E1E1E1E1E1E1E1E1E1E1E1E1E1E1E1E1E1E1E1E1E1E1E1E1E1E1E1E1E1E1E1E1E1E1E1E1E1E1E1E1E1E1E1E1E1E1E1E1E1E1E1E1E1E1E1E1E1E1E1E1E1E1E1E1E1E1E1E1E1E1E1E1E1E1E1E1E1E1E1E1E1E1E1E1E1E1E1E1E1E1E1E1E1E1E1E1E1E1E1E1E1E1E1E1E1E1E1E1E1E1E1E1E1
310
E1E1E1E1E1E1E1E1E1E1E1E1E10FBEE1E1E1E1E1BEE1E1E1E1E10FE1E1E1E1E1E1E1E1E1E1E1E1E1E1E1E1E1E1E1E1E10F0F0FBEBEBEBE28E1BEE1E1E1E1E1E1E1E1E1E1E1E1E1E1E1E1E1E1E1E1E1E1E1E1E1E1E1E1E1E1E1E1E1E1E1E1E1E1E1E1E1E1E1E1E1E1E1E1E1E1E1E1E1E1E1E1E1E1E1E1E1E1E1E1BEE1E1E1E1
310
E1E1E1E1E1E1E1E1E1E128E1E1E1E1E1E1E1E1E1E1E1E1E1E1E1E1E1E1E1E1E1E1E1E1E1E1E1E1E1E1E1E1E1E1E1E1E1E1E1E1E1E1E1E1E1E1E1E1E1E1E1E1E1E1E1E1E1E1E1E1E1E1E1E1E1E1E1E1E1E1E1E1E1E1E1E1E1E1E1E1E1E1E1E1E1E1E1E1E1E1E1E1E1E1E1E1E1E1E1E1E1E1E1E1E1E1E1E1E1E1E1E1E1E1E1E1
310
E1E1E1E1E1E1E1E1E1E1E1E1E1E1E10FE1E1E1E1E1E1BEE1E1E1E1E10FE1E1E1E1E1E1E1E1E1E1E1E1E1E1E1E1E1E1E1E1E10F0F0F0FBEBEBE28E1BEE1E1E1E1E1E1E1E1E1E1E1E1E1E1E1E1E1E1E1E1E1E1E1E1E1E1E1E1E1E1E1E1E1E1E1E1E1E1E1E1E1E1E1E1E1E1E1E1E1E1E1E1E1E1E1E1E1E1E1E1E1E1E1E1BEE1E1
310
E1E1E1E1E1E1E1E1E1E1E1E128E1E1E1E1E1E1E1E1E1E1E1E1E1E1E1E1E1E1E1E1E1E1E1E1E1E1E1E1E1E1E1E1E1E1E1E1E1E1E1E1E1E1E1E1E1E1E1E1E1E1E1E1E1E1E1E1E1E1E1E1E1E1E1E1E1E1E1E1E1E1E1E1E1E1E1E1E1E1E1E1E1E1E1E1E1E1E1E1E1E1E1E1E1E1E1E1E1E1E1E1E1E1E1E1E1E1E1E1E1E1E1E1E1E1
310
E1E1E1E1E1E1E1E1E1E1E1E1E1E1E1E1E10FBEE1E1E1E1E1BEE1E1E1E1E10FE1E1E1E1E1E1E1E1E1E1E1E1E1E1E1E1E1E1E1E1E1E10F0F0FBEE1BE28E1BEE1E1E1E1E1E1E1E1E1E1E1E1E1E1E1E1E1E1E1E1E1E1E1E1E1E1E1E1E1E1E1E1E1E1E1E1E1E1E1E1E1E1E1E1E1E1E1E1E1E1E1E1E1E1E1E1E1E1E1E1E1E1E1E1BE
310
E1E1E1E1E1E1E1E1E1E1E1E1E1E128E1E1E1E1E1E1E1E1E1E1E1E1E1E1E1E1E1E1E1E1E1E1E1E1E1E1E1E1E1E1E1E1E1E1E1E1E1E1E1E1E1E1E1E1E1E1E1E1E1E1E1E1E1E1E1E1E1E1E1E1E1E1E1E1E1E1E1E1E1E1E1E1E1E1E1E1E1E1E1E1E1E1E1E1E1E1E1E1E1E1E1E1E1E1E1E1E1E1E1E1E1E1E1E1E1E1E1E1E1E1E1E1
310
E1E1E1E1E1E1E1E1E1E1E1E1E1E1E1E1E1E1E10F0F0F0F0F0F0FBE0F0F0F0F0F0F0F0F0F0F0F0F0F0F0F0F0F0F0F0F0F0F0F0F0F0F0F0F0F0F0F0F0F0F0FE1BEE1E1E1E1E1E1E1E1E1E1E1E1E1E1E1E1E1E1E1E1E1E1E1E1E1E1E1E1E1E1E1E1E1E1E1E1E1E1E1E1E1E1E1E1E1E1E1E1E1E1E1E1E1E1E1E1E1E1E1E1E1E1E1
310
E1BEE1E1E1E1E1E1E1E1E1E1E1E1E1E128E1E1E1E1E1E1E1E1E1E1E1E1E1E1E1E1E1E1E1E1E1E1E1E1E1E1E1E1E1E1E1E1E1E1E1E1E1E1E1E1E1E1E1E1E1E1E1E1E1E1E1E1E1E1E1E1E1E1E1E1E1E1E1E1E1E1E1E1E1E1E1E1E1E1E1E1E1E1E1E1E1E1E1E1E1E1E1E1E1E1E1E1E1E1E1E1E1E1E1E1E1E1E1E1E1E1E1E1E1E1
310
E1E1E1E1E1E1E1E1E1E1E1E1E1E1E1E1E1E1E1E1E10FE1E1E1E1E1E1E1E1E1E1E1E1E1E1E1E1E1E1E1E1E1E1E1E1E1E1E1E1E1E1E1E1E1E1E1E1E1E1E1E1E128E1BEE1E1E1E1E1E1E1E1E1E1E1E1E1E1E1E1E1E1E1E1E1E1E1E1E1E1E1E1E1E1E1E1E1E1E1E1E1E1E1E1E1E1E1E1E1E1E1E1E1E1E1E1E1E1E1E1E1E1E1E1E1
310
E1E1E1BEE1E1E1E1E1E1E1E1E1E1E1E1E1E128E1E1E1E1E1E1E1E1E1E1E1E1E1E1E1E1E1E1E1E1E1E1E1E1E1E1E1E1E1E1E1E1E1E1E1E1E1E1E1E1E1E1E1E1E1E1E1E1E1E1E1E1E1E1E1E1E1E1E1E1E1E1E1E1E1E1E1E1E1E1E1E1E1E1E1E1E1E1E1E1E1E1E1E1E1E1E1E1E1E1E1E1E1E1E1E1E1E1E1E1E1E1E1E1E1E1E1E1
310
E1E1E1E1E1E1E1E1E1E1E1E1E1E1E1E1E1E1E1E1E1E1E10FE2E2E2E2E2E2E2E2E1E2E1E2E2E1E2E2E2E2E2E2E2E2E2E2E2E2E2E2E2E2E2E2E1E1E1E1E1E1E1E1E128E1BEE1E1E1E1E1E1E1E1E1E1E1E1E1E1E1E1E1E1E1E1E1E1E1E1E1E1E1E1E1E1E1E1E1E1E1E1E1E1E1E1E1E1E1E1E1E1E1E1E1E1E1E1E1E1E1E1E1E1E1
310
E1E1E1E1E1BEE1E1E1E1E1E1E1E1E1E1E1E1E1E128E1E1E1E1E1E1E1E1E1E1E1E1E1E1E1E1E1E1E1E1E1E1E1E1E1E1E1E1E1E1E1E1E1E1E1E1E1E1E1E1E1E1E1E1E1E1E1E1E1E1E1E1E1E1E1E1E1E1E1E1E1E1E1E1E1E1E1E1E1E1E1E1E1E1E1E1E1E1E1E1E1E1E1E1E1E1E1E1E1E1E1E1E1E1E1E1E1E1E1E1E1E1E1E1E1E1
310
E1E1E1E1E1E1E1E1E1E1E1E1E1E1E1E1E1E1E1E1E1E1E1E1E10FE2E2E2E2E2E2E2E2E1E2E1E2E2E2E2E2E2E2E2E2E2E2E2E2E2E2E2E2E2E2E2E2E1E1E1E1E1E1E1E1E128E1BEE1E1E1E1E1E1E1E1E1E1E1E1E1E1E1E1E1E1E1E1E1E1E1E1E1E1E1E1E1E1E1E1E1E1E1E1E1E1E1E1E1E1E1E1E1E1E1E1E1E1E1E1E1E1E1E1E1
310
E1E1E1E1E1E1E1BEE1E1E1E1E1E1E1E1E1E1E1E1E1E128E1E1E1E1E1E1E1E1E1E1E1E1E1E1E1E1E1E1E1E1E1E1E1E1E1E1E1E1E1E1E1E1E1E1E1E1E1E1E1E1E1E1E1E1E1E1E1E1E1E1E1E1E1E1E1E1E1E1E1E1E1E1E1E1E1E1E1E1E1E1E1E1E1E1E1E1E1E1E1E1E1E1E1E1E1E1E1E1E1E1E1E1E1E1E1E1E1E1E1E1E1E1E1E1
310
E1E1E1E1E1E1E1E1E1E1E1E1E1E1E1E1E1E1E1E1E1E1E1E1E1E1E10FE2E2E1E1E1E2E1E1E1E1E1E2E2E1E1E1E1E1E2E1E1E1E2E1E2E1E1E1E1E1E1E1E1E1E1E1E1E1E1E1E128E1BEE1E1E1E1E1E1E1E1E1E1E1E1E1E1E1E1E1E1E1E1E1E1E1E1E1E1E1E1E1E1E1E1E1E1E1E1E1E1E1E1E1E1E1E1E1E1E1E1E1E1E1E1E1E1E1
310
E1E1E1E1E1E1E1E1E1BEE1E1E1E1E1E1E1E1E1E1E1E1E1E128E1E1E1E1E1E1E1E1E1E1E1E1E1E1E1E1E1E1E1E1E1E1E1E1E1E1E1E1E1E1E1E1E1E1E1E1E1E1E1E1E1E1E1E1E1E1E1E1E1E1E1E1E1E1E1E1E1E1E1E1E1E1E1E1E1E1E1E1E1E1E1E1E1E1E1E1E1E1E1E1E1E1E1E1E1E1E1E1E1E1E1E1E1E1E1E1E1E1E1E1E1E1
310
E1E1E1E1E1E1E1E1E1E1E1E1E1E1E1E1E1E1E1E1E1E1E1E1E1E1E1E1E10FE2E2E2E2E1E2E2E2E2E2E1E2E2E2E2E1E2E2E2E2E2E2E1E1E1E1E1E1E1E1E1E1E1E1E1E1E1E1E1E1E128E1BEE1E1E1E1E1E1E1E1E1E1E1E1E1E1E1E1E1E1E1E1E1E1E1E1E1E1E1E1E1E1E1E1E1E1E1E1E1E1E1E1E1E1E1E1E1E1E1E1E1E1E1E1E1
310
E1E1E1E1E1E1E1E1E1E1E1BEE1E1E1E1E1E1E1E1E1E1E1E1E1E128E1E1E1E1E1E1E1E1E1E1E1E1E1E1E1E1E1E1E1E1E1E1E1E1E1E1E1E1E1E1E1E1E1E1E1E1E1E1E1E1E1E1E1E1E1E1E1E1E1E1E1E1E1E1E1E1E1E1E1E1E1E1E1E1E1E1E1E1E1E1E1E1E1E1E1E1E1E1E1E1E1E1E1E1E1E1E1E1E1E1E1E1E1E1E1E1E1E1E1E1
310
E1E1E1E1E1E1E1E1E1E1E1E1E1E1E1E1E1E1E1E1E1E1E1E1E1E1E1E1E1E1E10FE2E2E2E2E2E2E2E2E2E2E1E2E2E2E2E1E2E2E2E2E2E2E1E1E1E1E1E1E1E1E1E1E1E1E1E1E1E1E1E1E128E1BEE1E1E1E1E1E1E1E1E1E1E1E1E1E1E1E1E1E1E1E1E1E1E1E1E1E1E1E1E1E1E1E1E1E1E1E1E1E1E1E1E1E1E1E1E1E1E1E1E1E1E1
310
E1E1E1E1E1E1E1E1E1E1E1E1E1BEE1E1E1E1E1E1E1E1E1E1E1E1E1E128E1E1E1E1E1E1E1E1E1E1E1E1E1E1E1E1E1E1E1E1E1E1E1E1E1E1E1E1E1E1E1E1E1E1E1E1E1E1E1E1E1E1E1E1E1E1E1E1E1E1E1E1E1E1E1E1E1E1E1E1E1E1E1E1E1E1E1E1E1E1E1E1E1E1E1E1E1E1E1E1E1E1E1E1E1E1E1E1E1E1E1E1E1E1E1E1E1E1
310
E1E1E1E1E1E1E1E1E1E1E1E1E1E1E1E1E1E1E1E1E1E1E1E1E1E1E1E1E1E1E1E1E10FE1E2E1E2E1E2E1E1E2E1E1E2E2E2E2E1E2E2E2E2E2E2E1E1E1E1E1E1E1E1E1E1E1E1E1E1E1E1E1E1E128E1BEE1E1E1E1E1E1E1E1E1E1E1E1E1E1E1E1E1E1E1E1E1E1E1E1E1E1E1E1E1E1E1E1E1E1E1E1E1E1E1E1E1E1E1E1E1E1E1E1E1
310
E1E1E1E1E1E1E1E1E1E1E1E1E1E1E1BEE1E1E1E1E1E1E1E1E1E1E1E1E1E128E1E1E1E1E1E1E1E1E1E1E1E1E1E1E1E1E1E1E1E1E1E1E1E1E1E1E1E1E1E1E1E1E1E1E1E1E1E1E1E1E1E1E1E1E1E1E1E1E1E1E1E1E1E1E1E1E1E1E1E1E1E1E1E1E1E1E1E1E1E1E1E1E1E1E1E1E1E1E1E1E1E1E1E1E1E1E1E1E1E1E1E1E1E1E1E1
310
E1E1E1E1E1E1E1E1E1E1E1E1E1E1E1E1E1E1E1E1E1E1E1E1E1E1E1E1E1E1E1E1E1E1E10F0F0F0F0F0F0F0F0F0F0F0F0F0F0F0F0F0F0F0F0F0F0F0F0F0F0F0F0F0F0F0F0F0F0F0F0F0F0F0F0F0F0FE1BEE1E1E1E1E1E1E1E1E1E1E1E1E1E1E1E1E1E1E1E1E1E1E1E1E1E1E1E1E1E1E1E1E1E1E1E1E1E1E1E1E1E1E1E1E1E1E1
310
E1E1E1E1E1E1E1E1E1E1E1E1E1E1E1E1E1BEE1E1E1E1E1E1E1E1E1E1E1E1E1E128E1E1E1E1E1E1E1E1E1E1E1E1E1E1E1E1E1E1E1E1E1E1E1E1E1E1E1E1E1E1E1E1E1E1E1E1E1E1E1E1E1E1E1E1E1E1E1E1E1E1E1E1E1E1E1E1E1E1E1E1E1E1E1E1E1E1E1E1E1E1E1E1E1E1E1E1E1E1E1E1E1E1E1E1E1E1E1E1E1E1E1E1E1E1
310
E1E1E1E1E1E1E1E1E1E1E1E1E1E1E1E1E1E1E1E1E1E1E1E1E1E1E1E1E1E1E1E1E1E1E1E1E10F0F0F0F0F0F0F0F0F0F0F0F0F0F0F0F0F0F0F0F0F0F0F0F0F0F0F0F0F0FE1E1E1E1E1E1E1E1E1E1E1E128E1BEE1E1E1E1E1E1E1E1E1E1E1E1E1E1E1E1E1E1E1E1E1E1E1E1E1E1E1E1E1E1E1E1E1E1E1E1E1E1E1E1E1E1E1E1E1
310
E1E1E1E1E1E1E1E1E1E1E1E1E1E1E1E1E1E1E1BEE1E1E1E1E1E1E1E1E1E1E1E1E1E128E1E1E1E1E1E1E1E1E1E1E1E1E1E1E1E1E1E1E1E1E1E1E1E1E1E1E1E1E1E1E1E1E1E1E1E1E1E1E1E1E1E1E1E1E1E1E1E1E1E1E1E1E1E1E1E1E1E1E1E1E1E1E1E1E1E1E1E1E1E1E1E1E1E1E1E1E1E1E1E1E1E1E1E1E1E1E1E1E1E1E1E1
310
E1E1E1E1E1E1E1E1E1E1E1E1E1E1E1E1E1E1E1E1E1E1E1E1E1E1E1E1E1E1E1E1E1E1E1E1E1E1E10F0F0F0F0F0F0F0F0F0F0F0F0F0F0F0F0F0F0F0F0F0F0F0F0F0F0F0F0F0FE1E1E1E1E1E1E1E1E1E1E1E128E1BEE1E1E1E1E1E1E1E1E1E1E1E1E1E1E1E1E1E1E1E1E1E1E1E1E1E1E1E1E1E1E1E1E1E1E1E1E1E1E1E1E1E1E1
310
E1E1E1E1E1E1E1E1E1E1E1E1E1E1E1E1E1E1E1E1E1BEE1E1E1E1E1E1E1E1E1E1E1E1E1E128E1E1E1E1E1E1E1E1E1E1E1E1E1E1E1E1E1E1E1E1E1E1E1E1E1E1E1E1E1E1E1E1E1E1E1E1E1E1E1E1E1E1E1E1E1E1E1E1E1E1E1E1E1E1E1E1E1E1E1E1E1E1E1E1E1E1E1E1E1E1E1E1E1E1E1E1E1E1E1E1E1E1E1E1E1E1E1E1E1E1
310
E1E1E1E1E1E1E1E1E1E1E1E1E1E1E1E1E1E1E1E1E1E1E1E1E1E1E1E1E1E1E1E1E1E1E1E1E1E1E1E1E10FE1E1E1E1E1E1E1E1E1E1E1E1E1E1E1E1E1E1E1E1E1E1E1E1E1E1E1E1E1E1E1E1E1E1E1E1E1E1E1E1E128E1BEE1E1E1E1E1E1E1E1E1E1E1E1E1E1E1E1E1E1E1E1E1E1E1E1E1E1E1E1E1E1E1E1E1E1E1E1E1E1E1E1E1
310
E1E1E1E1E1E1E1E1E1E1E1E1E1E1E1E1E1E1E1E1E1E1E1BEE1E1E1E1E1E1E1E1E1E1E1E1E1E128E1E1E1E1E1E1E1E1E1E1E1E1E1E1E1E1E1E1E1E1E1E1E1E1E1E1E1E1E1E1E1E1E1E1E1E1E1E1E1E1E1E1E1E1E1E1E1E1E1E1E1E1E1E1E1E1E1E1E1E1E1E1E1E1E1E1E1E1E1E1E1E1E1E1E1E1E1E1E1E1E1E1E1E1E1E1E1E1
310
E1E1E1E1E1E1E1E1E1E1E1E1E1E1E1E1E1E1E1E1E1E1E1E1E1E1E1E1E1E1E1E1E1E1E1E1E1E1E1E1E1E1E10FE2E2E2E2E2E2E2E1E1E2E2E2E2E2E2E2E2E2E1E2E2E2E2E2E2E2E2E2E2E2E2E2E2E1E2E1E1E1E1E1E128E1BEE1E1E1E1E1E1E1E1E1E1E1E1E1E1E1E1E1E1E1E1E1E1E1E1E1E1E1E1E1E1E1E1E1E1E1E1E1E1E1
310
E1E1E1E1E1E1E1E1E1E1E1E1E1E1E1E1E1E1E1E1E1E1E1E1E1BEE1E1E1E1E1E1E1E1E1E1E1E1E1E128E1E1E1E1E1E1E1E1E1E1E1E1E1E1E1E1E1E1E1E1E1E1E1E1E1E1E1E1E1E1E1E1E1E1E1E1E1E1E1E1E1E1E1E1E1E1E1E1E1E1E1E1E1E1E1E1E1E1E1E1E1E1E1E1E1E1E1E1E1E1E1E1E1E1E1E1E1E1E1E1E1E1E1E1E1E1
310
E1E1E1E1E1E1E1E1E1E1E1E1E1E1E1E1E1E1E1E1E1E1E1E1E1E1E1E1E1E1E1E1E1E1E1E1E1E1E1E1E1E1E1E1E10FE1E2E2E2E2E2E2E2E2E2E2E2E1E2E1E2E2E2E1E2E2E2E2E2E2E1E2E2E2E2E2E1E2E2E2E1E1E1E1E1E128E1BEE1E1E1E1E1E1E1E1E1E1E1E1E1E1E1E1E1E1E1E1E1E1E1E1E1E1E1E1E1E1E1E1E1E1E1E1E1
310
E1E1E1E1E1E1E1E1E1E1E1E1E1E1E1E1E1E1E1E1E1E1E1E1E1E1E1BEE1E1E1E1E1E1E1E1E1E1E1E1E1E128E1E1E1E1E1E1E1E1E1E1E1E1E1E1E1E1E1E1E1E1E1E1E1E1E1E1E1E1E1E1E1E1E1E1E1E1E1E1E1E1E1E1E1E1E1E1E1E1E1E1E1E1E1E1E1E1E1E1E1E1E1E1E1E1E1E1E1E1E1E1E1E1E1E1E1E1E1E1E1E1E1E1E1E1
310
E1E1E1E1E1E1E1E1E1E1E1E1E1E1E1E1E1E1E1E1E1E1E1E1E1E1E1E1E1E1E1E1E1E1E1E1E1E1E1E1E1E1E1E1E1E1E10FE2E2E1E1E2E1E1E1E1E2E2E1E1E1E2E2E1E2E1E2E1E2E2E1E2E1E2E1E2E2E2E1E2E1E2E1E1E1E1E1E128E1BEE1E1E1E1E1E1E1E1E1E1E1E1E1E1E1E1E1E1E1E1E1E1E1E1E1E1E1E1E1E1E1E1E1E1E1
310
E1E1E1E1E1E1E1E1E1E1E1E1E1E1E1E1E1E1E1E1E1E1E1E1E1E1E1E1E1BEE1E1E1E1E1E1E1E1E1E1E1E1E1E128E1E1E1E1E1E1E1E1E1E1E1E1E1E1E1E1E1E1E1E1E1E1E1E1E1E1E1E1E1E1E1E1E1E1E1E1E1E1E1E1E1E1E1E1E1E1E1E1E1E1E1E1E1E1E1E1E1E1E1E1E1E1E1E1E1E1E1E1E1E1E1E1E1E1E1E1E1E1E1E1E1E1
310
E1E1E1E1E1E1E1E1E1E1E1E1E1E1E1E1E1E1E1E1E1E1E1E1E1E1E1E1E1E1E1E1E1E1E1E1E1E1E1E1E1E1E1E1E1E1E1E1E10F0F0F0F0F0F0F0F0F0F0F0F0F0F0F0F0F0F0F0F0F0F0F0F0F0F0F0F0F0F0F0F0F0F0F0F0F0F0F0FBE0F0FE1BEE1E1E1E1E1E1E1E1E1E1E1E1E1E1E1E1E1E1E1E1E1E1E1E1E1E1E1E1E1E1E1E1E1
310
E1E1E1E1E1E1E1E1E1E1E1E1E1E1E1E1E1E1E1E1E1E1E1E1E1E1E1E1E1E1E1BEE1E1E1E1E1E1E1E1E1E1E1E1E1E128E1E1E1E1E1E1E1E1E1E1E1E1E1E1E1E1E1E1E1E1E1E1E1E1E1E1E1E1E1E1E1E1E1E1E1E1E1E1E1E1E1E1E1E1E1E1E1E1E1E1E1E1E1E1E1E1E1E1E1E1E1E1E1E1E1E1E1E1E1E1E1E1E1E1E1E1E1E1E1E1
310
E1E1E1E1E1E1E1E1E1E1E1E1E1E1E1E1E1E1E1E1E1E1E1E1E1E1E1E1E1E1E1E1E1E1E1E1E1E1E1E1E1E1E1E1E1E1E1E1E1E1E10FBEBEBEBEBEBEBEBEBEBEE1E2E2E2E2E2E1E1E1E1E1E1E1E1E1E1E1E1E1E1E1E1E1E10F0F0F0F0FBE0F28E1BEE1E1E1E1E1E1E1E1E1E1E1E1E1E1E1E1E1E1E1E1E1E1E1E1E1E1E1E1E1E1E1
310
E1E1E1E1E1E1E1E1E1E1E1E1E1E1E1E1E1E1E1E1E1E1E1E1E1E1E1E1E1E1E1E1E1BEE1E1E1E1E1E1E1E1E1E1E1E1E1E128E1E1E1E1E1E1E1E1E1E1E1E1E1E1E1E1E1E1E1E1E1E1E1E1E1E1E1E1E1E1E1E1E1E1E1E1E1E1E1E1E1BEE1BEE1E1E1E1E1E1E1E1E1E1E1E1E1E1E1E1E1E1E1E1E1E1E1E1E1E1E1E1E1E1E1E1E1E1
310
E1E1E1E1E1E1E1E1E1E1E1E1E1E1E1E1E1BEBEE1E1E1E1E1E1E1E1E1E1E1E1E1E1E1E1E1E1E1E1E1E1E1E1E1E1E1E1E1E1E1E1E1E10FBEBEBEBEBEBEBEBEBEBEE1E2E2E2E2E2E1E1E1E1E1E1E1E1E1E1E1E1E1E1E1E1E1BEBEBEBEBEBEBEBEBEE1BEE1E1E1E1E1E1E1E1E1E1E1E1E1E1E1E1E1E1E1E1E1E1E1E1E1E1E1E1E1
310
E1E1E1E1E1E1E1E1E1E1E1E1E1E1E1E1E1E1E1E1E1E1E1E1E1E1E1E1E1E1E1E1E1E1E1BEE1E1E1E1E1E1E1E1E1E1E1E1E1E128E1E1E1E1E1E1E1E1E1E1E1E1E1E1E1E1E1E1E1E1E1E1E1E1E1E1E1E1E1E1E1E1E1E1E1E1E1E1E1E1E1BEBEBEBEBEBEBEBEBEBEBEBEBEBEBEBEBEBEBEBEBEBEBEBEBE0F0F0F0F0F0F0FBEBEBE
310
BEBEBEBEBEBEBEBEBEBEBEBEBEBEBEBEBEBEBEBEE2E1E1E1E1E1E1E1E1E1E1E1E1E1E1E1E1E1E1E1E1E1E1E1E1E1E1E1E1E1E1E1E1E1E10FE1E1E1E1E1E1E1E1E1E1E1E2E2E1E2E2E1E1E1E1E1E1E1E1E1E1E1E1E1E1E1E1E1E10F0FE10F0FBE0F0FE1BEE1E1E1E1E1E1E1E1E1E1E1E1E1E1E1E1E1E1E1E1E1E1E1E1E1E1E1
310
E1E1E1E1E1E1E1E1E1E1E1E1E1E1E1E1E1E1E1E1E1E1E1E1E1E1E1E1E1E1E1E1E1E1E1E1E1BEE1E1E1E1E1E1E1E1E1E1E1E1E1E128E1E1E1E1E1E1E1E1E1E1E1E1E1E1E1E1E1E1E1E1E1E1E1E1E1E1E1E1E1E1E1E1E1E1E1E1E1E1E1E1E1BEE1E1E1E1E1E1E1E1E1E1E1E1E1E1E1E1E1E1E1E1E1E1E1E10FE10F0FE10F0FE1
310
E1E1E1E1E1E1E1E1E1E1E1E1E1E1E1E1E1E1E1E1E1E1BEE1E1E1E1E1E1E1E1E1E1E1E1E1E1E1E1E1E1E1E1E1E1E1E1E1E1E1E1E1E1E1E1E1E10FBEBEBEBEBEBEBEBEBEE1E1BEBEBEBEBEBEE1BEBEBEBEE1BEBEBEBEBEBEBEBEBEBEBEBEBEBEBEBEBEBE28E1BEE1E1E1E1E1E1E1E1E1E1E1E1E1E1E1E1E1E1E1E1E1E1E1E1E1
310
E1E1E1E1E1E1E1E1E1E1E1E1E1E1E1E1E1E1E1E1E1E1E1E1E1E1E1E1E1E1E1E1E1E1E1E1E1E1E1BEE1E1E1E1E1E1E1E1E1E1E1E1E1E128E1E1E1E1E1E1E1E1E1E1E1E1E1E1E1E1E1E1E1E1E1E1E1E1E1E1E1E1E1E1E1E1E1E1E1E1E1E1E1E1E1BEE1E1E1E1BEE1E1E1E1E1E1E1E1E1E1E1E1E1E1E1E1E1E1E10F0F0F0FE10F
310
E1E1E1E1E1E1E1E1E1E1E1E1E1E1E1E1E1E1E1E1BEE1E1E1BEE1E1E1E1E1E1E1E1E1E1E1E1E1E1E1E1E1E1E1E1E1E1E1E1E1E1E1E1E1E1E1E1E1E10FBEBEBEBEBEBEBEBEBEBEE1BEBEBEBEBEBEBEBEBEBEBEBEBEBEBEBEBEBEBEBEBEBEBEBEBEBEBEBEBEBE28E1BEE1E1E1E1E1E1E1E1E1E1E1E1E1E1E1E1E1E1E1E1E1E1E1
310
E1E1E1E1E1E1E1E1E1E1E1E1E1E1E1E1E1E1E1E1E1E1E1E1E1E1E1E1E1E1E1E1E1E1E1E1E1E1E1E1E1BEE1E1E1E1E1E1E1E1E1E1E1E1E1E128E1E1E1E1E1E1E1E1E1E1E1E1E1E1E1E1E1E1E1E1E1E1E1E1E1E1E1E1E1E1E1E1E1E1E1E1E1E1E1E1E1BEE1E1E1E1BEBEBEBEBEBEBEBEBEBEBEBEBEBEBEBEBEBEBEBE0F0FBE0F
310
0F0F0FBEBEBEBEBEBEBEBEBEBEBEBEBEBEBEBEBEBEBEE2E1E1E1BEE1E1E1E1E1E1E1E1E1E1E1E1E1E1E1E1E1E1E1E1E1E1E1E1E1E1E1E1E1E1E1E1E1E10FE1E1E1E1E1E1E1E1E1E1E1E1E1E1E1E1E1E1E1E1E1E1E1E1E1E1E1E1E1E1BEBEE1E1E1E1E1E1E1E1E128E1BEE1E1E1E1E1E1E1E1E1E1E1E1E1E1E1E1E1E1E1E1E1
310
E1E1E1E1E1E1E1E1E1E1E1E1E1E1E1E1E1E1E1E1E1E1E1E1E1E1E1E1E1E1E1E1E1E1E1E1E1E1E1E1E1E1E1BEE1E1E1E1E1E1E1E1E1E1E1E1E1E128E1E1E1E1E1E1E1E1E1E1E1E1E1E1E1E1E1E1E1E1E1E1E1E1E1E1E1E1E1E1E1E1E1E1E1E1E1E1E1E1E1BEE1E1E1E1BEE1E1E1E1E1E1E1E1E1E1E1E1E1E1E1E1E1E1E10F0F
310
0F0F0F0FE1E1E1E1E1E1E1E1E1E1E1E1E1E1E1E1E1E1E1E1BEE1E1E1BEE1E1E1E1E1E1E1E1E1E1E1E1E1E1E1E1E1E1E1E1E1E1E1E1E1E1E1E1E1E1E1E1E1E10FBEE1E1E1E1E1E1E1E1E1E1BEBEBEE1BEBEBEBEBEBEBEBEBEBEBEBEBEE1BEBEBEE1BEBEBEBEE1E1E1E128E1BEE1E1E1E1E1E1E1E1E1E1E1E1E1E1E1E1E1E1E1
310
E1E1E1E1E1E1E1E1E1E1E1E1E1E1E1E1E1E1E1E1E1E1E1E1E1E1E1E1E1E1E1E1E1E1E1E1E1E1E1E1E1E1E1E1E1BEE1E1E1E1E1E1E1E1E1E1E1E1E1E128E1E1E1E1E1E1E1E1E1E1E1E1E1E1E1E1E1E1E1E1E1E1E1E1E1E1E1E1E1E1E1E1E1E1E1E1E1E1E1E1E1BEE1E1E1E1BEBEE1E1E1E1E1E1E1E1E1E1E1E1E1E1E1E1E1E1
310
0F0F0F0FE10F0FE1E1E1E1E1E1E1E1E1E1E1E1E1E1E1E1E1E1BEBEE1E1E1BEE1E1E1E1E1E1E1E1E1E1E1E1E1E1E1E1E1E1E1E1E1E1E1E1E1E1E1E1E1E1E1E1E1E10FE1E1E1E1E1E1E1E1E1E1E1BEBEBEE1BEBEBEBEE1BEBEE1E1E1E1E1BEBEBEE1E1E1BEBEBEBEE1E1E1E128E1BEE1E1E1E1E1E1E1E1E1E1E1E1E1E1E1E1E1
310
E1E1E1E1E1E1E1E1E1E1E1E1E1E1E1E1E1E1E1E1E1E1E1E1E1E1E1E1E1E1E1E1E1E1E1E1E1E1E1E1E1E1E1E1E1E1E1BEE1E1E1E1E1E1E1E1E1E1E1E1E1E128E1E1E1E1E1E1E1E1E1E1E1E1E1E1E1E1E1E1E1E1E1E1E1E1E1E1E1E1E1E1E1E1E1E1E1E1E1E1E1E1E1BEE1E1E1E1BEBEBEBEBEBEBEBEBEBEBEBEBEBEBEBEBEBE
310
BEBEBEBEBEBEBEBEBEBEBEBEBEBEBEBEBEBEBEBEBEBEBEBEBEBEBEE2BEE1E1E1BEE1E1E1E1E1E1E1E1E1E1E1E1E1E1E1E1E1E1E1E1E1E1E1E1E1E1E1E1E1E1E1E1E1E10FBEBEBEBEBEBEBEBEE1BEE1BEBEBEBEBEBEBEBEBEBEBEBEBEBEBEBEE1BEBEBEBEBEE1E1E1E1E1E1E1E128E1BEE1E1E1E1E1E1E1E1E1E1E1E1E1E1E1
310
E1E1E1E1E1E1E1E1E1E1E1E1E1E1E1E1E1E1E1E1E1E1E1E1E1E1E1E1E1E1E1E1E1E1E1E1E1E1E1E1E1E1E1E1E1E1E1E1E1BEE1E1E1E1E1E1E1E1E1E1E1E1E1E128E1E1E1E1E1E1E1E1E1E1E1E1E1E1E1E1E1E1E1E1E1E1E1E1E1E1E1E1E1E1E1E1E1E1E1E1E1E1E1E1E1BEE1E1E1E1BEBEE1E1E1E1E1E1E1E1E1E1E1E1E1E1
310
E1E1E1E10F0F0F0F0F0FE1E1E1E1E1E1E1E1E1E1E1E1E1E1E1E1E1E1E1BEBEE1E1E1BEE1E1E1E1E1E1E1E1E1E1E1E1E1E1E1E1E1E1E1E1E1E1E1E1E1E1E1E1E1E1E1E1E1E10FBEBEBEBEBEBEBEBEE1BEE1BEBEBEBEBEBEBEBEBEBEBEBEBEBEBEBEBEBEBEBEBEBEE1E1E1E1E1E1E1E128E1BEE1E1E1E1E1E1E1E1E1E1E1E1E1
310
E1E1E1E1E1E1E1E1E1E1E1E1E1E1E1E1E1E1E1E1E1E1E1E1E1E1E1E1E1E1E1E1E1E1E1E1E1E1E1E1E1E1E1E1E1E1E1E1E1E1E1BEE1E1E1E1E1E1E1E1E1E1E1E1E1E128E1E1E1E1E1E1E1E1E1E1E1E1E1E1E1E1E1E1E1E1E1E1E1E1E1E1E1E1E1E1E1E1E1E1E1E1E1E1E1E1E1BEE1E1E1E1BEBEE1E1E1E1E1E1E1E1E1E1E1E1
310
E1E1E1E1E1E10F0F0F0F0F0FE1E1E1E1E1E1E1E1E1E1E1E1E1E1E1E1E1E1E1BEBEE1E1E1BEE1E1E1E1E1E1E1E1E1E1E1E1E1E1E1E1E1E1E1E1E1E1E1E1E1E1E1E1E1E1E1E1E1E10F0F0F0F0F0F0F0F0F0F0F0F0F0F0F0F0F0F0F0F0F0F0F0F0F0F0F0F0F0F0F0F0F0F0F0F0F0F0F0F0F0F0FE1BEE1E1E1E1E1E1E1E1E1E1E1
310
E1E1E1E1E1E1E1E1E1E1E1E1E1E1E1E1E1E1E1E1E1E1E1E1E1E1E1E1E1E1E1E1E1E1E1E1E1E1E1E1E1E1E1E1E1E1E1E1E1E1E1E1E1BEE1E1E1E1E1E1E1E1E1E1E1E1E1E128E1E1E1E1E1E1E1E1E1E1E1E1E1E1E1E1E1E1E1E1E1E1E1E1E1E1E1E1E1E1E1E1E1E1E1E1E1E1E1E1E1BEE1E1E1E1BEBEE1E1E1BEBEBEBEBEBEBE
310
BEBEBEBEBEBEBEBEBEBEBEBEBEBEBEBEBEBEBEBEBEBEBEBEBEBEBEBEBEE2E1E1E1BEBEE1E1E1BEE1E1E1E1E1E1E1E1E1E1E1E1E1E1E1E1E1E1E1E1E1E1E1E1E1E1E1E1E1E1E1E1E1E10FE1E1E1E1E1E1E1E1E1E1E128E1E1E1E1E1E1E1E1E1E1E1E1E1E1E1E1E1E1E1E1E1E1E1E1E1E1E1E1E128E1BEE1E1E1E1E1E1E1E1E1
310
E1E1E1E1E1E1E1E1E1E1E1E1E1E1E1E1E1E1E1E1E1E1E1E1E1E1E1E1E1E1E1E1E1E1E1E1E1E1E1E1E1E1E1E1E1E1E1E1E1E1E1E1E1E1E1BEE1E1E1E1E1E1E1E1E1E1E1E1E1E128E1E1E1E1E1E1E1E1E1E1E1E1E1E1E1E1E1E1E1E1E1E1E1E1E1E1E1E1E1E1E1E1E1E1E1E1E1E1E1E1E1BEE1E1E1E1BEBEE1E1E1BEE1E1E1E1
310
E1E1E1E1E1E1E1E1E1E1E10F0F0F0F0FE1E1E1E1E1E1E1E1E1E1E1E1E1E1E1BEE1E1E1BEBEE1E1E1BEE1E1E1E1E1E1E1E1E1E1E1E1E1E1E1E1E1E1E1E1E1E1E1E1E1E1E1E1E1E1E1E1E1E10FE1E1E1E1E1E1E1E1E1E1E1E1E1E1E1E1E1E1E1E1E1E1E1E1E1E1E1E1E1E1E1E1E1E1E1E1E1E1E1E1E128E1BEE1E1E1E1E1E1E1
310
E1E1E1E1E1E1E1E1E1E1E1E1E1E1E1E1E1E1E1E1E1E1E1E1E1E1E1E1E1E1E1E1E1E1E1E1E1E1E1E1E1E1E1E1E1E1E1E1E1E1E1E1E1E1E1E1E1BEE1E1E1E1E1E1E1E1E1E1E1E1E1BE28E1E1E1E1E1E1E1E1E1E1E1E1E1E1E1E1E1E1E1E1E1E1E1E1E1E1E1E1E1E1E1E1E1E1E1E1E1E1E1E1E1BEE1E1E1E1BEBEE1E1E1BEE1E1
310
E1E1E1E1E1E1E1E1E1E1E1E10F0F0F0F0F0FE1E1E1E1E1E1E1E1E1E1E1E1E1E1E1BEE1E1E1BEBEE1E1E1BEE1E1E1E1E1E1E1E1E1E1E1E1E1E1E1E1E1E1E1E1E1E1E1E1E1E1E1E1E1E1E1E1E1E10F0F0F0F0F0F0F0F0F0F0F0F0FE1E1E1E1E1E1E1E1E1E1E1E1E1E1E1E1E1E1E1E1E1E1E1E1E1E1E1E1E128E1BEE1E1E1E1E1
310
E1E1E1E1E1E1E1E1E1E1E1E1E1E1E1E1E1E1E1E1E1E1E1E1E1E1E1E1E1E1E1E1E1E1E1E1E1E1E1E1E1E1E1E1E1E1E1E1E1E1E1E1E1E1E1E1E1E1E1BEE1E1E1E1E1E1E1E1E1E1E1E1E1BEBEE1E1E1E1E1E1E1E1E1E1E1E1E1E1E1E1E1E1E1E1E1E1E1E1E1E1E1E1E1E1E1E1E1E1E1E1E1E1E1E1E1BEE1E1E1E1BEBEBEBEBEBE
310
E2BEBEBEBEBEE1E1E1E1E1E1E1E1E1E1E1E1E1E1E1E1E1E1E1E1E1E1E1E1E1E1E1E1E1BEE1E1E1BEBEE1E1E1BEE1E1E1E1E1E1E1E1E1E1E1E1E1E1E1E1E1E1E1E1E1BEBEBEBEBEE2BEBEBEBEBEE1E10F0FE10F0F0FE10FE10F0FE1E1E1E1E1E1E1E1E1E1E1E1E1E1E1E1E1E1E1E1E1E1E1E1E1E1E1E1E1E1E128E1BEE1E1E1
310
E1E1E1E1E1E1E1E1E1E1E1E1E1E1E1E1E1E1E1E1E1E1E1E1E1E1E1E1E1E1E1E1E1E1E1E1E1E1E1E1E1E1E1E1E1E1E1E1E1E1E1E1E1E1E1E1E1E1E1E1E1BEE1E1E1E1E1E1E1E1E1E1E1E1E1BEBEE1E1E1E1E1E1E1E1E1E1E1E1E1E1E1E1E1E1E1E1E1E1E1E1E1E1E1E1E1E1E1E1E1E1E1E1E1E1E1E1E1BEE1E1E1E1BEBEBEBE
310
BEBEBEBEE1E10F0FE1E1E1E1E1E1E1E1E1E1E1E1E1E1E1E1E1E1E1E1E1E1E1E1E1E1E1E1E1BEE1E1E1BEBEE1E1E1BEE1E1E1E1E1E1E1E1E1E1E1E1E1E1E1E1E1E1E1E1E1E1E1BEBEBEBEBEE1E10F0FE1E10F280F0F0F0F0F0F0F0F0F0F0F0F0F0F0F0F0F0F0F0F0F0F0F0F0F0F0F0F0F0F0F0F0F0F0F0F0F0F0F0F0FE1BEE1
310
E1E1E1E1E1E1E1E1E1E1E1E1E1E1E1E1E1E1E1E1E1E1E1E1E1E1E1E1E1E1E1E1E1E1E1E1E1E1E1E1E1E1E1E1E1E1E1E1E1E1E1E1E1E1E1E1E1E1E1E1E1E1E1BEE1E1E1E1E1E1E1E1E1E1E1E1E1BEBEE1E1E1E1E1E1E1E1E1E1E1E1E1E1E1E1E1E1E1E1E1E1E1E1E1E1E1E1E1E1E1E1E1E1E1E1E1E1E1E1E1BEE1E1E1E1BEBE
310
E1E1BEBEBEE1E1E10FE1E1E1E1E1E1E1E1E1E1E1E1E1E1E1E1E1E1E1E1E1E1E1E1E1E1E1E1E1E1BEE1E1E1BEBEE1E1E1BEE1E1E1E1E1E1E1E1E1E1E1E1E1E1E1E1E1E1E1E1E1E1E1E1E1BEBEE1E1E10F0FE1E1E1E1E1E1E1E1E1E1E1E1E1E1E1E1E1E1E1E1E1E1E1E1E1E1E1E1E1E1E1E1E1E1E1E1E1E1E1E1E1E1E1E128E1
310
BEE1E1E1E1E1E1E1E1E1E1E1E1E1E1E1E1E1E1E1E1E1E1E1E1E1E1E1E1E1E1E1E1E1E1E1E1E1E1E1E1E1E1E1E1E1E1E1E1E1E1E1E1E1E1E1E1E1E1E1E1E1E1E1E1BEE1E1E1E1E1E1E1E1E1E1E1E1E1BEBEE1E1E1E1E1E1E1E1E1E1E1E1E1E1E1E1E1E1E1E1E1E1E1E1E1E1E1E1E1E1E1E1E1E1E1E1E1E1BEE1E1BEE1E1E1E1
310
BEBEE1E1BEBEBEE1E1E1E1E1E1E1E1E1E1E1E1E1E1E1E1E1E1E1E1E1E1E1E1E1E1E1E1E1E1E1E1E1E1BEE1E1E1BEBEE1E1E1BEE1E1E1E1E1E1E1E1E1E1E1E1E1E1E1E1E1E1E1E1E1E1E1E1E1BEBEE1E1E1E1E1E1E1E1E1E1E1E1E1E1E1E1E1E1E1E1E1E1E1E1E1E1E1E1E1E1E1E1E1E1E1E1E1E1E1E1E1E1E1E1E1E1E1E1E1
310
28E1BEE1E1E1E1E1E1E1E1E1E1E1E1E1E1E1E1E1E1E1E1E1E1E1E1E1E1E1E1E1E1E1E1E1E1E1E1E1E1E1E1E1E1E1E1E1E1E1E1E1E1E1E1E1E1E1E1E1E1E1E1E1E1E1E1BEE1E1E1E1E1E1E1E1E1E1E1E1E1BEBEE1E1E1E1E1E1E1E1E1E1E1E1E1E1E1E1E1E1E1E1E1E1E1E1E1E1E1E1E1E1E1E1E1E1E1E1E1E1BEE1E1BEE1E1
310
E1E1BEBEE1E1BEBEBEE1E1E1E1E1E1E1E1E1E1E1E1E1E1E1E1BEE1E1E1E1E1E1E1E1E1E1E1E1E1E1E1E1E1BEE1E1E1BEBEE1E1E1BEE1E1E1E1E1E1E1E1E1E1E1E1E1E1E1E1E1E1E1E1E1E1E1E1E1BEBEE1E1E1E1E1E1E1E1E1E1E1E1E1E1E1E1E1E1E1E1E1E1E1E1E1E1E1E1E1E1E1E1E1E1E1E1E1E1E1E1E1E1E1E1E1E1E1
310
E1E128E1BEE1E1E1E1E1E1E1E1E1E1E1E1E1E1E1E1E1E1E1E1E1E1E1E1E1E1E1E1E1E1E1E1E1E1E1E1E1E1E1E1E1E1E1E1E1E1E1E1E1E1E1E1E1E1E1E1E1E1E1E1E1E1E1E1BEE1E1E1E1E1E1E1E1E1E1E1E1E1BEBEE1E1E1E1E1E1E1E1E1E1E1E1E1E1E1E1E1E1E1E1E1E1E1E1E1E1E1E1E1E1BEBEBEBEBEBEBEBEBEBEBEBE
310
BEBEBEBEE2BEE2E2BEBEBEE2E2E2E2E2E2E2E2E2E2E2E2E2E2E2E2E2E2E2E2E2E2E2E2E2E2E2E2E2E2E2E2E2E2BEE2E2E2BEE2E1E1E1BEE1E1E1E1E1E1E1E1E1E1E1E1E1E1E1E1E1E1E1E1E1E1E1E1E1E2E2E1E1E1E1E1E1E1E1E1E1E1E1E1E1E1E1E1E1E1E1E1E1E1E1E1E1E1E1E1E1E1E1E1E1E1E1E1E1E1E1E1E1E1E1E1
310
E1E1E1E128E1BEE1E1E1E1E1E1E1E1E1E1E1E1E1E1E1E1E1E1E1E1E1E1E1E1E1E1E1E1E1E1E1E1E1E1E1E1E1E1E1E1E1E1E1E1E1E1E1E1E1E1E1E1E1E1E1E1E1E1E1E1E1E1E1E1BEE1E1E1E1E1E1E1E1E1E1E1E1E1BEBEE1E1E1E1E1E1E1E1E1E1E1E1E1E1E1E1E1E1E1E1E1E1E1E1E1E1E1E1E1E1E1BEE1E1E1E1E1BEBEBE
310
BEBEBEBEBEBEE2E2E1E1BEE2BEE1E1E1E1E1E1E1E1E1E1E1E1E1E1E1E1BEE1E1E1E1E1E1E1E1E1E1E1E1E1E1E1E1E2E2E2E1E2E2E2E1E1E1BEE1E1E1E1E1E1E1E1E1E1E1E1E1E1E1E1E1E1E1E1E1E1E1E1E1E2E2E1E1E1E1E1E1E1E1E1E1E1E1E1E1E1E1E1E1E1E1E1E1E1E1E1E1E1E1E1E1E1E1E1E1E1E1E1E1E1E1E1E1E1
310
E1E1E1E1E1E128E1BEE1E1E1E1E1E1E1E1E1E1E1E1E1E1E1E1E1E1E1E1E1E1E1E1E1E1E1E1E1E1E1E1E1E1E1E1E1E1E1E1E1E1E1E1E1E1E1E1E1E1E1E1E1E1E1E1E1E1E1E1E1E1E1E1BEE1E1E1E1E1E1E1E1E1E1E1E1E1BEBEE1E1E1E1E1E1E1E1E1E1E1E1E1E1E1E1E1E1E1E1E1E1E1E1E1E1E1E1E1E1E1BEE1E1E1E1E1E1
310
BEE1E1BEE1E1E1BEBEBEBEBEE2E2E2E1E1E1E1E1E1E1E1E1E1E1E1E1E1E1E1BEE1E1E1E1E1E1E1E1E1E1E1E1E1E1E1E1E2BEE2BEBEBEBE0FBEBEBEBEBEBEBEBE0FBEE1E1E1E1E1E1E1E1E1E1E1E1E1E1E1E1E1BEE2E2E1E1E1E1E1E1E1E1E1E1E1E1E1E1E1E1E1E1E1E1E1E1E1E1E1E1E1E1E1E1E1E1E1E1E1E1E1E1E1E1E1
310
E1E1E1E1E1E1E1E128E1BEE1E1E1E1E1E1E1E1E1E1E1E1E1E1E1E1E1E1E1E1E1E1E1E1E1E1E1E1E1E1E1E1E1E1E1E1E1E1E1E1E1E1E1E1E1E1E1E1E1E1E1E1E1E1E1E1E1E1E1E1E1E1E1E1BEE1E1E1E1E1E1E1E1E1E1E1E1E1BEBEE1E1E1E1E1E1E1E1E1E1E1E1E1E1E1E1E1E1E1E1E1E1E1E1E1E1E1E1E1E1E1BEE1E1E1E1
310
E1BEE2BEBEBEBEBEBEBEE2BEE1E1E2E2E1E1E1E1E1E1E1E1E1E1E1E1E1E1E1E1E1BEE1E1E1E1E1E1E1E1E1E1E1E1E1E1E1E1E2E2E1E1E2BEE2E1E1E1BEE1E1E1E1E1BEE1E1E1E1E1E1E1E1E1E1E1E1E1E1E1E1E1E1E1E2E2E1E1E1E1E1E1E1E1E1E1E1E1E1E1E1E1E1E1E1E1E1E1E1E1E1E1E1E1E1E1E1E1E1E1E1E1E1E1E1
310
E1E1E1E1E1E1E1E1E1E128E1BEE1E1E1E1E1E1E1E1E1E1E1E1E1E1E1E1E1E1E1E1E1E1E1E1E1E1E1E1E1E1E1E1E1E1E1E1E1E1E1E1E1E1E1E1E1E1E1E1E1E1E1E1E1E1E1E1E1E1E1E1E1E1E1E1BEE1E1E1E1E1E1E1E1E1E1E1E1E1BEBEE1E1E1E1E1E1E1E1E1E1E1E1E1E1E1E1E1E1E1E1E1E1E1E1E1E1E1E1E1E1E1BEE1E1
310
E1E1E1E1BEE1E1BEE1E1E1E1E2E1E1E1E1E1E1E1E1E1E1E1E1E1E1E1E1E1E1E1E1E1E1BEE1E1E1E1E1E1E1E1E1E1E1E1E1E1E1E1E1E1E1E1E1E1E2E1E1E1BEE1E1E1E1E1BEE1E1E1E1E1E1E1E1E1E1E1E1E1E1E1E1E1E1E1E2E2E1E1E1E1E1E1E1E1E1E1E1E1E1E1E1E1E1E1E1E1E1E1E1E1E1E1E1E1E1E1E1E1E1E1E1E1E1
310
E1E1E1E1E1E1E1E1E1E1E1E128E1BEE1E1E1E1E1E1E1E1E1E1E1E1E1E1E1E1E1E1E1E1E1E1E1E1E1E1E1E1E1E1E1E1E1E1E1E1E1E1E1E1E1E1E1E1E1E1E1E1E1E1E1E1E1E1E1E1E1E1E1E1E1E1E1E1BEE1E1E1E1E1E1E1E1E1E1E1E1E1BEBEE1E1E1E1E1E1E1E1E1E1E1E1E1E1E1E1E1E1E1E1E1E1E1E1E1E1E1E1E1E1E1BE
310
E1E1E1E1E1E1BEE1E1BEE1E1E1E1E2E1E1E1E1E1E1E1E1E1E1E1E1E1E1E1E1E1E1E1E1E1E1BEE1E1E1E1E1E1E1E1E1E1E1E1E1E1E1E1E1E1E1E1E1E1E2E1E1E1BEE1E1E1E1E1BEE1E1E1E1E1E1E1E1E1E1E1E1E1E1E1E1E1E1E1E2E2E1E1E1E1E1E1E1E1E1E1E1E1E1E1E1E1E1E1E1E1E1E1E1E1E1E1E1E1E1E1E1E1E1E1E1
310
E1E1E1E1E1E1E1E1E1E1E1E1E1E128E1BEE1E1E1E1E1E1E1E1E1E1E1E1E1E1E1E1E1E1E1E1E1E1E1E1E1E1E1E1E1E1E1E1E1E1E1E1E1E1E1E1E1E1E1E1E1E1E1E1E1E1E1E1E1E1E1E1E1E1E1E1E1E1E1E1BEE1E1E1E1E1E1E1E1E1E1E1E1E1BEBEE1E1E1E1E1E1E1E1E1E1E1E1E1E1E1E1E1E1E1E1E1E1E1E1E1E1E1E1E1E1
310
E1BEE1E1E1E1E1E1BEE1E1BEE1E1E1E1E2E1E1E1E1E1E1E1E1E1E1E1E1E1E1E1E1E1E1E1E1E1E1BEE1E1E1E1E1E1E1E1E1E1E1E1E1E1E1E1E1E1E1E1E1E1E2E1E1E1BEE1E1E1E1E1BEE1E1E1E1E1E1E1E1E1E1E1E1E1E1E1E1E1E1E1E2E2E1E1E1E1E1E1E1E1E1E1E1E1E1E1E1E1E1E1E1E1E1E1E1E1E1E1E1E1E1E1E1E1E1
310
E1E1E1E1E1E1E1E1E1E1E1E1E1E1E1E128E1BEE1E1E1E1E1E1E1E1E1E1E1E1E1E1E1E1E1E1E1E1E1E1E1E1E1E1E1E1E1E1E1E1E1E1E1E1E1E1E1E1E1E1E1E1E1E1E1E1E1E1E1E1E1E1E1E1E1E1E1E1E1E1E1E1BEE1E1E1E1E1E1E1E1E1E1E1E1E1BEBEE1E1E1E1E1E1E1E1E1E1E1E1E1E1E1E1E1E1E1E1E1E1E1E1E1E1E1E1
310
E1E1E1BEE1E1E1E10F0FBEE1E1BEE1E1E1E1E2E1E1E1E1E1E1E1E1E1E1E1E1E1E1E1E1E1E1E1E1E1E1BEE1E1E1E1E1E1E1E1E1E1E1E1E1E1E1E1E1E1E1E1E1E1E2E1E1E1BEE1E1E1E1E1BEE1E1E1E1E1E1E1E1E1E1E1E1E1E1E1E1E1E1E1E2E2E1E1E1E1E1E1E1E1E1E1E1E1E1E1E1E1E1E1E1E1E1E1E1E1E1E1E1E1E1E1E1
310
E1E1E1E1E1E1E1E1E1E1E1E1E1E1E1E1E1E128E1BEE1E1E1E1E1E1E1E1E1E1E1E1E1E1E1E1E1E1E1E1E1E1E1E1E1E1E1E1E1E1E1E1E1E1E1E1E1E1E1E1E1E1E1E1E1E1E1E1E1E1E1E1E1E1E1E1E1E1E1E1E1E1E1E1BEE1E1E1E1E1E1E1E1E1E1E1E1E1BEBEE1E1E1E1E1E1E1E1E1E1E1E1E1E1E1E1E1E1E1E1E1E1E1E1E1E1
310
E1E1E1E1E1BEE1E1E1E1E10FBEE1E1BEE1E1E1E1E2E1E1E1E1E1E1E1E1E1E1E1E1E1E1E1E1E1E1E1E1E1E1BEE1E1E1E1E1E1E1E1E1E1E1E1E1E1E1E1E1E1E1E1E1E1E2E1E1E1BEE1E1E1E1E1BEE1E1E1E1E1E1E1E1E1E1E1E1E1E1E1E1E1E1E1E2E2E1E1E1E1E1E1E1E1E1E1E1E1E1E1E1E1E1E1E1E1E1E1E1E1E1E1E1E1E1
310
E1E1E1E1E1E1E1E1E1E1E1E1E1E1E1E1E1E1E1E128E1BEE1E1E1E1E1E1E1E1E1E1E1E1E1E1E1E1E1E1E1E1E1E1E1E1E1E1E1E1E1E1E1E1E1E1E1E1E1E1E1E1E1E1E1E1E1E1E1E1E1E1E1E1E1E1E1E1E1E1E1E1E1E1E1E1BEE1E1E1E1E1E1E1E1E1E1E1E1E1BEBEE1E1E1E1E1E1E1E1E1E1E1E1E1E1E1E1E1E1E1E1E1E1E1E1
310
E1E1E1E1E1E1E1BEE1E1E1E1E1E1E1E1E1BEE1E1E1E1E2E1E1E1E1E1E1E1E1E1E1E1E1E1E1E1E1E1E1E1E1E1E1BEE1E1E1E1E1E1E1E1E1E1E1E1E1E1E1E1E1E1E1E1E1E1E2E1E1E1BEE1E1E1E1E1BEE1E1E1E1E1E1E1E1E1E1E1E1E1E1E1E1E1E1E1E2E2E1E1E1E1E1E1E1E1E1E1E1E1E1E1E1E1E1E1E1E1E1E1E1E1E1E1E1
310
E1E1E1E1E1E1E1E1E1E1E1E1E1E1E1E1E1E1E1E1E1E128E1BEE1E1E1E1E1E1E1E1E1E1E1E1E1E1E1E1E1E1E1E1E1E1E1E1E1E1E1E1E1E1E1E1E1E1E1E1E1E1E1E1E1E1E1E1E1E1E1E1E1E1E1E1E1E1E1E1E1E1E1E1E1E1E1E1BEE1E1E1E1E1E1E1E1E1E1E1E1E1BEBEE1E1E1E1E1E1E1E1E1E1E1E1E1E1E1E1E1E1E1E1E1E1
310
E1E1E1E1E1E1E1E1E1BEE1E1E1E1E1E1E1E1E1BEE1E1E1E1E2E1E1E1E1E1E1E1E1E1E1E1E1E1E1E1E1E1E1E1E1E1E1BEE1E1E1E1E1E1E1E1E1E1E1E1E1E1E1E1E1E1E1E1E1E1E2E1E1E1BEE1E1E1E1E1BEE1E1E1E1E1E1E1E1E1E1E1E1E1E1E1E1E1E1E1E2E2E1E1E1E1E1E1E1E1E1E1E1E1E1E1E1E1E1E1E1E1E1E1E1E1E1
310
E1E1E1E1E1E1E1E1E1E1E1E1E1E1E1E1E1E1E1E1E1E1E1E128E1BEE1E1E1E1E1E1E1E1E1E1E1E1E1E1E1E1E1E1E1E1E1E1E1E1E1E1E1E1E1E1E1E1E1E1E1E1E1E1E1E1E1E1E1E1E1E1E1E1E1E1E1E1E1E1E1E1E1E1E1E1E1E1E1E1BEE1E1E1E1E1E1E1E1E1E1E1E1E1BEBEE1E1E1E1E1E1E1E1E1E1E1E1E1E1E1E1E1E1E1E1
310
E1E1E1E1E1E1E1E1E1E1E1BEE1E1E1E1E1E1E1E1E1BEE1E1E1E2E1E1E1E1E1E1E1E1E1E1E1E1E1E1E1E1E1E1E1E1E1E1E1BEE1E1E1E1E1E1E1E1E1E1E1E1E1E1E1E1E1E1E1E1E1E1E2E1E1E1BEE1E1E1E1E1BEE1E1E1E1E1E1E1E1E1E1E1E1E1E1E1E1E1E1E1E2E2E1E1E1E1E1E1E1E1E1E1E1E1E1E1E1E1E1E1E1E1E1E1E1
310
E1E1E1E1E1E1E1E1E1E1E1E1E1E1E1E1E1E1E1E1E1E1E1E1E1E128E1BEE1E1E1E1E1E1E1E1E1E1E1E1E1E1E1E1E1E1E1E1E1E1E1E1E1E1E1E1E1E1E1E1E1E1E1E1E1E1E1E1E1E1E1E1E1E1E1E1E1E1E1E1E1E1E1E1E1E1E1E1E1E1E1E1BEE1E1E1E1E1E1E1E1E1E1E1E1E1BEBEE1E1E1E1E1E1E1E1E1E1E1E1E1E1E1E1E1E1
310
E1E1E1E1E1E1E1E1E1E1E1E1E1BEE1E1E1E1E1E1E1E1E1BEE1E1E2E2E1E1E1E1E1E1E1E1E1E1E1E1E1E1E1E1E1E1E1E1E1E1E1BEE1E1E1E1E1E1E1E1E1E1E1E1E1E1E1E1E1E1E1E1E1E1E1E2E1E1BEE1E1E1E1E1BEE1E1E1E1E1E1E1E1E1E1E1E1E1E1E1E1E1E1E1E2E2E1E1E1E1E1E1E1E1E1E1E1E1E1E1E1E1E1E1E1E1E1
310
E1E1E1E1E1E1E1E1E1E1E1E1E1E1E1E1E1E1E1E1E1E1E1E1E1E1E1E128E1BEE1E1E1E1E1E1E1E1E1E1E1E1E1E1E1E1E1E1E1E1E1E1E1E1E1E1E1E1E1E1E1E1E1E1E1E1E1E1E1E1E1E1E1E1E1E1E1E1E1E1E1E1E1E1E1E1E1E1E1E1E1E1E1E1BEE1E1E1E1E1E1E1E1E1E1E1E1E1BEBEE1E1E1E1E1E1E1E1E1E1E1E1E1E1E1E1
310
E1E1E1E1E1E1E1E1E1E1E1E1E1E1E1BEE1E1E1E1E1E1E1E1E1E2E2E2E1E1E1E1E1E1E1E1E1E1E1E1E1E1E1E1E1E1E1E1E1E1E1E1E1BEE1E1E1E1E1E1E1E1E1E1E1E1E1E1E1E1E1E1E1E1E1E1E1E1E2E20FBEBEBE0FE1BEE1E1E1E1E1E1E1E1E1E1E1E1E1E1E1E1E1E1E1E2E2E1E1E1E1E1E1E1E1E1E1E1E1E1E1E1E1E1E1E1
310
E1E1E1E1E1E1E1E1E1E1E1E1E1E1E1E1E1E1E1E1E1E1E1E1E1E1E1E1E1E128E1BEE1E1E1E1E1E1E1E1E1E1E1E1E1E1E1E1E1E1E1E1E1E1E1E1E1E1E1E1E1E1E1E1E1E1E1E1E1E1E1E1E1E1E1E1E1E1E1E1E1E1E1E1E1E1E1E1E1E1E1E1E1E1E1E1BEE1E1E1E1E1E1E1E1E1E1E1E1E1BEBEE1E1E1E1E1E1E1E1E1E1E1E1E1E1
310
E1E1E1E1E1E1E1E1E1E1E1E1E1E1E1E1E1BEE1E1E1E1E1E1E1E1E1E2E1E1E1E1E1E1E1E1E1E1E1E1E1E1E1E1E1E1E1E1E1E1E1E1E1E1E1BEE1E1E1E1E1E1E1E1E1E1E1E1E1E1E1E1E1E1E1E1E1E1E1E1E1E1E2E1E1BEBEE1BEE1E1E1E1E1E1E1E1E1E1E1E1E1E1E1E1E1E1E1E2E2E1E1E1E1E1E1E1E1E1E1E1E1E1E1E1E1E1
310
E1E1E1E1E1E1E1E1E1E1E1E1E1E1E1E1E1E1E1E1E1E1E1E1E1E1E1E1E1E1E1E128E1BEE1E1E1E1E1E1E1E1E1E1E1E1E1E1E1E1E1E1E1E1E1E1E1E1E1E1E1E1E1E1E1E1E1E1E1E1E1E1E1E1E1E1E1E1E1E1E1E1E1E1E1E1E1E1E1E1E1E1E1E1E1E1E1E1BEE1E1E1E1E1E1E1E1E1E1E1E1E1BEBEE1E1E1E1E1E1E1E1E1E1E1E1
310
E1E1E1E1E1E1E1E1E1E1E1E1E1E1E1E1E1E1E1BEE1E1E1E1E1E1E1E1E1E2E1E1E1E1E1E1E1E1E1E1E1E1E1E1E1E1E1E1E1E1E1E1E1E1E1E1E1BEE1E1E1E1E1E1E1E1E1E1E1E1E1E1E1E1E1E1E1E1E1E1E1E1E1E1E2E1E1E1BEE1BEE1E1E1E1E1E1E1E1E1E1E1E1E1E1E1E1E1E1E1E2E2E1E1E1E1E1E1E1E1E1E1E1E1E1E1E1
310
E1E1E1E1E1E1E1E1E1E1E1E1E1E1E1E1E1E1E1E1E1E1E1E1E1E1E1E1E1E1E1E1E1E128E1BEE1E1E1E1E1E1E1E1E1E1E1E1E1E1E1E1E1E1E1E1E1E1E1E1E1E1E1E1E1E1E1E1E1E1E1E1E1E1E1E1E1E1E1E1E1E1E1E1E1E1E1E1E1E1E1E1E1E1E1E1E1E1E1E1BEE1E1E1E1E1E1E1E1E1E1E1E1E1BEBEE1E1E1E1E1E1E1E1E1E1
310
E1E1E1E1E1E1E1E1E1E1E1E1E1E1E1E1E1E1E1E1E1BEE1E1E1E1E1E1E1E1E1E2E1E1E1E1E1E1E1E1E1E1E1E1E1E1E1E1E1E1E1E1E1E1E1E1E1E1E1BEE1E1E1E1E1E1E1E1E1E1E1E1E1E1E1E1E1E1E1E1E1E1E1E1E1E1E2E1E1E1BEE1BEE1E1E1E1E1E1E1E1E1E1E1E1E1E1E1E1E1E1E1E2E2E1E1E1E1E1E1E1E1E1E1E1E1E1
310
E1E1E1E1E1E1E1E1E1E1E1E1E1E1E1E1E1E1E1E1E1E1E1E1E1E1E1E1E1E1E1E1E1E1E1E128E1BEE1E1E1E1E1E1E1E1E1E1E1E1E1E1E1E1E1E1E1E1E1E1E1E1E1E1E1E1E1E1E1E1E1E1E1E1E1E1E1E1E1E1E1E1E1E1E1E1E1E1E1E1E1E1E1E1E1E1E1E1E1E1E1E1BEE1E1E1E1E1E1E1E1E1E1E1E1E1E1BEE1E1E1E1E1E1E1E1
310
E1E1E1E1E1E1E1E1E1E1E1E1E1E1E1E1E1E1E1E1E1E1E1BEE1E1E1E1E1E1E1E1E1E2E1E1E1E1E1E1E1E1E1E1E1E1E1E1E1E1E1E1E1E1E1E1E1E1E1E1E1BEE1E1E1E1E1E1E1E1E1E1E1E1E1E1E1E1E1E1E1E1E1E1E1E1E1E1E2E1E1E1BEE1BEE1E1E1E1E1E1E1E1E1E1E1E1E1E1E1E1E1E1E1E2E2E1E1E1E1E1E1E1E1E1E1E1
310
E1E1E1E1E1E1E1E1E1E1E1E1E1E1E1E1E1E1E1E1E1E1E1E1E1E1E1E1E1E1E1E1E1E1E1E1E1E128E1BEE1E1E1E1E1E1E1E1E1E1E1E1E1E1E1E1E1E1E1E1E1E1E1E1E1E1E1E1E1E1E1E1E1E1E1E1E1E1E1E1E1E1E1E1E1E1E1E1E1E1E1E1E1E1E1E1E1E1E1E1E1E1E1E1BEE1E1E1E1E1E1E1E1E1E1E1E1E1BEBEE1E1E1E1E1E1
310
E1E1E1E1E1E1E1E1E1E1E1E1E1E1E1E1E1E1E1E1E1E1E1E1E1BEE1E1E1E1E1E1E1E1E1E2E1E1E1E1E1E1E1E1E1E1E1E1E1E1E1E1E1E1E1E1E1E1E1E1E1E1E1BEE1E1E1E1E1E1E1E1E1E1E1E1E1E1E1E1E1E1E1E1E1E1E1E1E1E1E2E1E1E1BEE1BEE1E1E1E1E1E1E1E1E1E1E1E1E1E1E1E1E1E1E1E2E2E1E1E1E1E1E1E1E1E1
310
E1E1E1E1E1E1E1E1E1E1E1E1E1E1E1E1E1E1E1E1E1E1E1E1E1E1E1E1E1E1E1E1E1E1E1E1E1E1E1E128E1BEE1E1E1E1E1E1E1E1E1E1E1E1E1E1E1E1E1E1E1E1E1E1E1E1E1E1E1E1E1E1E1E1E1E1E1E1E1E1E1E1E1E1E1E1E1E1E1E1E1E1E1E1E1E1E1E1E1E1E1E1E1E1E1E1BEE1E1E1E1E1E1E1E1E1E1E1E1E1BEBEE1E1E1E1
310
E1E1E1E1E1E1E1E1E1E1E1E1E1E1E1E1E1E1E1E1E1E1E1E1E1E1E1BEE1E1E1E1E1E1E1E1E1E2E1E1E1E1E1E1E1E1E1E1E1E1E1E1E1E1E1E1E1E1E1E1E1E1E1E1E1BEE1E1E1E1E1E1E1E1E1E1E1E1E1E1E1E1E1E1E1E1E1E1E1E1E1E1E2E1E1E1BEE1BEE1E1E1E1E1E1E1E1E1E1E1E1E1E1E1E1E1E1E1E2E2E1E1E1E1E1E1E1
310
E1E1E1E1E1E1E1E1E1E1E1E1E1E1E1E1E1E1E1E1E1E1E1E1E1E1E1E1E1E1E1E1E1E1E1E1E1E1E1E1E1E128E1BEE1E1E1E1E1E1E1E1E1E1E1E1E1E1E1E1E1E1E1E1E1E1E1E1E1E1E1E1E1E1E1E1E1E1E1E1E1E1E1E1E1E1E1E1E1E1E1E1E1E1E1E1E1E1E1E1E1E1E1E1E1E1E1E1BEE1E1E1E1E1E1E1E1E1E1E1E1E1BEBEE1E1
310
E1E1E1E1E1E1E1E1E1E1E1E1E1E1E1E1E1E1E1E1E1E1E1E1E1E1E1E1E1BEE1E1E1E1E1E1E1E1E1E2E1E1E1E1E1E1E1E1E1E1E1E1E1E1E1E1E1E1E1E1E1E1E1E1E1E1E1BEE1E1E1E1E1E1E1E1E1E1E1E1E1E1E1E1E1E1E1E1E1E1E1E1E1E1E2E1E1E1BEE1BEE1E1E1E1E1E1E1E1E1E1E1E1E1E1E1E1E1E1E1E2E2E1E1E1E1E1
310
E1E1E1E1E1E1E1E1E1E1E1E1E1E1E1E1E1E1E1E1E1E1E1E1E1E1E1E1E1E1E1E1E1E1E1E1E1E1E1E1E1E1E1E128E1BEE1E1E1E1E1E1E1E1E1E1E1E1E1E1E1E1E1E1E1E1E1E1E1E1E1E1E1E1E1E1E1E1E1E1E1E1E1E1E1E1E1E1E1E1E1E1E1E1E1E1E1E1E1E1E1E1E1E1E1E1E1E1E1E1BEE1E1E1E1E1E1E1E1E1E1E1E1E1BEBE
310
E1E1E1E1E1E1E1E1E1E1E1E1E1E1E1E1E1E1E1E1E1E1E1E1E1E1E1E1E1E1E1BEE1E1E1E1E1E1E1E1E1E2E1E1E1E1E1E1E1E1E1E1E1E1E1E1E1E1E1E1E1E1E1E1E1E1E1E1E1BEE1E1E1E1E1E1E1E1E1E1E1E1E1E1E1E1E1E1E1E1E1E1E1E1E1E1E2E1E1E1BEE1BEE1E1E1E1E1E1E1E1E1E1E1E1E1E1E1E1E1E1E1E2E2E1E1E1
310
E1E1E1E1E1E1E1E1E1E1E1E1E1E1E1E1E1E1E1E1E1E1E1E1E1E1E1E1E1E1E1E1E1E1E1E1E1E1E1E1E1E1E1E1E1E128E1BEE1E1E1E1E1E1E1E1E1E1E1E1E1E1E1E1E1E1E1E1E1E1E1E1E1E1E1E1E1E1E1E1E1E1E1E1E1E1E1E1E1E1E1E1E1E1E1E1E1E1E1E1E1E1E1E1E1E1E1E1E1E1E1E1BEE1E1E1E1E1E1E1E1E1E1E1E1E1
310
BEBEE1E1E1E1E1E1E1E1E1E1E1E1E1E1E1E1E1E1E1E1E1E1E1E1E1E1E1E1E1E1E1BEE1E1E1E1E1E1E1E1E1E2E1E1E1E1E1E1E1E1E1E1E1E1E1E1E1E1E1E1E1E1E1E1E1E1E1E1E1BEE1E1E1E1E1E1E1E1E1E1E1E1E1E1E1E1E1E1E1E1E1E1E1E1E1E1E2E1E1E1BEE1BEE1E1E1E1E1E1E1E1E1E1E1E1E1E1E1E1E1E1E1E2E2E1
310
E1E1E1E1E1E1E1E1E1E1E1E1E1E1E1E1E1E1E1E1E1E1E1E1E1E1E1E1E1E1E1E1E1E1E1E1E1E1E1E1E1E1E1E1E1E1E1E128E1BEE1E1E1E1E1E1E1E1E1E1E1E1E1E1E1E1E1E1E1E1E1E1E1E1E1E1E1E1E1E1E1E1E1E1E1E1E1E1E1E1E1E1E1E1E1E1E1E1E1E1E1E1E1E1E1E1E1E1E1E1E1E1E1E1BEE1E1E1E1E1E1E1E1E1E1E1
310
E1E1BEBEE1E1E1E1E1E1E1E1E1E1E1E1E1E1E1E1E1E1E1E1E1E1E1E1E1E1E1E1E1E1E1BEE1E1E1E1E1E1E1E1E1E2E1E1E1E1E1E1E1E1E1E1E1E1E1E1E1E1E1E1E1E1E1E1E1E1E1E1E1BEE1E1E1E1E1E1E1E1E1E1E1E1E1E1E1E1E1E1E1E1E1E1E1E1E1E1E2E1E1E1BEE1BEE1E1E1E1E1E1E1E1E1E1E1E1E1E1E1E1E1E1E1E2
310
E2E1E1E1E1E1E1E1E1E1E1E1E1E1E1E1E1E1E1E1E1E1E1E1E1E1E1E1E1E1E1E1E1E1E1E1E1E1E1E1E1E1E1E1E1E1E1E1E1E128E1BEE1E1E1E1E1E1E1E1E1E1E1E1E1E1E1E1E1E1E1E1E1E1E1E1E1E1E1E1E1E1E1E1E1E1E1E1E1E1E1E1E1E1E1E1E1E1E1E1E1E1E1E1E1E1E1E1E1E1E1E1E1E1E1E1BEE1E1E1E1E1E1E1E1E1
310
E1E1E1E1BEBEE1E1E1E1E1E1E1E1E1E1E1E1E1E1E1E1E1E1E1E1E1E1E1E1E1E1E1E1E1E1E1BEE1E1E1E1E1E1E1E1E1E2E1E1E1E1E1E1E1E1E1E1E1E1E1E1E1E1E1E1E1E1E1E1E1E1E1E1E1BEE1E1E1E1E1E1E1E1E1E1E1E1E1E1E1E1E1E1E1E1E1E1E1E1E1E1E2E1E1E1BEE1BEE1E1E1E1E1E1E1E1E1E1E1E1E1E1E1E1E1E1
310
E1E2E2E1E1E1E1E1E1E1E1E1E1E1E1E1E1E1E1E1E1E1E1E1E1E1E1E1E1E1E1E1E1E1E1E1E1E1E1E1E1E1E1E1E1E1E1E1E1E1E1E128E1BEE1E1E1E1E1E1E1E1E1E1E1E1E1E1E1E1E1E1E1E1E1E1E1E1E1E1E1E1E1E1E1E1E1E1E1E1E1E1E1E1E1E1E1E1E1E1E1E1E1E1E1E1E1E1E1E1E1E1E1E1E1E1E1E1BEE1E1E1E1E1E1E1
310
E1E1E1E1E1E1BEBEE1E1E1E1E1E1E1E1E1E1E1E1E1E1E1E1E1E1E1E1E1E1E1E1E1E1E1E1E1E1E1BEE1E1E1E1E1E1E1E1E1E2E1E1E1E1E1E1E1E1E1E1E1E1E1E1E1E1E1E1E1E1E1E1E1E1E1E1E1BEE1E1E1E1E1E1E1E1E1E1E1E1E1E1E1E1E1E1E1E1E1E1E1E1E1E1E2E1E1E1BEE1BEE1E1E1E1E1E1E1E1E1E1E1E1E1E1E1E1
310
E1E1E1E2E2E1E1E1E1E1E1E1E1E1E1E1E1E1E1E1E1E1E1E1E1E1E1E1E1E1E1E1E1E1E1E1E1E1E1E1E1E1E1E1E1E1E1E1E1E1E1E1E1E128E1BEE1E1E1E1E1E1E1E1E1E1E1E1E1E1E1E1E1E1E1E1E1E1E1E1E1E1E1E1E1E1E1E1E1E1E1E1E1E1E1E1E1E1E1E1E1E1E1E1E1E1E1E1E1E1E1E1E1E1E1E1E1E1E1E1BEE1E1E1E1E1
310
E1E1E1E1E1E1E1E1E128E1E1E1E1E1E1E1E1E1E1E1E1E1E1E1E1E1E1E1E1E1E1E1E1E1E1E1E1E10FE1BEE1E1E1E1E1E1E1E1E1E2E1E1E1E1E1E1E1E1E1E1E1E1E1E1E1E1E1E1E1E1E1E1E1E1E1E1E1BEE1E1E1E1E1E1E1E1E1E1E1E1E1E1E1E1E1E1E1E1E1E1E1E1E1E1E2E1E1E1BEE1BEE1E1E1E1E1E1E1E1E1E1E1E1E1E1
310
E1E1E1E1E1E2E2E1E1E1E1E1E1E1E1E1E1E1E1E1E1E1E1E1E1E1E1E1E1E1E1E1E1E1E1E1E1E1E1E1E1E1E1E1E1E1E1E1E1E1E1E1E1E1E1E128E1BEE1E1E1E1E1E1E1E1E1E1E1E1E1E1E1E1E1E1E1E1E1E1E1E1E1E1E1E1E1E1E1E1E1E1E1E1E1E1E1E1E1E1E1E1E1E1E1E1E1E1E1E1E1E1E1E1E1E1E1E1E1E1E1E1BEE1E1E1
310
E1E1E1E1E1E1E1E1E1E1E128E1E1E1E1E1E1E1E1E1E1E1E1E1E1E1E1E1E1E1E1E1E1E1E1E1E1E1E1E10F0FBEE1E1E1E1E1E1E1E1E1E2E1E1E1E1E1E1E1E1E1E1E1E1E1E1E1E1E1E1E1E1E1E1E1E1E1E1E1BEE1E1E1E1E1E1E1E1E1E1E1E1E1E1E1E1E1E1E1E1E1E1E1E1E1E1E2E1E1E1BEE1BEE1E1E1E1E1E1E1E1E1E1E1E1
310
E1E1E1E1E1E1E1E2E2E1E1E1E1E1E1E1E1E1E1E1E1E1E1E1E1E1E1E1E1E1E1E1E1E1E1E1E1E1E1E1E1E1E1E1E1E1E1E1E1E1E1E1E1E1E1E1E1E128E1BEE1E1E1E1E1E1E1E1E1E1E1E1E1E1E1E1E1E1E1E1E1E1E1E1E1E1E1E1E1E1E1E1E1E1E1E1E1E1E1E1E1E1E1E1E1E1E1E1E1E1E1E1E1E1E1E1E1E1E1E1E1E1E1E1BEE1
310
E1E1E1E1E1E1E1E1E1E1E1E1E128E1E1E1E1E1E1E1E1E1E1E1E1E1E1E1E1E1E1E1E1E1E1E1E1E1E1E1E1E10F0FBEE1E1E1E1E1E1E1E1E1E2E1E1E1E1E1E1E1E1E1E1E1E1E1E1E1E1E1E1E1E1E1E1E1E1E1E1E1BEE1E1E1E1E1E1E1E1E1E1E1E1E1E1E1E1E1E1E1E1E1E1E1E1E1E1E2E10FE1BE0FBEE1E1E1E1E1E1E1E1E1E1
310
E1E1E1E1E1E1E1E1E1E2E2E1E1E1E1E1E1E1E1E1E1E1E1E1E1E1E1E1E1E1E1E1E1E1E1E1E1E1E1E1E1E1E1E1E1E1E1E1E1E1E1E1E1E1E1E1E1E1E1E128E1BEE1E1E1E1E1E1E1E1E1E1E1E1E1E1E1E1E1E1E1E1E1E1E1E1E1E1E1E1E1E1E1E1E1E1E1E1E1E1E1E1E1E1E1E1E1E1E1E1E1E1E1E1E1E1E1E1E1E1E1E1E1E1E1E1
310
BEE1E1E1E1E1E1E1E1E1E1E1E1E1E128E1E1E1E1E1E1E1E1E1E1E1E1E1E1E1E1E1E1E1E1E1E1E1E1E1E1E1E1E10F0FBEE1E1BEBEBEBEBEBEBEE2BEBEBEBEBEBEBEBEBEBEBEBEBEBEBEBEBEBEBEBEBEBEBEBEBEBEBEBEBEBEBEBEBEBEBEBEBEBEBEBEBEBEBEBEBEBEBEBEBEBEBEBEBEBEE2BE0F0F0F0FBEE1E1E1E1E1E1E1E1
310
E1E1E1E1E1E1E1E1E1E1BEE2E2E1E1E1E1E1E1E1E1E1E1E1E1E1E1E1E1E1E1E1E1E1E1E1E1E1E1E1E1E1E1E1E1E1E1E1E1E1E1E1E1E1E1E1E1E1E1E1E1E128E1BEE1E1E1E1E1E1E1E1E1E1E1E1E1E1E1E1E1E1E1E1E1E1E1E1E1E1E1E1E1E1E1E1E1E1E1E1E1E1E1E1E1E1E1E1E1E1E1E1E1E1E1E1E1E1E1E1E1E1E1E1E1E1
310
E1E1BEE1E1E1E1E1E1E1E1E1E1E1E1E1E128E1E1E1E1E1E1E1E1E1E1E1E1E1E1E1E1E1E1E1E1E1E1E1E1E1E1E1E1E10F0FBEE1E1BEBEE1E1E1E1E1E2E1E1E1E1E1E1E1E1E1E1E1E1E1E1E1E1E1E1E1E1E1E1E1E1E1E1E1BEE1E1E1E1E1E1E1E1E1E1E1E1E1E1E1E1E1E1E1E1E1E1E1E1E1E1E2E10F0F0F0FBEE1E1E1E1E1E1
310
E1E1E1E1E1E1E1E1E1E1E1E1E1E2E2E1E1E1E1E1E1E1E1E1E1E1E1E1E1E1E1E1E1E1E1E1E1E1E1E1E1E1E1E1E1E1E1E1E1E1E1E1E1E1E1E1E1E1E1E1E1E1E1E128E1BEE1E1E1E1E1E1E1E1E1E1E1E1E1E1E1E1E1E1E1E1E1E1E1E1E1E1E1E1E1E1E1E1E1E1E1E1E1E1E1E1E1E1E1E1E1E1E1E1E1E1E1E1E1E1E1E1E1E1E1E1
310
E1E1E1E1BEE1E1E1E1E1E1E1E1E1E1E1E1E1E128E1E1E1E1E1E1E1E1E1E1E1E1E1E1E1E1E1E1E1E1E1E1E1E1E1E1E1E1E10F0FBEE1E1BEBEE1E1E1E1E1E2E1E1E1E1E1E1E1E1E1E1E1E1E1E1E1E1E1E1E1E1E1E1E1E1E1E1E1BEE1E1E1E1E1E1E1E1E1E1E1E1E1E1E1E1E1E1E1E1E1E1E1E1E1E1E2E1E1E10F0FBEE1E1E1E1
310
E1E1E1E1E1E1E1E1E1E1E1E1E1E1E1E2E2E1E1E1E1E1E1E1E1E1E1E1E1E1E1E1E1E1E1E1E1E1E1E1E1E1E1E1E1E1E1E1E1E1E1E1E1E1E1E1E1E1E1E1E1E1E1E1E1E128E1BEE1E1E1E1E1E1E1E1E1E1E1E1E1E1E1E1E1E1E1E1E1E1E1E1E1E1E1E1E1E1E1E1E1E1E1E1E1E1E1E1E1E1E1E1E1E1E1E1E1E1E1E1E1E1E1E1E1E1
310
E1E1E1E1E1E1BEE1E1E1E1E1E1E1E1E1E1E1E1E1E128E1E1E1E1E1E1E1E1E1E1E1E1E1E1E1E1E1E1E1E1E1E1E1E1E1E1E1E1E10F0FBEE1E1BEE1E1E1E1E1E1E2E1E1E1E1E1E1E1E1E1E1E1E1E1E1E1E1E1E1E1E1E1E1E1E1E1E1E1BEE1E1E1E1E1E1E1E1E1E1E1E1E1E1E1E1E1E1E1E1E1E1E1E1E1E1E2E1E1E1BEE1BEE1E1
310
E1E1E1E1E1E1E1E1E1E1E1E1E1E1E1E1E1E2E2E1E1E1E1E1E1E1E1E1E1E1E1E1E1E1E1E1E1E1E1E1E1E1E1E1E1E1E1E1E1E1E1E1E1E1E1E1E1E1E1E1E1E1E1E1E1E1E1E128E1BEE1E1E1E1E1E1E1E1E1E1E1E1E1E1E1E1E1E1E1E1E1E1E1E1E1E1E1E1E1E1E1E1E1E1E1E1E1E1E1E1E1E1E1E1E1E1E1E1E1E1E1E1E1E1E1E1
310
E1E1E1E1E1E1E1E1BEE1E1E1E1E1E1E1E1E1E1E1E1E1E128E1E1E1E1E1E1E1E1E1E1E1E1E1E1E1E1E1E1E1E1E1E1E1E1E1E1E1E1E1E1E1BEE1E1BEE1E1E1E1E1E1E2E1E1E1E1E1E1E1E1E1E1E1E1E1E1E1E1E1E1E1E1E1E1E1E1E1E1E1BEE1E1E1E1E1E1E1E1E1E1E1E1E1E1E1E1E1E1E1E1E1E1E1E1E1E1E2E1E1E1BEE1BE
310
E1E1E1E1E1E1E1E1E1E1E1E1E1E1E1E1E1E1E1E2E2E1E1E1E1E1E1E1E1E1E1E1E1E1E1E1E1E1E1E1E1E1E1E1E1E1E1E1E1E1E1E1E1E1E1E1E1E1E1E1E1E1E1E1E1E1E1E1E1E128E1BEE1E1E1E1E1E1E1E1E1E1E1E1E1E1E1E1E1E1E1E1E1E1E1E1E1E1E1E1E1E1E1E1E1E1E1E1E1E1E1E1E1E1E1E1E1E1E1E1E1E1E1E1E1E1
310
E1E1E1E1E1E1E1E1E1E1BEE1E1E1E1E1E1E1E1E1E1E1E1E1E128E1E1E1E1E1E1E1E1E1E1E1E1E1E1E1E1E1E1E1E1E1E1E1E1E1E1E1E1E1E1E1BEE1E1BEE1E1E1E1E1E1E2E1E1E1E1E1E1E1E1E1E1E1E1E1E1E1E1E1E1E1E1E1E1E1E1E1E1E1BEE1E1E1E1E1E1E1E1E1E1E1E1E1E1E1E1E1E1E1E1E1E1E1E1E1E1E2E1E1E1BE
310
E1BEE1E1E1E1E1E1E1E1E1E1E1E1E1E1E1E1E1E1E1E2E2E1E1E1E1E1E1E1E1E1E1E1E1E1E1E1E1E1E1E1E1E1E1E1E1E1E1E1E1E1E1E1E1E1E1E1E1E1E1E1E1E1E1E1E1E1E1E1E1E128E1BEE1E1E1E1E1E1E1E1E1E1E1E1E1E1E1E1E1E1E1E1E1E1E1E1E1E1E1E1E1E1E1E1E1E1E1E1E1E1E1E1E1E1E1E1E1E1E1E1E1E1E1E1
310
E1E1E1E1E1E1E1E1E1E1E1E1BEE1E1E1E1E1E1E1E1E1E1E1E1E1E128E1E1E1E1E1E1E1E1E1E1E1E1E1E1E1E1E1E1E1E1E1E1E1E1E1E1E1E1E1E1E1BEE1E1BEE1E1E1E1E1E1E2E1E1E1E1E1E1E1E1E1E1E1E1E1E1E1E1E1E1E1E1E1E1E1E1E1E1E1BEE1E1E1E1E1E1E1E1E1E1E1E1E1E1E1E1E1E1E1E1E1E1E1E1E1E1E2E1E1
310
E1BEE1BEE1E1E1E1E1E1E1E1E1E1E1E1E1E1E1E1E1E1E1E2E2E1E1E1E1E1E1E1E1E1E1E1E1E1E1E1E1E1E1E1E1E1E1E1E1E1E1E1E1E1E1E1E1E1E1E1E1E1E1E1E1E1E1E1E1E1E1E1E1E128E1BEE1E1E1E1E1E1E1E1E1E1E1E1E1E1E1E1E1E1E1E1E1E1E1E1E1E1E1E1E1E1E1E1E1E1E1E1E1E1E1E1E1E1E1E1E1E1E1E1E1E1
310
E1E1E1E1E1E1E1E1E1E1E1E1E1E1BEE1E1E1E1E1E1E1E1E1E1E1E1E1E128E1E1E1E1E1E1E1E1E1E1E1E1E1E1E1E1E1E1E1E1E1E1E1E1E1E1E1E1E1E1E1BEE1E1BEE1E1E1E1E1E1E2E1E1E1E1E1E1E1E1E1E1E1E1E1E1E1E1E1E1E1E1E1E1E1E1E1E1E1BEE1E1E1E1E1E1E1E1E1E1E1E1E1E1E1E1E1E1E1E1E1E1E1E1E1E1E2
310
E1E1E1BEE1BEE1E1E1E1E1E1E1E1E1E1E1E1E1E1E1E1E1E1E1E2E2E1E1E1E1E1E1E1E1E1E1E1E1E1E1E1E1E1E1E1E1E1E1E1E1E1E1E1E1E1E1E1E1E1E1E1E1E1E1E1E1E1E1E1E1E1E1E1E1E128E1BEE1E1E1E1E1E1E1E1E1E1E1E1E1E1E1E1E1E1E1E1E1E1E1E1E1E1E1E1E1E1E1E1E1E1E1E1E1E1E1E1E1E1E1E1E1E1E1E1
310
E1E1E1E1E1E1E1E1E1E1E1E1E1E1E1E1BEE1E1E1E1E1E1E1E1E1E1E1E1E1E128E1E1E1E1E1E1E1E1E1E1E1E1E1E1E1E1E1E1E1E1E1E1E1E1E1E1E1E1E1E1E1BEE1E1BEE1E1E1E1E1E1E2E1E1E1E1E1E1E1E1E1E1E1E1E1E1E1E1E1E1E1E1E1E1E1E1E1E1E1BEE1E1E1E1E1E1E1E1E1E1E1E1E1E1E1E1E1E1E1E1E1E1E1E1E1
310
E1E2E1E1E1BEE1BEE1E1E1E1E1E1E1E1E1E1E1E1E1E1E1E1E1E1E1E2E2E1E1E1E1E1E1E1E1E1E1E1E1E1E1E1E1E1E1E1E1E1E1E1E1E1E1E1E1E1E1E1E1E1E1E1E1E1E1E1E1E1E1E1E1E1E1E1E1E128E1BEE1E1E1E1E1E1E1E1E1E1E1E1E1E1E1E1E1E1E1E1E1E1E1E1E1E1E1E1E1E1E1E1E1E1E1E1E1E1E1E1E1E1E1E1E1E1
310
E1E1E1E1E1E1E1E1E1E1E1E1E1E1E1E1E1E1BEE1E1E1E1E1E1E1E1E1E1E1E1E1E128E1E1E1E1E1E1E1E1E1E1E1E1E1E1E1E1E1E1E1E1E1E1E1E1E1E1E1E1E1E1E1BEE1E1BEE1E1E1E1E1E1E2E1E1E1E1E1E1E1E1E1E1E1E1E1E1E1E1E1E1E1E1E1E1E1E1E1E1E1BEE1E1E1E1E1E1E1E1E1E1E1E1E1E1E1E1E1E1E1E1E1E1E1
310
E1E1E1E2E1E1E1BEE1BEE1E1E1E1E1E1E1E1E1E1E1E1E1E1E1E1E1E1E1E2E2E1E1E1E1E1E1E1E1E1E1E1E1E1E1E1E1E1E1E1E1E1E1E1E1E1E1E1E1E1E1E1E1E1E1E1E1E1E1E1E1E1E1E1E1E1E1E1E1E128E1BEE1E1E1E1E1E1E1E1E1E1E1E1E1E1E1E1E1E1E1E1E1E1E1E1E1E1E1E1E1E1E1E1E1E1E1E1E1E1E1E1E1E1E1E1
310
E1E1E1E1E1E1E1E1E1E1E1E1E1E1E1E1E1E1E1E1BEE1E1E1E1E1E1E1E1E1E1E1E1E1E128E1E1E1E1E1E1E1E1E1E1E1E1E1E1E1E1E1E1E1E1E1E1E1E1E1E1E1E1E1E1E1BEE1E1BEE1E1E1E1E1E1E2E1E1E1E1E1E1E1E1E1E1E1E1E1E1E1E1E1E1E1E1E1E1E1E1E1E1E1BEE1E1E1E1E1E1E1E1E1E1E1E1E1E1E1E1E1E1E1E1E1
310
E1E1E1E1E1E2E1E1E1BEE1BEE1E1E1E1E1E1E1E1E1E1E1E1E1E1E1E1E1E1E1E2E2E1E1E1E1E1E1E1E1E1E1E1E1E1E1E1E1E1E1E1E1E1E1E1E1E1E1E1E1E1E1E1E1E1E1E1E1E1E1E1E1E1E1E1E1E1E1E1E1E128E1BEE1E1E1E1E1E1E1E1E1E1E1E1E1E1E1E1E1E1E1E1E1E1E1E1E1E1E1E1E1E1E1E1E1E1E1E1E1E1E1E1E1E1
310
E1E1E1E1E1E1E1E1E1E1E1E1E1E1E1E1E1E1E1E1E1E1BEE1E1E1E1E1E1E1E1E1E1E1E1E1E128E1E1E1E1E1E1E1E1E1E1E1E1E1E1E1E1E1E1E1E1E1E1E1E1E1E1E1E1E1E1E1BEE1E1BEE1E1E1E1E1E1E2E1E1E1E1E1E1E1E1E1E1E1E1E1E1E1E1E1E1E1E1E1E1E1E1E1E1E1BEE1E1E1E1E1E1E1E1E1E1E1E1E1E1E1E1E1E1E1
310
E1E1E1E1E1E1E1E2E1E1E1BEE1BEE1E1E1E1E1E1E1E1E1E1E1E1E1E1E1E1E1E1E1E2E2E1E1E1E1E1E1E1E1E1E1E1E1E1E1E1E1E1E1E1E1E1E1E1E1E1E1E1E1E1E1E1E1E1E1E1E1E1E1E1E1E1E1E1E1E1E1E1E1E128E1BEE1E1E1E1E1E1E1E1E1E1E1E1E1E1E1E1E1E1E1E1E1E1E1E1E1E1E1E1E1E1E1E1E1E1E1E1E1E1E1E1
310
E1E1E1E1E1E1E1E1E1E1E1E1E1E1E1E1E1E1E1E1E1E1E1E1BEE1E1E1E1E1E1E1E1E1E1E1E1E1E128E1E1E1E1E1E1E1E1E1E1E1E1E1E1E1E1E1E1E1E1E1E1E1E1E1E1E1E1E1E1E1BE0F0F0FE1E1E1E1E1E1E2E1E1E1E1E1E1E1E1E1E1E1E1E1E1E1E1E1E1E1E1E1E1E1E1E1E1E1BEE1E1E1E1E1E1E1E1E1E1E1E1E1E1E1E1E1
310
E1E1E1E1E1E1E1E1E1E2E1E1E1BEE1BEE1E1E1E1E1E1E1E1E1E1E1E1E1E1E1E1E1E1E1E2E2E1E1E1E1E1E1E1E1E1E1E1E1E1E1E1E1E1E1E1E1E1E1E1E1E1E1E1E1E1E1E1E1E1E1E1E1E1E1E1E1E1E1E1E1E1E1E1E1E128E1BEE1E1E1E1E1E1E1E1E1E1E1E1E1E1E1E1E1E1E1E1E1E1E1E1E1E1E1E1E1E1E1E1E1E1E1E1E1E1
310
E1E1E1E1E1E1E1E1E1E1E1E1E1E1E1E1E1E1E1E1E1E1E1E1E1E1BEE1E1E1E1E1E1E1E1E1E1E1E1E1E128E1E1E1E1E1E1E1E1E1E1E1E1E1E1E1E1E1E1E1E1E1E1E1E1E1E1E1E1E1E1E1BEE10FBEE1E1E1E1E1E1E2E1E1E1E1E1E1E1E1E1E1E1E1E1E1E1E1E1E1E1E1E1E1E1E1E1E1E1BEE1E1E1E1E1E1E1E1E1E1E1E1E1E1E1
310
E1E1E1E1E1E1E1E1E1E1E1E2E1E1E1BEE1BEE1E1E1E1E1E1E1E1E1E1E1E1E1E1E1E1E1E1E1E2E2E1E1E1E1E1E1E1E1E1E1E1E1E1E1E1E1E1E1E1E1E1E1E1E1E1E1E1E1E1E1E1E1E1E1E1E1E1E1E1E1E1E1E1E1E1E1E1E1E128E1BEE1E1E1E1E1E1E1E1E1E1E1E1E1E1E1E1E1E1E1E1E1E1E1E1E1E1E1E1E1E1E1E1E1E1E1E1
310
E1E1E1E1E1E1E1E1E1E1E1E1E1E1E1E1E1E1E1E1E1E1E1E1E1E1E1E1BEE1E1E1E1E1E1E1E1E1E1E1E1E1E128E1E1E1E1E1E1E1E1E1E1E1E1E1E1E1E1E1E1E1E1E1E1E1E1E1E1E1E1E1E1E1BE0F0F0FE1E1E1E1E1E1E2E1E1E1E1E1E1E1E1E1E1E1E1E1E1E1E1E1E1E1E1E1E1E1E1E1E1E1BEE1E1E1E1E1E1E1E1E1E1E1E1E1
310
E1E1E1E1E1E1E1E1E1E1E1E1E1E2E1E1E1BEE1BEE1E1E1E1E1E1E1E1E1E1E1E1E1E1E1E1E1E1E1E2E2E1E1E1E1E1E1E1E1E1E1E1E1E1E1E1E1E1E1E1E1E1E1E1E1E1E1E1E1E1E1E1E1E1E1E1E1E1E1E1E1E1E1E1E1E1E1E1E1E128E1BEE1E1E1E1E1E1E1E1E1E1E1E1E1E1E1E1E1E1E1E1E1E1E1E1E1E1E1E1E1E1E1E1E1E1
310
E1E1E1E1E1E1E1E1E1E1E1E1E1E1E1E1E1E1E1E1E1E1E1E1E1E1E1E1E1E1BEE1E1E1E1E1E1E1E1E1E1E1E1E1E128E1E1E1E1E1E1E1E1E1E1E1E1E1E1E1E1E1E1E1E1E1E1E1E1E1E1E1E1E1E1E1BEE1E10FE1E1E1E1E1E1E2E1E1E1E1E1E1E1E1E1E1E1E1E1E1E1E1E1E1E1E1E1E1E1E1E1E1E1BEE1E1E1E1E1E1E1E1E1E1E1
310
E1E1E1E1E1E1E1E1E1E1E1E1E1E1E1E2E1E1BEBEE1BEE1E1E1E1E1E1E1E1E1E1E1E1E1E1E1E1E1E1E1E2E2E1E1E1E1E1E1E1E1E1E1E1E1E1E1E1E1E1E1E1E1E1E1E1E1E1E1E1E1E1E1E1E1E1E1E1E1E1E1E1E1E1E1E1E1E1E1E1E1E128E1BEE1E1E1E1E1E1E1E1E1E1E1E1E1E1E1E1E1E1E1E1E1E1E1E1E1E1E1E1E1E1E1E1
310
E1E1E1E1E1E1E1E1E1E1E1E1E1E1E1E1E1E1E1E1E1E1E1E1E1E1E1E1E1E1E1E1BEE1E1E1E1E1E1E1E1E1E1E1E1E1E128E1E1E1E1E1E1E1E1E1E1E1E1E1E1E1E1E1E1E1E1E1E1E1E1E1E1E1E1E1E1E1BE0FE10FE1E1E1E1E1E1E2E1E1E1E1E1E1E1E1E1E1E1E1E1E1E1E1E1E1E1E1E1E1E1E1E1E1E1BEE1E1E1E1E1E1E1E1E1
310
E1E1E1E1E1E1E1E1E1E1E1E1E1E1E1E1E1E2E1E1E1BEE1BEE1E1E1E1E1E1E1E1E1E1E1E1E1E1E1E1E1E1E1E2E2E1E1E1E1E1E1E1E1E1E1E1E1E1E1E1E1E1E1E1E1E1E1E1E1E1E1E1E1E1E1E1E1E1E1E1E1E1E1E1E1E1E1E1E1E1E1E1E1E128E1BEE1E1E1E1E1E1E1E1E1E1E1E1E1E1E1E1E1E1E1E1E1E1E1E1E1E1E1E1E1E1
310
E1E1E1E1E1E1E1E1E1E1E1E1E1E1E1E1E1E1E1E1E1E1E1E1E1E1E1E1E1E1E1E1E1E1BEE1E1E1E1E1E1E1E1E1E1E1E1E1E128E1E1E1E1E1E1E1E1E1E1E1E1E1E1E1E1E1E1E1E1E1E1E1E1E1E1E1E1E1E1E1BE0F0FBEE1E1BEBEBEBEE2E2E2E2E1E1E1E1E1E1E1E1E1E1E1E1E1E1E1E1E1E1E1E1E1E1E1E1BEE1E1E1E1E1E1E1
310
E1E1E1E1E1E1E1E1E1E1E1E1E1E1E1E1E2E2E20FBEBEBEBEE1BEE1E1E1E1E1E1E1E1E1E1E1E1E1E1E1E1E1E1E1E2E2E1E1E1E1E1E1E1E1E1E1E1E1E1E1E1E1E1E1E1E1E1E1E1E1E1E1E1E1E1E1E1E1E1E1E1E1E1E1E1E1E1E1E1E1E1E1E1E1E128E1BEE1E1E1E1E1E1E1E1E1E1E1E1E1E1E1E1E1E1E1E1E1E1E1E1E1E1E1E1
310
E1E1E1E1E1E1E1E1E1E1E1E1E1E1E1E1E1E1E1E1E1E1E1E1E1E1E1E1E1E1E1E1E1E1E1E1BEE1E1E1E1E1E1E1E1E1E1E1E1E1E128E1E1E1E1E1E1E1E1E1E1E1E1E1E1E1E1E1E1E1E1E1E1E1E1E1E1E1E1E1E1E1BE0F0F0FE1E1E1BEE1E1E1E1E1E1E2E1E1E1E1E1E1E1E1E1E1E1E1E1E1E1E1E1E1E1E1E1E1E1BEE1E1E1E1E1
310
E1E1E1E1E1E1E1E1E1E1E1E1E1E1E1E1E1E1E2E1E1E1E1E1E1E1E1BEE1E1E1E1E1E1E1E1E1E1E1E1E1E1E1E1E1E1E1E2E2E1E1E1E1E1E1E1E1E1E1E1E1E1E1E1E1E1E1E1E1E1E1E1E1E1E1E1E1E1E1E1E1E1E1E1E1E1E1E1E1E1E1E1E1E1E1E1E1E128E1BEE1E1E1E1E1E1E1E1E1E1E1E1E1E1E1E1E1E1E1E1E1E1E1E1E1E1
310
E1E1E1E1E1E1E1E1E1E1E1E1E1E1E1E1E1E1E1E1E1E1E1E1E1E1E1E1E1E1E1E1E1E1E1E1E1E1BEE1E1E1E1E1E1E1E1E1E1E1E1E1E128E1E1E1E1E1E1E1E1E1E1E1E1E1E1E1E1E1E1E1E1E1E1E1E1E1E1E1E1E1E1E1BEE10FBE0F0F0FBEE1E1E1E1E1E1E2E2E1E1E1E1E1E1E1E1E1E1E1E1E1E1E1E1E1E1E1E1E1E1BEE1E1E1
310
E1E1E1E1E1E1E1E1E1E1E1E1E1E1E1E1E1E1E1E2E1E1E1E1E1E1E1E1E1BEE1E1E1E1E1E1E1E1E1E1E1E1E1E1E1E1E1E1E1E2E2E1E1E1E1E1E1E1E1E1E1E1E1E1E1E1E1E1E1E1E1E1E1E1E1E1E1E1E1E1E1E1E1E1E1E1E1E1E1E1E1E1E1E1E1E1E1E1E1E128E1BEE1E1E1E1E1E1E1E1E1E1E1E1E1E1E1E1E1E1E1E1E1E1E1E1
310
E1E1E1E1E1E1E1E1E1E1E1E1E1E1E1E1E1E1E1E1E1E1E1E1E1E1E1E1E1E1E1E1E1E1E1E1E1E1E1E1BEE1E1E1E1E1E1E1E1E1E1E1E1E1E128E1E1E1E1E1E1E1E1E1E1E1E1E1E1E1E1E1E1E1E1E1E1E1E1E1E1E1E1E1E1E1BEE1E1BEE10F0FBEE1E1E1E1E1E1E1E2E1E1E1E1E1E1E1E1E1E1E1E1E1E1E1E1E1E1E1E1E1E1BEE1
310
E1E1E1E1E1E1E1E1E1E1E1E1E1E1E1E1E1E1E1E1E1E2E1E1E1E1E1E1E1E1E1BEE1E1E1E1E1E1E1E1E1E1E1E1E1E1E1E1E1E1E1E2E2E1E1E1E1E1E1E1E1E1E1E1E1E1E1E1E1E1E1E1E1E1E1E1E1E1E1E1E1E1E1E1E1E1E1E1E1E1E1E1E1E1E1E1E1E1E1E1E1E128E1BEE1E1E1E1E1E1E1E1E1E1E1E1E1E1E1E1E1E1E1E1E1E1
310
E1E1E1E1E1E1E1E1E1E1E1E1E1E1E1E1E1E1E1E1E1E1E1E1E1E1E1E1E1E1E1E1E1E1E1E1E1E1E1E1E1E1BEE1E1E1E1E1E1E1E1E1E1E1E1E1E128E1E1E1E1E1E1E1E1E1E1E1E1E1E1E1E1E1E1E1E1E1E1E1E1E1E1E1E1E1E1E1BEE1E1BEE10F0FBEE1E1E1E1E1E1E1E2E1E1E1E1E1E1E1E1E1E1E1E1E1E1E1E1E1E1E1E1E1E1
310
BEE1E1E1E1E1E1E1E1E1E1E1E1E1E1E1E1E1E1E1E1E1E1E2E1E1E1E1E1E1E1E1E1BEE1E1E1E1E1E1E1E1E1E1E1E1E1E1E1E1E1E1E1E2E2E1E1E1E1E1E1E1E1E1E1E1E1E1E1E1E1E1E1E1E1E1E1E1E1E1E1E1E1E1E1E1E1E1E1E1E1E1E1E1E1E1E1E1E1E1E1E1E1E128E1BEE1E1E1E1E1E1E1E1E1E1E1E1E1E1E1E1E1E1E1E1
310
E1E1E1E1E1E1E1E1E1E1E1E1E1E1E1E1E1E1E1E1E1E1E1E1E1E1E1E1E1E1E1E1E1E1E1E1E1E1E1E1E1E1E1E1BEE1E1E1E1E1E1E1E1E1E1E1E1E1E128E1E1E1E1E1E1E1E1E1E1E1E1E1E1E1E1E1E1E1E1E1E1E1E1E1E1E1E1E1E1E1BEE1E1BEE10F0FBEE1E1E1E1E1E1E1E2E1E1E1E1E1E1E1E1E1E1E1E1E1E1E1E1E1E1E1E1
310
E1E1BEE1E1E1E1E1E1E1E1E1E1E1E1E1E1E1E1E1E1E1E1E1E1E2E1E1E1E1E1E1E1E1E1BEE1E1E1E1E1E1E1E1E1E1E1E1E1E1E1E1E1E1E1E2E2E1E1E1E1E1E1E1E1E1E1E1E1E1E1E1E1E1E1E1E1E1E1E1E1E1E1E1E1E1E1E1E1E1E1E1E1E1E1E1E1E1E1E1E1E1E1E1E1E128E1BEE1E1E1E1E1E1E1E1E1E1E1E1E1E1E1E1E1E1
310
E1E1E1E1E1E1E1E1E1E1E1E1E1E1E1E1E1E1E1E1E1E1E1E1E1E1E1E1E1E1E1E1E1E1E1E1E1E1E1E1E1E1E1E1E1E1BEE1E1E1E1E1E1E1E1E1E1E1E1E1E128E1E1E1E1E1E1E1E1E1E1E1E1E1E1E1E1E1E1E1E1E1E1E1E1E1E1E1E1E1E1E1BEE1E1BEE10F0FBEE1E1E1E1E1E1E1E2E1E1E1E1E1E1E1E1E1E1E1E1E1E1E1E1E1E1
310
E1E1E1E1BEE1E1E1E1E1E1E1E1E1E1E1E1E1E1E1E1E1E1E1E1E1E1E2E1E1E1E1E1E1E1E1E1BEE1E1E1E1E1E1E1E1E1E1E1E1E1E1E1E1E1E1E1E2E2E1E1E1E1E1E1E1E1E1E1E1E1E1E1E1E1E1E1E1E1E1E1E1E1E1E1E1E1E1E1E1E1E1E1E1E1E1E1E1E1E1E1E1E1E1E1E1E1E128E1BEE1E1E1E1E1E1E1E1E1E1E1E1E1E1E1E1
310
E1E1E1E1E1E1E1E1E1E1E1E1E1E1E1E1E1E1E1E1E1E1E1E1E1E1E1E1E1E1E1E1E1E1E1E1E1E1E1E1E1E1E1E1E1E1E1E1BEE1E1E1E1E1E1E1E1E1E1E1E1E1E128E1E1E1E1E1E1E1E1E1E1E1E1E1E1E1E1E1E1E1E1E1E1E1E1E1E1E1E1E1E1E1BEE1E1BEE10FE1BEE1E1E1E1E1E1E1E2E1E1E1E1E1E1E1E1E1E1E1E1E1E1E1E1
310
E1E1E1E1E1E1BEE1E1E1E1E1E1E1E1E1E1E1E1E1E1E1E1E1E1E1E1E1E1E2E1E1E1E1E1E1E1E1E1BEE1E1E1E1E1E1E1E1E1E1E1E1E1E1E1E1E1E1E1E2E2E1E1E1E1E1E1E1E1E1E1E1E1E1E1E1E1E1E1E1E1E1E1E1E1E1E1E1E1E1E1E1E1E1E1E1E1E1E1E1E1E1E1E1E1E1E1E1E1E128E1BEE1E1E1E1E1E1E1E1E1E1E1E1E1E1
310
E1E1E1E1E1E1E1E1E1E1E1E1E1E1E1E1E1E1E1E1E1E1E1E1E1E1E1E1E1E1E1E1E1E1E1E1E1E1E1E1E1E1E1E1E1E1E1E1E1E1BEE1E1E1E1E1E1E1E1E1E1E1E1E1E128E1E1E1E1E1E1E1E1E1E1E1E1E1E1E1E1E1E1E1E1E1E1E1E1E1E1E1E1E1E1E1BEE1E1BEE10F0FBEE1E1E1E1E1E1E1E2E1E1E1E1E1E1E1E1E1E1E1E1E1E1
310
E1E1E1E1E1E1E1E1BEE1E1E1E1E1E1E1E1E1E1E1E1E1E1E1E1E1E1E1E1E1E1E2E1E1E1E1E1E1E1E1E1BEE1E1E1E1E1E1E1E1E1E1E1E1E1E1E1E1E1E1E1E2E2E1E1E1E1E1E1E1E1E1E1E1E1E1E1E1E1E1E1E1E1E1E1E1E1E1E1E1E1E1E1E1E1E1E1E1E1E1E1E1E1E1E1E1E1E1E1E1E1E128E1BEE1E1E1E1E1E1E1E1E1E1E1E1
310
E1E1E1E1E1E1E1E1E1E1E1E1E1E1E1E1E1E1E1E1E1E1E1E1E1E1E1E1E1E1E1E1E1E1E1E1E1E1E1E1E1E1E1E1E1E1E1E1E1E1E1E1BEE1E1E1E1E1E1E1E1E1E1E1E1E1E128E1E1E1E1E1E1E1E1E1E1E1E1E1E1E1E1E1E1E1E1E1E1E1E1E1E1E1E1E1E1E1BEE1E1BEE10F0FBEE1E1E1E1E1E1E1E2BEE1E1E1BEE1E1E1E1E1E1E1
310
E1E1E1E1E1E1E1E1E1E1BEE1E1E1E1E1E1E1E1E1E1E1E1E1E1E1E1E1BEE1E1E1BEE2E1E1E1E1E1E1E1E1E1BEE1E1E1E1E1E1E1E1E1E1E1E1E1E1E1E1E1E1E1E2E2E1E1E1E1E1E1E1E1E1E1E1E1E1E1E1E1E1E1E1E1E1E1E1E1E1E1E1E1E1E1E1E1E1E1E1E1E1E1E1E1E1E1E1E1E1E1E1E1E128E1BEE1E1E1E1E1E1E1E1E1E1
310
E1E1E1E1E1E1E1E1E1E1E1E1E1E1E1E1E1E1E1E1E1E1E1E1E1E1E1E1E1E1E1E1E1E1E1E1E1E1E1E1E1E1E1E1E1E1E1E1E1E1E1E1E1E1BEE1E1E1E1E1E1E1E1E1E1E1E1E1E128E1E1E1E1E1E1E1E1E1E1E1E1E1E1E1E1E1E1E1E1E1E1E1E1E1E1E1E1E1E1E1BEE1E1BEE10F0FBEE1E1E1E1E1E1E1E2BEE1E1E2E2E1E1E1E1E1
310
E1E1E1E1E1E1E1E1E1E1E1E1BEE1E1E1E1E1E1E1E1E1E1E1E1E1E1E1E1E2E2E2E1E2BEE2E1E1E1E1E1E1E1E1E1BEE1E1E1E1E1E1E1E1E1E1E1E1E1E1E1E1E1E1E1E2E2E1E1E1E1E1E1E1E1E1E1E1E1E1E1E1E1E1E1E1E1E1E1E1E1E1E1E1E1E1E1E1E1E1E1E1E1E1E1E1E1E1E1E1E1E1E1E1E1E128E1BEE1E1E1E1E1E1E1E1
310
E1E1E1E1E1E1E1E1E1E1E1E1E1E1E1E1E1E1E1E1E1E1E1E1E1E1E1E1E1E1E1E1E1E1E1E1E1E1E1E1E1E1E1E1E1E1E1E1E1E1E1E1E1E1E1E1BEE1E1E1E1E1E1E1E1E1E1E1E1E1E128E1E1E1E1E1E1E1E1E1E1E1E1E1E1E1E1E1E1E1E1E1E1E1E1E1E1E1E1E1E1E1BEE1E1BEBE0F0FBEE1E1E1E1E1E1BEBEBEBEBEE2E2E2E1E1
310
E1E1E1E1E1E1E1E1E1E1E1E1E1E1BEE1E1E1E1E1E1E1E1E1E1E1E1E1E1E1E1E2BEE2BEBEBEBE0FBEBEBEBEBEBEBEBEBEBEE1E1E1E1E1E1E1E1E1E1E1E1E1E1E1E1E1BEE2E2E1E1E1E1E1E1E1E1E1E1E1E1E1E1E1E1E1E1E1E1E1E1E1E1E1E1E1E1E1E1E1E1E1E1E1E1E1E1E1E1E1E1E1E1E1E1E1E1E128E1BEE1E1E1E1E1E1
310
E1E1E1E1E1E1E1E1E1E1E1E1E1E1E1E1E1E1E1E1E1E1E1E1E1E1E1E1E1E1E1E1E1E1E1E1E1E1E1E1E1E1E1E1E1E1E1E1E1E1E1E1E1E1E1E1E1E1BEE1E1E1E1E1E1E1E1E1E1E1E1E1E128E1E1E1E1E1E1E1E1E1E1E1E1E1E1E1E1E1E1E1E1E1E1E1E1E1E1E1E1E1E1E1BEE1E1BEBEE1E1BEE1E1E1E1E1E1E1E2BEE1E1E2E2E1
310
E1E1E1E1E1E1E1E1E1E1E1E1E1E1E1E1BEE1E1E1E1E1E1E1E1E1E1E1E1E1E1E1E1E2E2E1E1E2BEE2E1E1E1E1E1E1E1E1E1E1E1E1E1E1E1E1E1E1E1E1E1E1E1E1E1E1E1E1E1E2E2E1E1E1E1E1E1E1E1E1E1E1E1E1E1E1E1E1E1E1E1E1E1E1E1E1E1E1E1E1E1E1E1E1E1E1E1E1E1E1E1E1E1E1E1E1E1E1E1E128E1BEE1E1E1E1
310
E1E1E1E1E1E1E1E1E1E1E1E1E1E1E1E1E1E1E1E1E1E1E1E1E1E1E1E1E1E1E1E1E1E1E1E1E1E1E1E1E1E1E1E1E1E1E1E1E1E1E1E1E1E1E1E1E1E1E1E1BEE1E1E1E1E1E1E1E1E1E1E1E1E1E128E1E1E1E1E1E1E1E1E1E1E1E1E1E1E1E1E1E1E1E1E1E1E1E1E1E1E1E1E1E1BEE2BEBEBEBEBEBEBEBEBEBEBEBEBEBEE2E2E2E2E2
310
E2E2E2E2E2E2E2E2E2E2E2E2E2E2E2E2E2E2E2E2E2E2E2E2E2E2E2E2E2E2E2E2E2E2E2E2E2E2E2E2E2E2E1E1E1E1E1E1E1E1E1E1E1E1E1E1E1E1E1E1E1E1E1E1E1E1E1E1E1E1E1E2E2E1E1E1E1E1E1E1E1E1E1E1E1E1E1E1E1E1E1E1E1E1E1E1E1E1E1E1E1E1E1E1E1E1E1E1E1E1E1E1E1E1E1E1E1E1E1E1E1E128E1BEE1E1
310
E1E1E1E1E1E1E1E1E1E1E1E1E1E1E1E1E1E1E1E1E1E1E1E1E1E1E1E1E1E1E1E1E1E1E1E1E1E1E1E1E1E1E1E1E1E1E1E1E1E1E1E1E1E1E1E1E1E1E1E1E1E1BEE1E1E1E1E1E1E1E1E1E1E1E1E1E128E1E1E1E1E1E1E1E1E1E1E1E1E1E1E1E1E1E1E1E1E1E1E1E1E1E1E1E1E1E1E1E1E1E1E1E1E1E1E1E1E1E1E1E1E1E1E1E1E1
310
E1E1E1E1E1E1E1E1E1E1E1E1E1E1E1E1E1E1E1E1BEE1E1E1E1E1E1E1E1E1E1E1E1E1E1E1E1E1E1E1E1E1E1E1E1E1E1E1E1E1E1E1E1E1E1E1E1E1E1E1E1E1E1E1E1E1E1E1E1E1E1E1E1E1E1E1E1E1E1E1E1E1E1E1E1E1E1E1E1E1E1E1E1E1E1E1E1E1E1E1E1E1E1E1E1E1E1E1E1E1E1E1E1E1E1E1E1E1E1E1E1E1E1E128E1BE
310
E1E1E1E1E1E1E1E1E1E1E1E1E1E1E1E1E1E1E1E1E1E1E1E1E1E1E1E1E1E1E1E1E1E1E1E1E1E1E1E1E1E1E1E1E1E1E1E1E1E1E1E1E1E1E1E1E1E1E1E1E1E1E1E1BEE1E1E1E1E1E1E1E1E1E1E1E1E1E128E1E1E1E1E1E1E1E1E1E1E1E1E1E1E1E1E1E1E1E1E1E1E1E1E1E1E1E1E1E1E1E1E1E1E1E1E1E1E1E1E1E1E1E1E1E1E1
310
E1E1E1E1E1E1E1E1E1E1E1E1E1E1E1E1E1E1E1E1E1E1E1E1E1E1E1E1E1E1E1E1E1E1E1E1E1E1E1E1E1E1E1E1E1E1E1E1E1E1E1E1E1E1E1E1E1E1E1E1E1E1E1E1E1E1E1E1E1E1E1E1E1E1E1E1E1E1E1E1E1E1E1E1E1E1E1E1E1E1E1E1E1E1E1E1E1E1E1E1E1E1E1E1E1E1E1E1E1E1E1E1E1E1E1E1E1E1E1E1E1E1E1E1E1E128
310
E1BEE1E1E1E1E1E1E1E1E1E1E1E1E1E1E1E1E1E1E1E1E1E1E1E1E1E1E1E1E1E1E1E1E1E1E1E1E1E1E1E1E1E1E1E1E1E1E1E1E1E1E1E1E1E1E1E1E1E1E1E1E1E1E1E1BEE1E1E1E1E1E1E1E1E1E1E1E1E1E128E1E1E1E1E1E1E1E1E1E1E1E1E1E1E1E1E1E1E1E1E1E1E1E1E1E1E1E1E1E1E1E1E1E1E1E1E1E1E1E1E1E1E1E1E1
310
E1E1E1E1E1E1E1E1E1E1E1E1E1E1E1E1E1E1E1E1E1E1E1E1E1E1E1E1E1E1E1E1E1E1E1E1E1E1E1E1E1E1E1E1E1E1E1E1E1E1E1E1E1E1E1E1E1E1E1E1E1E1E1E1E1E1E1E1E1E1E1E1E1E1E1E1E1E1E1E1E1E1E1E1E1E1E1E1E1E1E1E1E1E1E1E1E1E1E1E1E1E1E1E1E1E1E1E1E1E1E1E1E1E1E1E1E1E1E1E1E1E1E1E1E1E1E1
310
E128E1BEE1E1E1E1E1E1E1E1E1E1E1E1E1E1E1E1E1E1E1E1E1E1E1E1E1E1E1E1E1E1E1E1E1E1E1E1E1E1E1E1E1E1E1E1E1E1E1E1E1E1E1E1E1E1E1E1E1E1E1E1E1E1E1E1BEE1E1E1E1E1E1E1E1E1E1E1E1E1E128E1E1E1E1E1E1E1E1E1E1E1E1E1E1E1E1E1E1E1E1E1E1E1E1E1E1E1E1E1E1E1E1E1E1E1E1E1E1E1E1E1E1E1
310
E1E1E1E1E1E1E1E1E1E1E1E1E1E1E1E1E1E1E1E1E1E1E1E1E1E1E1E1E1E1E1E1E1E1E1E1E1E1E1E1E1E1E1E1E1E1E1E1E1E1E1E1E1E1E1E1E1E1E1E1E1E1E1E1E1E1E1E1E1E1E1E1E1E1E1E1E1E1E1E1E1E1E1E1E1E1E1E1E1E1E1E1E1E1E1E1E1E1E1E1E1E1E1E1E1E1E1E1E1E1E1E1E1E1E1E1E1E1E1E1E1E1E1E1E1E1E1
310
E1E1E128E1BEE1E1E1E1E1E1E1E1E1E1E1E1E1E1E1E1E1E1E1E1E1E1E1E1E1E1E1E1E1E1E1E1E1E1E1E1E1E1E1E1E1E1E1E1E1E1E1E1E1E1E1E1E1E1E1E1E1E1E1E1E1E1E1E1BEE1E1E1E1E1E1E1E1E1E1E1E1E1E128E1E1E1E1E1E1E1E1E1E1E1E1E1E1E1E1E1E1E1E1E1E1E1E1E1E1E1E1E1E1E1E1E1E1E1E1E1E1E1E1E1
310
E1E1E1E1E1E1E1E1E1E1E1E1E1E1E1E1E1E1E1E1E1E1E1E1E1E1E1E1E1E1E1E1E1E1E1E1E1E1E1E1E1E1E1E1E1E1E1E1E1E1E1E1E1E1E1E1E1E1E1E1E1E1E1E1E1E1E1E1E1E1E1E1E1E1E1E1E1E1E1E1E1E1E1E1E1E1E1E1E1E1E1E1E1E1E1E1E1E1E1E1E1E1E1E1E1E1E1E1E1E1E1E1E1E1E1E1E1E1E1E1E1E1E1E1E1E1E1
310
E1E1E1E1E128E1BEE1E1E1E1E1E1E1E1E1E1E1E1E1E1E1E1E1E1E1E1E1E1E1E1E1E1E1E1E1E1E1E1E1E1E1E1E1E1E1E1E1E1E1E1E1E1E1E1E1E1E1E1E1E1E1E1E1E1E1E1E1E1E1E1BEE1E1E1E1E1E1E1E1E1E1E1E1E1E128E1E1E1E1E1E1E1E1E1E1E1E1E1E1E1E1E1E1E1E1E1E1E1E1E1E1E1E1E1E1E1E1E1E1E1E1E1E1E1
310
E1E1E1E1E1E1E1E1E1E1E1E1E1E1E1E1E1E1E1E1E1E1E1E1E1E1E1E1E1E1E1E1E1E1E1E1E1E1E1E1E1E1E1E1E1E1E1E1E1E1E1E1E1E1E1E1E1E1E1E1E1E1E1E1E1E1E1E1E1E1E1E1E1E1E1E1E1E1E1E1E1E1E1E1E1E1E1E1E1E1E1E1E1E1E1E1E1E1E1E1E1E1E1E1E1E1E1E1E1E1E1E1E1E1E1E1E1E1E1E1E1E1E1E1E1E1E1
310
E1E1E1E1E1E1E128E1BEE1E1E1E1E1E1E1E1E1E1E1E1E1E1E1E1E1E1E1E1E1E1E1E1E1E1E1E1E1E1E1E1E1E1E1E1E1E1E1E1E1E1E1E1E1E1E1E1E1E1E1E1E1E1E1E1E1E1E1E1E1E1E1E1BEE1E1E1E1E1E1E1E1E1E1E1E1E1E128E1E1E1E1E1E1E1E1E1E1E1E1E1E1E1E1E1E1E1E1E1E1E1E1E1E1E1E1E1E1E1E1E1E1E1E1E1
310
E1E1E1E1E1E1E1E1E1E1E1E1E1E1E1E1E1E1E1E1E1E1E1E1E1E1E1E1E1E1E1E1E1E1E1E1E1E1E1E1E1E1E1E1E1E1E1E1E1E1E1E1E1E1E1E1E1E1E1E1E1E1E1E1E1E1E1E1E1E1E1E1E1E1E1E1E1E1E1E1E1E1E1E1E1E1E1E1E1E1E1E1E1E1E1E1E1E1E1E1E1E1E1E1E1E1E1E1E1E1E1E1E1E1E1E1E1E1E1E1E1E1E1E1E1E1E1
310
E1E1E1E1E1E1E1E1E128E1BEE1E1E1E1E1E1E1E1E1E1E1E1E1E1E1E1E1E1E1E1E1E1E1E1E1E1E1E1E1E1E1E1E1E1E1E1E1E1E1E1E1E1E1E1E1E1E1E1E1E1E1E1E1E1E1E1E1E1E1E1E1E1E1E1BEE1E1E1E1E1E1E1E1E1E1E1E1E1E128E1E1E1E1E1E1E1E1E1E1E1E1E1E1E1E1E1E1E1E1E1E1E1E1E1E1E1E1E1E1E1E1E1E1E1
310
E1E1E1E1E1E1E1E1E1E1E1E1E1E1E1E1E1E1E1E1E1E1E1E1E1E1E1E1E1E1E1E1E1E1E1E1E1E1E1E1E1E1E1E1E1E1E1E1E1E1E1E1E1E1E1E1E1E1E1E1E1E1E1E1E1E1E1E1E1E1E1E1E1E1E1E1E1E1E1E1E1E1E1E1E1E1E1E1E1E1E1E1E1E1E1E1E1E1E1E1E1E1E1E1E1E1E1E1E1E1E1E1E1E1E1E1E1E1E1E1E1E1E1E1E1E1E1
310
E1E1E1E1E1E1E1E1E1E1E128E1BEE1E1E1E1E1E1E1E1E1E1E1E1E1E1E1E1E1E1E1E1E1E1E1E1E1E1E1E1E1E1E1E1E1E1E1E1E1E1E1E1E1E1E1E1E1E1E1E1E1E1E1E1E1E1E1E1E1E1E1E1E1E1E1E1BEE1E1E1E1E1E1E1E1E1E1E1E1E1E128E1E1E1E1E1E1E1E1E1E1E1E1E1E1E1E1E1E1E1E1E1E1E1E1E1E1E1E1E1E1E1E1E1
310
E1E1E1E1E1E1E1E1E1E1E1E1E1E1E1E1E1E1E1E1E1E1E1E1E1E1E1E1E1E1E1E1E1E1E1E1E1E1E1E1E1E1E1E1E1E1E1E1E1E1E1E1E1E1E1E1E1E1E1E1E1E1E1E1E1E1E1E1E1E1E1E1E1E1E1E1E1E1E1E1E1E1E1E1E1E1E1E1E1E1E1E1E1E1E1E1E1E1E1E1E1E1E1E1E1E1E1E1E1E1E1E1E1E1E1E1E1E1E1E1E1E1E1E1E1E1E1
310
E1E1E1E1E1E1E1E1E1E1E1E1E128E1BEE1E1E1E1E1E1E1E1E1E1E1E1E1E1E1E1E1E1E1E1E1E1E1E1E1E1E1E1E1E1E1E1E1E1E1E1E1E1E1E1E1E1E1E1E1E1E1E1E1E1E1E1E1E1E1E1E1E1E1E1E1E1E1E1BEE1E1E1E1E1E1E1E1E1E1E1E1E1E128E1E1E1E1E1E1E1E1E1E1E1E1E1E1E1E1E1E1E1E1E1E1E1E1E1E1E1E1E1E1E1
310
E1E1E1E1E1E1E1E1E1E1E1E1E1E1E1E1E1E1E1E1E1E1E1E1E1E1E1E1E1E1E1E1E1E1E1E1E1E1E1E1E1E1E1E1E1E1E1E1E1E1E1E1E1E1E1E1E1E1E1E1E1E1E1E1E1E1E1E1E1E1E1E1E1E1E1E1E1E1E1E1E1E1E1E1E1E1E1E1E1E1E1E1E1E1E1E1E1E1E1E1E1E1E1E1E1E1E1E1E1E1E1E1E1E1E1E1E1E1E1E1E1E1E1E1E1E1E1
310
E1E1E1E1E1E1E1E1E1E1E1E1E1E1E128E1BEE1E1E1E1E1E1E1E1E1E1E1E1E1E1E1E1E1E1E1E1E1E1E1E1E1E1E1E1E1E1E1E1E1E1E1E1E1E1E1E1E1E1E1E1E1E1E1E1E1E1E1E1E1E1E1E1E1E1E1E1E1E1E1E1BEE1E1E1E1E1E1E1E1E1E1E1E1E1E128E1E1E1E1E1E1E1E1E1E1E1E1E1E1E1E1E1E1E1E1E1E1E1E1E1E1E1E1E1
310
E1E1E1E1E1E1E1E1E1E1E1E1E1E1E1E1E1E1E1E1E1E1E1E1E1E1E1E1E1E1E1E1E1E1E1E1E1E1E1E1E1E1E1E1E1E1E1E1E1E1E1E1E1E1E1E1E1E1E1E1E1E1E1E1E1E1E1E1E1E1E1E1E1E1E1E1E1E1E1E1E1E1E1E1E1E1E1E1E1E1E1E1E1E1E1E1E1E1E1E1E1E1E1E1E1E1E1E1E1E1E1E1E1E1E1E1E1E1E1E1E1E1E1E1E1E1E1
310
E1E1E1E1E1E1E1E1E1E1E1E1E1E1E1E1E128E1BEE1E1E1E1E1E1E1E1E1E1E1E1E1E1E1E1E1E1E1E1E1E1E1E1E1E1E1E1E1E1E1E1E1E1E1E1E1E1E1E1E1E1E1E1E1E1E1E1E1E1E1E1E1E1E1E1E1E1E1E1E1E1E1E1BEE1E1E1E1E1E1E1E1E1E1E1E1E1E128E1E1E1E1E1E1E1E1E1E1E1E1E1E1E1E1E1E1E1E1E1E1E1E1E1E1E1
310
E1E1E1E1E1E1E1E1E1E1E1E1E1E1E1E1E1E1E1E1E1E1E1E1E1E1E1E1E1E1E1E1E1E1E1E1E1E1E1E1E1E1E1E1E1E1E1E1E1E1E1E1E1E1E1E1E1E1E1E1E1E1E1E1E1E1E1E1E1E1E1E1E1E1E1E1E1E1E1E1E1E1E1E1E1E1E1E1E1E1E1E1E1E1E1E1E1E1E1E1E1E1E1E1E1E1E1E1E1E1E1E1E1E1E1E1E1E1E1E1E1E1E1E1E1E1E1
310
E1E1E1E1E1E1E1E1E1E1E1E1E1E1E1E1E1E1E128E1BEE1E1E1E1E1E1E1E1E1E1E1E1E1E1E1E1E1E1E1E1E1E1E1E1E1E1E1E1E1E1E1E1E1E1E1E1E1E1E1E1E1E1E1E1E1E1E1E1E1E1E1E1E1E1E1E1E1E1E1E1E1E1E1E1BEE1E1E1E1E1E1E1E1E1E1E1E1E1E128E1E1E1E1E1E1E1E1E1E1E1E1E1E1E1E1E1E1E1E1E1E1E1E1E1
310
E1E1E1E1E1E1E1E1E1E1E1E1E1E1E1E1E1E1E1E1E1E1E1E1E1E1E1E1E1E1E1E1E1E1E1E1E1E1E1E1E1E1E1E1E1E1E1E1E1E1E1E1E1E1E1E1E1E1E1E1E1E1E1E1E1E1E1E1E1E1E1E1E1E1E1E1E1E1E1E1E1E1E1E1E1E1E1E1E1E1E1E1E1E1E1E1E1E1E1E1E1E1E1E1E1E1E1E1E1E1E1E1E1E1E1E1E1E1E1E1E1E1E1E1E1E1E1
310
E1E1E1E1E1E1E1E1E1E1E1E1E1E1E1E1E1E1E1E1E128E1BEE1E1E1E1E1E1E1E1E1E1E1E1E1E1E1E1E1E1E1E1E1E1E1E1E1E1E1E1E1E1E1E1E1E1E1E1E1E1E1E1E1E1E1E1E1E1E1E1E1E1E1E1E1E1E1E1E1E1E1E1E1E1E1E1BEE1E1E1E1E1E1E1E1E1E1E1E1E1E128E1E1E1E1E1E1E1E1E1E1E1E1E1E1E1E1E1E1E1E1E1E1E1
310
E1E1E1E1E1E1E1E1E1E1E1E1E1E1E1E1E1E1E1E1E1E1E1E1E1E1E1E1E1E1E1E1E1E1E1E1E1E1E1E1E1E1E1E1E1E1E1E1E1E1E1E1E1E1E1E1E1E1E1E1E1E1E1E1E1E1E1E1E1E1E1E1E1E1E1E1E1E1E1E1E1E1E1E1E1E1E1E1E1E1E1E1E1E1E1E1E1E1E1E1E1E1E1E1E1E1E1E1E1E1E1E1E1E1E1E1E1E1E1E1E1E1E1E1E1E1E1
310
E1E1E1E1E1E1E1E1E1E1E1E1E1E1E1E1E1E1E1E1E1E1E128E1BEE1E1E1E1E1E1E1E1E1E1E1E1E1E1E1E1E1E1E1E1E1E1E1E1E1E1E1E1E1E1E1E1E1E1E1E1E1E1E1E1E1E1E1E1E1E1E1E1E1E1E1E1E1E1E1E1E1E1E1E1E1E1E1E1BEE1E1E1E1E1E1E1E1E1E1E1E1E1E128E1E1E1E1E1E1E1E1E1E1E1E1E1E1E1E1E1E1E1E1E1
310
E1E1E1E1E1E1E1E1E1E1E1E1E1E1E1E1E1E1E1E1E1E1E1E1E1E1E1E1E1E1E1E1E1E1E1E1E1E1E1E1E1E1E1E1E1E1E1E1E1E1E1E1E1E1E1E1E1E1E1E1E1E1E1E1E1E1E1E1E1E1E1E1E1E1E1E1E1E1E1E1E1E1E1E1E1E1E1E1E1E1E1E1E1E1E1E1E1E1E1E1E1E1E1E1E1E1E1E1E1E1E1E1E1E1E1E1E1E1E1E1E1E1E1E1E1E1E1
310
E1E1E1E1E1E1E1E1E1E1E1E1E1E1E1E1E1E1E1E1E1E1E1E1E128E1BEE1E1E1E1E1E1E1E1E1E1E1E1E1E1E1E1E1E1E1E1E1E1E1E1E1E1E1E1E1E1E1E1E1E1E1E1E1E1E1E1E1E1E1E1E1E1E1E1E1E1E1E1E1E1E1E1E1E1E1E1E1E1E1E1BEE1E1E1E1E1E1E1E1E1E1E1E1E1E12828282828282828282828282828282828282828
310
28282828282828282828282828282828282828282828BE2828282828282828282828282828282828282828282828282828282828282828282828282828282828282828282828BE2828282828282828282828282828282828282828282828282828282828282828282828282828282828282828282828282828282828282828
310
28282828282828282828282828282828282828282828282828282828E1BEE1E1E1E1E1E1E1E1E1E1E1E1E1E1E1E1E1E1E1E1E1E1E1E1E1E1E1E1E1E1E1E1E1E1E1E1E1E1E1E1E1E1E1E1E1E1E1E1E1E1E1E1E1E1E1E1E1E1E1E1E1E1E1E1BEE1E1E1E1E1E1E1E1E1E1E1E1E1E1E1E1E1E1E1E1E1E1E1E1E1E1E1E1E1E1E1E1
310
E1E1E1E1E1E1E1E1E1E1E1E1E1E1E1E1E1E1E1E1E1E1E1E1BEE1E1E1E1E1E1E1E1E1E1E1E1E1E1E1E1E1E1E1E1E1E1E1E1E1E1E1E1E1E1E1E1E1E1E1E1E1E1E1E1E1E1E1E1E1E1E1BEE1E1E1E1E1E1E1E1E1E1E1E1E1E1E1E1E1E1E1E1E1E1E1E1E1E1E1E1E1E1E1E1E1E1E1E1E1E1E1E1E1E1E1E1E1E1E1E1E1E1E1E1E1E1
310
E1E1E1E1E1E1E1E1E1E1E1E1E1E1E1E1E1E1E1E1E1E1E1E1E1E1E1E1E1E1E1BEE1E1E1E1E1E1E1E1E1E1E1E1E1E1E1E1E1E1E1E1E1E1E1E1E1E1E1E1E1E1E1E1E1E1E1E1E1E1E1E1E1E1E1E1E1E1E1E1E1E1E1E1E1E1E1E1E1E1E1E1E1E1E1E1BEBEBEBEBEBEBEBEBEBEBEBEBEBEBEBEBEBEBEBEBEBEBEBEBEBEBEBEBEBEBE
310
BEBEBEBEBEBEBEBEBEBEBEBEBEBEBEBEBEBEBEBEBEBEBEBEBEBEBEBEBEBEBEBEBEBEBEBEBEBEBEBEBEBEBEBEBEBEBEBEBEBEBEBEBEBEBEBEBEBEBEBEBEBEBEBEBEBEBEBEBEBEBEBEBEBEBEBEBEBEBEBEBEBEBEBEBEBEBEBEBEBEBEBEBEBEBEBEBEBEBEBEBEBEBEBEBEBEBEBEBEBEBEBEBEBEBEBEBEBEBEBEBEBEBEBEBEBEBE
310
BEBEBEBEBEBEBEBEBEBEBEBEBEBEBEBEBEBEBEBEBEBEBEBEBEBEBEBEBEBEBEBEBEBEE1E1E1E1E1E1E1E1E1E1E1E1E1E1E1E1E1E1E1E1E1E1E1E1E1E1E1E1E1E1E1E1
  0
XRECORD
  5
386E
102
{ACAD_REACTORS
330
1A61
102
}
330
1A61
100
AcDbXrecord
280
     1
102
MATERIAL
148
0.0
149
0.0
149
0.0
 93
        0
 94
      127
282
     0
 72
     0
 77
     0
171
     0
175
     0
179
     0
273
     0
  0
XRECORD
  5
1A63
102
{ACAD_REACTORS
330
1A61
102
}
330
1A61
100
AcDbXrecord
280
     1
270
     1
271
     1
  0
XRECORD
  5
1A62
102
{ACAD_REACTORS
330
1A61
102
}
330
1A61
100
AcDbXrecord
280
     1
270
     1
271
     1
  0
XRECORD
  5
1A66
102
{ACAD_REACTORS
330
1A61
102
}
330
1A61
100
AcDbXrecord
280
     1
270
     1
271
     1
  0
XRECORD
  5
1A65
102
{ACAD_REACTORS
330
1A61
102
}
330
1A61
100
AcDbXrecord
280
     1
270
     1
271
     1
  0
XRECORD
  5
1A67
102
{ACAD_REACTORS
330
1A61
102
}
330
1A61
100
AcDbXrecord
280
     1
270
     1
271
     1
  0
XRECORD
  5
1A64
102
{ACAD_REACTORS
330
1A61
102
}
330
1A61
100
AcDbXrecord
280
     1
270
     1
271
     1
  0
XRECORD
  5
386D
102
{ACAD_REACTORS
330
1A59
102
}
330
1A59
100
AcDbXrecord
280
     1
102
MATERIAL
148
0.0
149
0.0
149
0.0
 93
        0
 94
      127
282
     0
 72
     0
 77
     0
171
     0
175
     0
179
     0
273
     0
  0
XRECORD
  5
1A5B
102
{ACAD_REACTORS
330
1A59
102
}
330
1A59
100
AcDbXrecord
280
     1
270
     1
271
     1
  0
XRECORD
  5
1A5A
102
{ACAD_REACTORS
330
1A59
102
}
330
1A59
100
AcDbXrecord
280
     1
270
     1
271
     1
  0
XRECORD
  5
1A5E
102
{ACAD_REACTORS
330
1A59
102
}
330
1A59
100
AcDbXrecord
280
     1
270
     1
271
     1
  0
XRECORD
  5
1A5D
102
{ACAD_REACTORS
330
1A59
102
}
330
1A59
100
AcDbXrecord
280
     1
270
     1
271
     1
  0
XRECORD
  5
1A5F
102
{ACAD_REACTORS
330
1A59
102
}
330
1A59
100
AcDbXrecord
280
     1
270
     1
271
     1
  0
XRECORD
  5
1A5C
102
{ACAD_REACTORS
330
1A59
102
}
330
1A59
100
AcDbXrecord
280
     1
270
     1
271
     1
  0
XRECORD
  5
386F
102
{ACAD_REACTORS
330
1A69
102
}
330
1A69
100
AcDbXrecord
280
     1
102
MATERIAL
148
0.0
149
0.0
149
0.0
 93
        0
 94
      127
282
     0
 72
     0
 77
     0
171
     0
175
     0
179
     0
273
     0
  0
XRECORD
  5
1A6B
102
{ACAD_REACTORS
330
1A69
102
}
330
1A69
100
AcDbXrecord
280
     1
270
     1
271
     1
  0
XRECORD
  5
1A6A
102
{ACAD_REACTORS
330
1A69
102
}
330
1A69
100
AcDbXrecord
280
     1
270
     1
271
     1
  0
XRECORD
  5
1A6E
102
{ACAD_REACTORS
330
1A69
102
}
330
1A69
100
AcDbXrecord
280
     1
270
     1
271
     1
  0
XRECORD
  5
1A6D
102
{ACAD_REACTORS
330
1A69
102
}
330
1A69
100
AcDbXrecord
280
     1
270
     1
271
     1
  0
XRECORD
  5
1A6F
102
{ACAD_REACTORS
330
1A69
102
}
330
1A69
100
AcDbXrecord
280
     1
270
     1
271
     1
  0
XRECORD
  5
1A6C
102
{ACAD_REACTORS
330
1A69
102
}
330
1A69
100
AcDbXrecord
280
     1
270
     1
271
     1
  0
CELLSTYLEMAP
  5
3867
102
{ACAD_REACTORS
330
3866
102
}
330
3866
100
AcDbCellStyleMap
 90
        3
300
CELLSTYLE
  1
TABLEFORMAT_BEGIN
 90
        5
170
     1
 91
        0
 92
    32768
 62
   257
 93
        1
300
CONTENTFORMAT
  1
CONTENTFORMAT_BEGIN
 90
        0
 91
        0
 92
      512
 93
        0
300

 40
0.0
140
1.0
 94
        5
 62
     0
340
10
144
0.25
309
CONTENTFORMAT_END
171
     0
 94
        0
309
TABLEFORMAT_END
  1
CELLSTYLE_BEGIN
 90
        1
 91
        1
300
_TITLE
309
CELLSTYLE_END
300
CELLSTYLE
  1
TABLEFORMAT_BEGIN
 90
        5
170
     1
 91
        0
 92
        0
 62
   257
 93
        1
300
CONTENTFORMAT
  1
CONTENTFORMAT_BEGIN
 90
        0
 91
        0
 92
      512
 93
        0
300

 40
0.0
140
1.0
 94
        5
 62
     0
340
10
144
0.18
309
CONTENTFORMAT_END
171
     0
 94
        0
309
TABLEFORMAT_END
  1
CELLSTYLE_BEGIN
 90
        2
 91
        1
300
_HEADER
309
CELLSTYLE_END
300
CELLSTYLE
  1
TABLEFORMAT_BEGIN
 90
        5
170
     1
 91
        0
 92
        0
 62
   257
 93
        1
300
CONTENTFORMAT
  1
CONTENTFORMAT_BEGIN
 90
        0
 91
        0
 92
      512
 93
        0
300

 40
0.0
140
1.0
 94
        2
 62
     0
340
10
144
0.18
309
CONTENTFORMAT_END
171
     0
 94
        0
309
TABLEFORMAT_END
  1
CELLSTYLE_BEGIN
 90
        3
 91
        2
300
_DATA
309
CELLSTYLE_END
  0
XRECORD
  5
3896
102
{ACAD_REACTORS
330
3866
102
}
330
3866
100
AcDbXrecord
280
     1
102
ACAD_ROUNDTRIP_PRE2007_TABLESTYLE
 90
      512
 91
        0
  1

 92
      512
 93
        0
  2

 94
      512
 95
        0
  3

  0
XRECORD
  5
387B
102
{ACAD_REACTORS
330
387A
102
}
330
387A
100
AcDbXrecord
280
     1
102
RTVSPropertyOp0
 70
     1
102
RTVSPropertyOp1
 70
     1
102
RTVSPropertyOp2
 70
     1
102
RTVSPropertyOp3
 70
     1
102
RTVSPropertyOp4
 70
     1
102
RTVSPropertyOp5
 70
     1
102
RTVSPropertyOp6
 70
     1
102
RTVSPropertyOp7
 70
     1
102
RTVSPropertyOp8
 70
     1
102
RTVSPropertyOp9
 70
     1
102
RTVSPropertyOp10
 70
     1
102
RTVSPropertyOp11
 70
     1
102
RTVSPropertyOp12
 70
     1
102
RTVSPropertyOp13
 70
     1
102
RTVSPropertyOp14
 70
     1
102
RTVSPropertyOp15
 70
     1
102
RTVSPropertyOp16
 70
     1
102
RTVSPropertyOp17
 70
     1
102
RTVSPropertyOp18
 70
     1
102
RTVSPropertyOp19
 70
     1
102
RTVSPropertyOp20
 70
     1
102
RTVSPropertyOp21
 70
     1
102
RTVSPropertyOp22
 70
     1
102
RTVSPropertyOp23
 70
     1
102
RTVSPropertyOp24
 70
     1
102
RTVSPropertyOp25
 70
     1
102
RTVSPropertyOp26
 70
     1
102
RTVSPropertyOp27
 70
     1
  0
XRECORD
  5
387F
102
{ACAD_REACTORS
330
387E
102
}
330
387E
100
AcDbXrecord
280
     1
102
RTVSPropertyOp0
 70
     1
102
RTVSPropertyOp1
 70
     1
102
RTVSPropertyOp2
 70
     1
102
RTVSPropertyOp3
 70
     1
102
RTVSPropertyOp4
 70
     1
102
RTVSPropertyOp5
 70
     1
102
RTVSPropertyOp6
 70
     1
102
RTVSPropertyOp7
 70
     1
102
RTVSPropertyOp8
 70
     1
102
RTVSPropertyOp9
 70
     1
102
RTVSPropertyOp10
 70
     1
102
RTVSPropertyOp11
 70
     1
102
RTVSPropertyOp12
 70
     1
102
RTVSPropertyOp13
 70
     1
102
RTVSPropertyOp14
 70
     1
102
RTVSPropertyOp15
 70
     1
102
RTVSPropertyOp16
 70
     1
102
RTVSPropertyOp17
 70
     1
102
RTVSPropertyOp18
 70
     1
102
RTVSPropertyOp19
 70
     1
102
RTVSPropertyOp20
 70
     1
102
RTVSPropertyOp21
 70
     1
102
RTVSPropertyOp22
 70
     1
102
RTVSPropertyOp23
 70
     1
102
RTVSPropertyOp24
 70
     1
102
RTVSPropertyOp25
 70
     1
102
RTVSPropertyOp26
 70
     1
102
RTVSPropertyOp27
 70
     1
  0
XRECORD
  5
387D
102
{ACAD_REACTORS
330
387C
102
}
330
387C
100
AcDbXrecord
280
     1
102
RTVSPropertyOp0
 70
     1
102
RTVSPropertyOp1
 70
     1
102
RTVSPropertyOp2
 70
     1
102
RTVSPropertyOp3
 70
     1
102
RTVSPropertyOp4
 70
     1
102
RTVSPropertyOp5
 70
     1
102
RTVSPropertyOp6
 70
     1
102
RTVSPropertyOp7
 70
     1
102
RTVSPropertyOp8
 70
     1
102
RTVSPropertyOp9
 70
     1
102
RTVSPropertyOp10
 70
     1
102
RTVSPropertyOp11
 70
     1
102
RTVSPropertyOp12
 70
     1
102
RTVSPropertyOp13
 70
     1
102
RTVSPropertyOp14
 70
     1
102
RTVSPropertyOp15
 70
     1
102
RTVSPropertyOp16
 70
     1
102
RTVSPropertyOp17
 70
     1
102
RTVSPropertyOp18
 70
     1
102
RTVSPropertyOp19
 70
     1
102
RTVSPropertyOp20
 70
     1
102
RTVSPropertyOp21
 70
     1
102
RTVSPropertyOp22
 70
     1
102
RTVSPropertyOp23
 70
     1
102
RTVSPropertyOp24
 70
     1
102
RTVSPropertyOp25
 70
     1
102
RTVSPropertyOp26
 70
     1
102
RTVSPropertyOp27
 70
     1
  0
XRECORD
  5
3879
102
{ACAD_REACTORS
330
3878
102
}
330
3878
100
AcDbXrecord
280
     1
102
RTVSPropertyOp0
 70
     1
102
RTVSPropertyOp1
 70
     1
102
RTVSPropertyOp2
 70
     1
102
RTVSPropertyOp3
 70
     1
102
RTVSPropertyOp4
 70
     1
102
RTVSPropertyOp5
 70
     1
102
RTVSPropertyOp6
 70
     1
102
RTVSPropertyOp7
 70
     1
102
RTVSPropertyOp8
 70
     1
102
RTVSPropertyOp9
 70
     1
102
RTVSPropertyOp10
 70
     1
102
RTVSPropertyOp11
 70
     1
102
RTVSPropertyOp12
 70
     1
102
RTVSPropertyOp13
 70
     1
102
RTVSPropertyOp14
 70
     1
102
RTVSPropertyOp15
 70
     1
102
RTVSPropertyOp16
 70
     1
102
RTVSPropertyOp17
 70
     1
102
RTVSPropertyOp18
 70
     1
102
RTVSPropertyOp19
 70
     1
102
RTVSPropertyOp20
 70
     1
102
RTVSPropertyOp21
 70
     1
102
RTVSPropertyOp22
 70
     1
102
RTVSPropertyOp23
 70
     1
102
RTVSPropertyOp24
 70
     1
102
RTVSPropertyOp25
 70
     1
102
RTVSPropertyOp26
 70
     1
102
RTVSPropertyOp27
 70
     1
  0
XRECORD
  5
3887
102
{ACAD_REACTORS
330
3886
102
}
330
3886
100
AcDbXrecord
280
     1
102
RTVSPropertyOp0
 70
     1
102
RTVSPropertyOp1
 70
     1
102
RTVSPropertyOp2
 70
     1
102
RTVSPropertyOp3
 70
     1
102
RTVSPropertyOp4
 70
     1
102
RTVSPropertyOp5
 70
     1
102
RTVSPropertyOp6
 70
     1
102
RTVSPropertyOp7
 70
     1
102
RTVSPropertyOp8
 70
     1
102
RTVSPropertyOp9
 70
     1
102
RTVSPropertyOp10
 70
     1
102
RTVSPropertyOp11
 70
     1
102
RTVSPropertyOp12
 70
     1
102
RTVSPropertyOp13
 70
     1
102
RTVSPropertyOp14
 70
     1
102
RTVSPropertyOp15
 70
     1
102
RTVSPropertyOp16
 70
     1
102
RTVSPropertyOp17
 70
     1
102
RTVSPropertyOp18
 70
     1
102
RTVSPropertyOp19
 70
     1
102
RTVSPropertyOp20
 70
     1
102
RTVSPropertyOp21
 70
     1
102
RTVSPropertyOp22
 70
     1
102
RTVSPropertyOp23
 70
     1
102
RTVSPropertyOp24
 70
     1
102
RTVSPropertyOp25
 70
     1
102
RTVSPropertyOp26
 70
     1
102
RTVSPropertyOp27
 70
     1
  0
XRECORD
  5
388F
102
{ACAD_REACTORS
330
388E
102
}
330
388E
100
AcDbXrecord
280
     1
102
RTVSPropertyOp0
 70
     1
102
RTVSPropertyOp1
 70
     1
102
RTVSPropertyOp2
 70
     1
102
RTVSPropertyOp3
 70
     1
102
RTVSPropertyOp4
 70
     1
102
RTVSPropertyOp5
 70
     1
102
RTVSPropertyOp6
 70
     1
102
RTVSPropertyOp7
 70
     1
102
RTVSPropertyOp8
 70
     1
102
RTVSPropertyOp9
 70
     1
102
RTVSPropertyOp10
 70
     1
102
RTVSPropertyOp11
 70
     1
102
RTVSPropertyOp12
 70
     1
102
RTVSPropertyOp13
 70
     1
102
RTVSPropertyOp14
 70
     1
102
RTVSPropertyOp15
 70
     1
102
RTVSPropertyOp16
 70
     1
102
RTVSPropertyOp17
 70
     1
102
RTVSPropertyOp18
 70
     1
102
RTVSPropertyOp19
 70
     1
102
RTVSPropertyOp20
 70
     1
102
RTVSPropertyOp21
 70
     1
102
RTVSPropertyOp22
 70
     1
102
RTVSPropertyOp23
 70
     1
102
RTVSPropertyOp24
 70
     1
102
RTVSPropertyOp25
 70
     1
102
RTVSPropertyOp26
 70
     1
102
RTVSPropertyOp27
 70
     1
  0
XRECORD
  5
3881
102
{ACAD_REACTORS
330
3880
102
}
330
3880
100
AcDbXrecord
280
     1
102
RTVSPropertyOp0
 70
     1
102
RTVSPropertyOp1
 70
     1
102
RTVSPropertyOp2
 70
     1
102
RTVSPropertyOp3
 70
     1
102
RTVSPropertyOp4
 70
     1
102
RTVSPropertyOp5
 70
     1
102
RTVSPropertyOp6
 70
     1
102
RTVSPropertyOp7
 70
     1
102
RTVSPropertyOp8
 70
     1
102
RTVSPropertyOp9
 70
     1
102
RTVSPropertyOp10
 70
     1
102
RTVSPropertyOp11
 70
     1
102
RTVSPropertyOp12
 70
     1
102
RTVSPropertyOp13
 70
     1
102
RTVSPropertyOp14
 70
     1
102
RTVSPropertyOp15
 70
     1
102
RTVSPropertyOp16
 70
     1
102
RTVSPropertyOp17
 70
     1
102
RTVSPropertyOp18
 70
     1
102
RTVSPropertyOp19
 70
     1
102
RTVSPropertyOp20
 70
     1
102
RTVSPropertyOp21
 70
     1
102
RTVSPropertyOp22
 70
     1
102
RTVSPropertyOp23
 70
     1
102
RTVSPropertyOp24
 70
     1
102
RTVSPropertyOp25
 70
     1
102
RTVSPropertyOp26
 70
     1
102
RTVSPropertyOp27
 70
     1
  0
XRECORD
  5
3885
102
{ACAD_REACTORS
330
3884
102
}
330
3884
100
AcDbXrecord
280
     1
102
RTVSPropertyOp0
 70
     1
102
RTVSPropertyOp1
 70
     1
102
RTVSPropertyOp2
 70
     1
102
RTVSPropertyOp3
 70
     1
102
RTVSPropertyOp4
 70
     1
102
RTVSPropertyOp5
 70
     1
102
RTVSPropertyOp6
 70
     1
102
RTVSPropertyOp7
 70
     1
102
RTVSPropertyOp8
 70
     1
102
RTVSPropertyOp9
 70
     1
102
RTVSPropertyOp10
 70
     1
102
RTVSPropertyOp11
 70
     1
102
RTVSPropertyOp12
 70
     1
102
RTVSPropertyOp13
 70
     1
102
RTVSPropertyOp14
 70
     1
102
RTVSPropertyOp15
 70
     1
102
RTVSPropertyOp16
 70
     1
102
RTVSPropertyOp17
 70
     1
102
RTVSPropertyOp18
 70
     1
102
RTVSPropertyOp19
 70
     1
102
RTVSPropertyOp20
 70
     1
102
RTVSPropertyOp21
 70
     1
102
RTVSPropertyOp22
 70
     1
102
RTVSPropertyOp23
 70
     1
102
RTVSPropertyOp24
 70
     1
102
RTVSPropertyOp25
 70
     1
102
RTVSPropertyOp26
 70
     1
102
RTVSPropertyOp27
 70
     1
  0
XRECORD
  5
3895
102
{ACAD_REACTORS
330
3894
102
}
330
3894
100
AcDbXrecord
280
     1
102
RTVSPropertyOp0
 70
     0
102
RTVSPropertyOp1
 70
     0
102
RTVSPropertyOp2
 70
     0
102
RTVSPropertyOp3
 70
     0
102
RTVSPropertyOp4
 70
     0
102
RTVSPropertyOp5
 70
     0
102
RTVSPropertyOp6
 70
     0
102
RTVSPropertyOp7
 70
     0
102
RTVSPropertyOp8
 70
     0
102
RTVSPropertyOp9
 70
     0
102
RTVSPropertyOp10
 70
     0
102
RTVSPropertyOp11
 70
     0
102
RTVSPropertyOp12
 70
     0
102
RTVSPropertyOp13
 70
     0
102
RTVSPropertyOp14
 70
     2
102
RTVSPropertyOp15
 70
     0
102
RTVSPropertyOp16
 70
     0
102
RTVSPropertyOp17
 70
     0
102
RTVSPropertyOp18
 70
     0
102
RTVSPropertyOp19
 70
     0
102
RTVSPropertyOp20
 70
     0
102
RTVSPropertyOp21
 70
     0
102
RTVSPropertyOp22
 70
     0
102
RTVSPropertyOp23
 70
     0
102
RTVSPropertyOp24
 70
     0
102
RTVSPropertyOp25
 70
     0
102
RTVSPropertyOp26
 70
     0
102
RTVSPropertyOp27
 70
     0
  0
XRECORD
  5
388D
102
{ACAD_REACTORS
330
388C
102
}
330
388C
100
AcDbXrecord
280
     1
102
RTVSPropertyOp0
 70
     1
102
RTVSPropertyOp1
 70
     1
102
RTVSPropertyOp2
 70
     1
102
RTVSPropertyOp3
 70
     1
102
RTVSPropertyOp4
 70
     1
102
RTVSPropertyOp5
 70
     1
102
RTVSPropertyOp6
 70
     1
102
RTVSPropertyOp7
 70
     1
102
RTVSPropertyOp8
 70
     1
102
RTVSPropertyOp9
 70
     1
102
RTVSPropertyOp10
 70
     1
102
RTVSPropertyOp11
 70
     1
102
RTVSPropertyOp12
 70
     1
102
RTVSPropertyOp13
 70
     1
102
RTVSPropertyOp14
 70
     1
102
RTVSPropertyOp15
 70
     1
102
RTVSPropertyOp16
 70
     1
102
RTVSPropertyOp17
 70
     1
102
RTVSPropertyOp18
 70
     1
102
RTVSPropertyOp19
 70
     1
102
RTVSPropertyOp20
 70
     1
102
RTVSPropertyOp21
 70
     1
102
RTVSPropertyOp22
 70
     1
102
RTVSPropertyOp23
 70
     1
102
RTVSPropertyOp24
 70
     1
102
RTVSPropertyOp25
 70
     1
102
RTVSPropertyOp26
 70
     1
102
RTVSPropertyOp27
 70
     1
  0
XRECORD
  5
3871
102
{ACAD_REACTORS
330
3870
102
}
330
3870
100
AcDbXrecord
280
     1
102
RTVSPropertyOp0
 70
     1
102
RTVSPropertyOp1
 70
     1
102
RTVSPropertyOp2
 70
     1
102
RTVSPropertyOp3
 70
     1
102
RTVSPropertyOp4
 70
     1
102
RTVSPropertyOp5
 70
     1
102
RTVSPropertyOp6
 70
     1
102
RTVSPropertyOp7
 70
     1
102
RTVSPropertyOp8
 70
     1
102
RTVSPropertyOp9
 70
     1
102
RTVSPropertyOp10
 70
     1
102
RTVSPropertyOp11
 70
     1
102
RTVSPropertyOp12
 70
     1
102
RTVSPropertyOp13
 70
     1
102
RTVSPropertyOp14
 70
     1
102
RTVSPropertyOp15
 70
     1
102
RTVSPropertyOp16
 70
     1
102
RTVSPropertyOp17
 70
     1
102
RTVSPropertyOp18
 70
     1
102
RTVSPropertyOp19
 70
     1
102
RTVSPropertyOp20
 70
     1
102
RTVSPropertyOp21
 70
     1
102
RTVSPropertyOp22
 70
     1
102
RTVSPropertyOp23
 70
     1
102
RTVSPropertyOp24
 70
     1
102
RTVSPropertyOp25
 70
     1
102
RTVSPropertyOp26
 70
     1
102
RTVSPropertyOp27
 70
     1
  0
XRECORD
  5
3873
102
{ACAD_REACTORS
330
3872
102
}
330
3872
100
AcDbXrecord
280
     1
102
RTVSPropertyOp0
 70
     1
102
RTVSPropertyOp1
 70
     1
102
RTVSPropertyOp2
 70
     1
102
RTVSPropertyOp3
 70
     1
102
RTVSPropertyOp4
 70
     1
102
RTVSPropertyOp5
 70
     1
102
RTVSPropertyOp6
 70
     1
102
RTVSPropertyOp7
 70
     1
102
RTVSPropertyOp8
 70
     1
102
RTVSPropertyOp9
 70
     1
102
RTVSPropertyOp10
 70
     1
102
RTVSPropertyOp11
 70
     1
102
RTVSPropertyOp12
 70
     1
102
RTVSPropertyOp13
 70
     1
102
RTVSPropertyOp14
 70
     1
102
RTVSPropertyOp15
 70
     1
102
RTVSPropertyOp16
 70
     1
102
RTVSPropertyOp17
 70
     1
102
RTVSPropertyOp18
 70
     1
102
RTVSPropertyOp19
 70
     1
102
RTVSPropertyOp20
 70
     1
102
RTVSPropertyOp21
 70
     1
102
RTVSPropertyOp22
 70
     1
102
RTVSPropertyOp23
 70
     1
102
RTVSPropertyOp24
 70
     1
102
RTVSPropertyOp25
 70
     1
102
RTVSPropertyOp26
 70
     1
102
RTVSPropertyOp27
 70
     1
  0
XRECORD
  5
3875
102
{ACAD_REACTORS
330
3874
102
}
330
3874
100
AcDbXrecord
280
     1
102
RTVSPropertyOp0
 70
     1
102
RTVSPropertyOp1
 70
     1
102
RTVSPropertyOp2
 70
     1
102
RTVSPropertyOp3
 70
     1
102
RTVSPropertyOp4
 70
     1
102
RTVSPropertyOp5
 70
     1
102
RTVSPropertyOp6
 70
     1
102
RTVSPropertyOp7
 70
     1
102
RTVSPropertyOp8
 70
     1
102
RTVSPropertyOp9
 70
     1
102
RTVSPropertyOp10
 70
     1
102
RTVSPropertyOp11
 70
     1
102
RTVSPropertyOp12
 70
     1
102
RTVSPropertyOp13
 70
     1
102
RTVSPropertyOp14
 70
     1
102
RTVSPropertyOp15
 70
     1
102
RTVSPropertyOp16
 70
     1
102
RTVSPropertyOp17
 70
     1
102
RTVSPropertyOp18
 70
     1
102
RTVSPropertyOp19
 70
     1
102
RTVSPropertyOp20
 70
     1
102
RTVSPropertyOp21
 70
     1
102
RTVSPropertyOp22
 70
     1
102
RTVSPropertyOp23
 70
     1
102
RTVSPropertyOp24
 70
     1
102
RTVSPropertyOp25
 70
     1
102
RTVSPropertyOp26
 70
     1
102
RTVSPropertyOp27
 70
     1
  0
XRECORD
  5
3877
102
{ACAD_REACTORS
330
3876
102
}
330
3876
100
AcDbXrecord
280
     1
102
RTVSPropertyOp0
 70
     1
102
RTVSPropertyOp1
 70
     1
102
RTVSPropertyOp2
 70
     1
102
RTVSPropertyOp3
 70
     1
102
RTVSPropertyOp4
 70
     1
102
RTVSPropertyOp5
 70
     1
102
RTVSPropertyOp6
 70
     1
102
RTVSPropertyOp7
 70
     1
102
RTVSPropertyOp8
 70
     1
102
RTVSPropertyOp9
 70
     1
102
RTVSPropertyOp10
 70
     1
102
RTVSPropertyOp11
 70
     1
102
RTVSPropertyOp12
 70
     1
102
RTVSPropertyOp13
 70
     1
102
RTVSPropertyOp14
 70
     1
102
RTVSPropertyOp15
 70
     1
102
RTVSPropertyOp16
 70
     1
102
RTVSPropertyOp17
 70
     1
102
RTVSPropertyOp18
 70
     1
102
RTVSPropertyOp19
 70
     1
102
RTVSPropertyOp20
 70
     1
102
RTVSPropertyOp21
 70
     1
102
RTVSPropertyOp22
 70
     1
102
RTVSPropertyOp23
 70
     1
102
RTVSPropertyOp24
 70
     1
102
RTVSPropertyOp25
 70
     1
102
RTVSPropertyOp26
 70
     1
102
RTVSPropertyOp27
 70
     1
  0
XRECORD
  5
3891
102
{ACAD_REACTORS
330
3890
102
}
330
3890
100
AcDbXrecord
280
     1
102
RTVSPropertyOp0
 70
     0
102
RTVSPropertyOp1
 70
     0
102
RTVSPropertyOp2
 70
     0
102
RTVSPropertyOp3
 70
     0
102
RTVSPropertyOp4
 70
     0
102
RTVSPropertyOp5
 70
     0
102
RTVSPropertyOp6
 70
     0
102
RTVSPropertyOp7
 70
     0
102
RTVSPropertyOp8
 70
     0
102
RTVSPropertyOp9
 70
     0
102
RTVSPropertyOp10
 70
     0
102
RTVSPropertyOp11
 70
     0
102
RTVSPropertyOp12
 70
     0
102
RTVSPropertyOp13
 70
     0
102
RTVSPropertyOp14
 70
     2
102
RTVSPropertyOp15
 70
     0
102
RTVSPropertyOp16
 70
     0
102
RTVSPropertyOp17
 70
     0
102
RTVSPropertyOp18
 70
     0
102
RTVSPropertyOp19
 70
     0
102
RTVSPropertyOp20
 70
     0
102
RTVSPropertyOp21
 70
     0
102
RTVSPropertyOp22
 70
     0
102
RTVSPropertyOp23
 70
     0
102
RTVSPropertyOp24
 70
     0
102
RTVSPropertyOp25
 70
     0
102
RTVSPropertyOp26
 70
     0
102
RTVSPropertyOp27
 70
     0
  0
XRECORD
  5
388B
102
{ACAD_REACTORS
330
388A
102
}
330
388A
100
AcDbXrecord
280
     1
102
RTVSPropertyOp0
 70
     1
102
RTVSPropertyOp1
 70
     1
102
RTVSPropertyOp2
 70
     1
102
RTVSPropertyOp3
 70
     1
102
RTVSPropertyOp4
 70
     1
102
RTVSPropertyOp5
 70
     1
102
RTVSPropertyOp6
 70
     1
102
RTVSPropertyOp7
 70
     1
102
RTVSPropertyOp8
 70
     1
102
RTVSPropertyOp9
 70
     1
102
RTVSPropertyOp10
 70
     1
102
RTVSPropertyOp11
 70
     1
102
RTVSPropertyOp12
 70
     1
102
RTVSPropertyOp13
 70
     1
102
RTVSPropertyOp14
 70
     1
102
RTVSPropertyOp15
 70
     1
102
RTVSPropertyOp16
 70
     1
102
RTVSPropertyOp17
 70
     1
102
RTVSPropertyOp18
 70
     1
102
RTVSPropertyOp19
 70
     1
102
RTVSPropertyOp20
 70
     1
102
RTVSPropertyOp21
 70
     1
102
RTVSPropertyOp22
 70
     1
102
RTVSPropertyOp23
 70
     1
102
RTVSPropertyOp24
 70
     1
102
RTVSPropertyOp25
 70
     1
102
RTVSPropertyOp26
 70
     1
102
RTVSPropertyOp27
 70
     1
  0
XRECORD
  5
3893
102
{ACAD_REACTORS
330
3892
102
}
330
3892
100
AcDbXrecord
280
     1
102
RTVSPropertyOp0
 70
     0
102
RTVSPropertyOp1
 70
     0
102
RTVSPropertyOp2
 70
     0
102
RTVSPropertyOp3
 70
     0
102
RTVSPropertyOp4
 70
     0
102
RTVSPropertyOp5
 70
     0
102
RTVSPropertyOp6
 70
     0
102
RTVSPropertyOp7
 70
     0
102
RTVSPropertyOp8
 70
     0
102
RTVSPropertyOp9
 70
     0
102
RTVSPropertyOp10
 70
     0
102
RTVSPropertyOp11
 70
     0
102
RTVSPropertyOp12
 70
     0
102
RTVSPropertyOp13
 70
     0
102
RTVSPropertyOp14
 70
     2
102
RTVSPropertyOp15
 70
     0
102
RTVSPropertyOp16
 70
     0
102
RTVSPropertyOp17
 70
     0
102
RTVSPropertyOp18
 70
     0
102
RTVSPropertyOp19
 70
     0
102
RTVSPropertyOp20
 70
     0
102
RTVSPropertyOp21
 70
     0
102
RTVSPropertyOp22
 70
     0
102
RTVSPropertyOp23
 70
     0
102
RTVSPropertyOp24
 70
     0
102
RTVSPropertyOp25
 70
     0
102
RTVSPropertyOp26
 70
     0
102
RTVSPropertyOp27
 70
     0
  0
XRECORD
  5
3883
102
{ACAD_REACTORS
330
3882
102
}
330
3882
100
AcDbXrecord
280
     1
102
RTVSPropertyOp0
 70
     1
102
RTVSPropertyOp1
 70
     1
102
RTVSPropertyOp2
 70
     1
102
RTVSPropertyOp3
 70
     1
102
RTVSPropertyOp4
 70
     1
102
RTVSPropertyOp5
 70
     1
102
RTVSPropertyOp6
 70
     1
102
RTVSPropertyOp7
 70
     1
102
RTVSPropertyOp8
 70
     1
102
RTVSPropertyOp9
 70
     1
102
RTVSPropertyOp10
 70
     1
102
RTVSPropertyOp11
 70
     1
102
RTVSPropertyOp12
 70
     1
102
RTVSPropertyOp13
 70
     1
102
RTVSPropertyOp14
 70
     1
102
RTVSPropertyOp15
 70
     1
102
RTVSPropertyOp16
 70
     1
102
RTVSPropertyOp17
 70
     1
102
RTVSPropertyOp18
 70
     1
102
RTVSPropertyOp19
 70
     1
102
RTVSPropertyOp20
 70
     1
102
RTVSPropertyOp21
 70
     1
102
RTVSPropertyOp22
 70
     1
102
RTVSPropertyOp23
 70
     1
102
RTVSPropertyOp24
 70
     1
102
RTVSPropertyOp25
 70
     1
102
RTVSPropertyOp26
 70
     1
102
RTVSPropertyOp27
 70
     1
  0
XRECORD
  5
3889
102
{ACAD_REACTORS
330
3888
102
}
330
3888
100
AcDbXrecord
280
     1
102
RTVSPropertyOp0
 70
     1
102
RTVSPropertyOp1
 70
     1
102
RTVSPropertyOp2
 70
     1
102
RTVSPropertyOp3
 70
     1
102
RTVSPropertyOp4
 70
     1
102
RTVSPropertyOp5
 70
     1
102
RTVSPropertyOp6
 70
     1
102
RTVSPropertyOp7
 70
     1
102
RTVSPropertyOp8
 70
     1
102
RTVSPropertyOp9
 70
     1
102
RTVSPropertyOp10
 70
     1
102
RTVSPropertyOp11
 70
     1
102
RTVSPropertyOp12
 70
     1
102
RTVSPropertyOp13
 70
     1
102
RTVSPropertyOp14
 70
     1
102
RTVSPropertyOp15
 70
     1
102
RTVSPropertyOp16
 70
     1
102
RTVSPropertyOp17
 70
     1
102
RTVSPropertyOp18
 70
     1
102
RTVSPropertyOp19
 70
     1
102
RTVSPropertyOp20
 70
     1
102
RTVSPropertyOp21
 70
     1
102
RTVSPropertyOp22
 70
     1
102
RTVSPropertyOp23
 70
     1
102
RTVSPropertyOp24
 70
     1
102
RTVSPropertyOp25
 70
     1
102
RTVSPropertyOp26
 70
     1
102
RTVSPropertyOp27
 70
     1
  0
PH_GROUP
  5
A4B
102
{ACAD_REACTORS
330
68A
102
}
330
68A
  0
DICTIONARY
  5
15D4
102
{ACAD_REACTORS
330
15D3
102
}
330
15D3
100
AcDbDictionary
280
     1
281
     1
  3
$PH$AAAA
360
15D5
  3
PH_GRPMEMBERS
360
15D7
  0
DICTIONARY
  5
15D8
102
{ACAD_REACTORS
330
15D3
102
}
330
15D3
100
AcDbDictionary
280
     1
281
     1
  3
$PH$AAAA
360
15D9
  3
PH_GRPMEMBERS
360
15E1
  0
PH_GROUP
  5
15E2
102
{ACAD_REACTORS
330
15D3
102
}
330
15D3
  0
DICTIONARY
  5
15D5
102
{ACAD_REACTORS
330
15D4
102
}
330
15D4
100
AcDbDictionary
280
     1
281
     1
  3
PH_GRPMEMBERS
360
15D6
  0
PH_GROUP
  5
15D7
102
{ACAD_REACTORS
330
15D4
102
}
330
15D4
  0
DICTIONARY
  5
15D9
102
{ACAD_REACTORS
330
15D8
102
}
330
15D8
100
AcDbDictionary
280
     1
281
     1
  3
$PH$AAAA
360
15DA
  3
PH_GRPMEMBERS
360
15E0
  0
PH_GROUP
  5
15E1
102
{ACAD_REACTORS
330
15D8
102
}
330
15D8
  0
PH_GROUP
  5
15D6
102
{ACAD_REACTORS
330
15D5
102
}
330
15D5
  0
DICTIONARY
  5
15DA
102
{ACAD_REACTORS
330
15D9
102
}
330
15D9
100
AcDbDictionary
280
     1
281
     1
  3
$PH$AAAABOP1
360
15DB
  3
PH_GRPMEMBERS
360
15DF
  0
PH_GROUP
  5
15E0
102
{ACAD_REACTORS
330
15D9
102
}
330
15D9
  0
DICTIONARY
  5
15DB
102
{ACAD_REACTORS
330
15DA
102
}
330
15DA
100
AcDbDictionary
280
     1
281
     1
  3
$PH$AAAA
360
15DC
  3
PH_GRPMEMBERS
360
15DE
  0
PH_GROUP
  5
15DF
102
{ACAD_REACTORS
330
15DA
102
}
330
15DA
  0
DICTIONARY
  5
15DC
102
{ACAD_REACTORS
330
15DB
102
}
330
15DB
100
AcDbDictionary
280
     1
281
     1
  3
PH_GRPMEMBERS
360
15DD
  0
PH_GROUP
  5
15DE
102
{ACAD_REACTORS
330
15DB
102
}
330
15DB
  0
PH_GROUP
  5
15DD
102
{ACAD_REACTORS
330
15DC
102
}
330
15DC
  0
ENDSEC
  0
EOF
