  0
SECTION
  2
HEADER
  9
$ACADVER
  1
AC1015
  9
$ACADMAINTVER
 70
    20
  9
$DWGCODEPAGE
  3
ANSI_1252
  9
$INSBASE
 10
0.0
 20
0.0
 30
0.0
  9
$EXTMIN
 10
0.9788832200911201
 20
0.9805307641864828
 30
-0.0000000349181948
  9
$EXTMAX
 10
593.0211195459369
 20
419.019471191591
 30
0.0000000814935746
  9
$LIMMIN
 10
0.0
 20
0.0
  9
$LIMMAX
 10
594.0
 20
420.0
  9
$ORTHOMODE
 70
     1
  9
$REGENMODE
 70
     1
  9
$FILLMODE
 70
     1
  9
$QTEXTMODE
 70
     0
  9
$MIRRTEXT
 70
     1
  9
$LTSCALE
 40
0.4
  9
$ATTMODE
 70
     1
  9
$TEXTSIZE
 40
2.5
  9
$TRACEWID
 40
1.0
  9
$TEXTSTYLE
  7
STANDARD
  9
$CLAYER
  8
0
  9
$CELTYPE
  6
CONTINUOUS
  9
$CECOLOR
 62
     7
  9
$CELTSCALE
 40
1.0
  9
$DISPSILH
 70
     0
  9
$DIMSCALE
 40
1.0
  9
$DIMASZ
 40
3.72
  9
$DIMEXO
 40
0.0
  9
$DIMDLI
 40
7.0
  9
$DIMRND
 40
0.0
  9
$DIMDLE
 40
0.0
  9
$DIMEXE
 40
1.5
  9
$DIMTP
 40
0.0
  9
$DIMTM
 40
0.0
  9
$DIMTXT
 40
2.5
  9
$DIMCEN
 40
0.0
  9
$DIMTSZ
 40
0.0
  9
$DIMTOL
 70
     0
  9
$DIMLIM
 70
     0
  9
$DIMTIH
 70
     0
  9
$DIMTOH
 70
     0
  9
$DIMSE1
 70
     0
  9
$DIMSE2
 70
     0
  9
$DIMTAD
 70
     1
  9
$DIMZIN
 70
     8
  9
$DIMBLK
  1

  9
$DIMASO
 70
     1
  9
$DIMSHO
 70
     1
  9
$DIMPOST
  1

  9
$DIMAPOST
  1
"
  9
$DIMALT
 70
     0
  9
$DIMALTD
 70
     2
  9
$DIMALTF
 40
0.0393700787401575
  9
$DIMLFAC
 40
1.0
  9
$DIMTOFL
 70
     1
  9
$DIMTVP
 40
0.0
  9
$DIMTIX
 70
     0
  9
$DIMSOXD
 70
     0
  9
$DIMSAH
 70
     1
  9
$DIMBLK1
  1
_OPEN15
  9
$DIMBLK2
  1
_OPEN15
  9
$DIMSTYLE
  2
PHOENIX
  9
$DIMCLRD
 70
     1
  9
$DIMCLRE
 70
     1
  9
$DIMCLRT
 70
     5
  9
$DIMTFAC
 40
0.6666666666666666
  9
$DIMGAP
 40
1.0
  9
$DIMJUST
 70
     0
  9
$DIMSD1
 70
     0
  9
$DIMSD2
 70
     0
  9
$DIMTOLJ
 70
     1
  9
$DIMTZIN
 70
     8
  9
$DIMALTZ
 70
     0
  9
$DIMALTTZ
 70
     0
  9
$DIMUPT
 70
     1
  9
$DIMDEC
 70
     6
  9
$DIMTDEC
 70
     6
  9
$DIMALTU
 70
     2
  9
$DIMALTTD
 70
     2
  9
$DIMTXSTY
  7
STANDARD
  9
$DIMAUNIT
 70
     0
  9
$DIMADEC
 70
     0
  9
$DIMALTRND
 40
0.0
  9
$DIMAZIN
 70
     0
  9
$DIMDSEP
 70
    46
  9
$DIMATFIT
 70
     0
  9
$DIMFRAC
 70
     0
  9
$DIMLDRBLK
  1

  9
$DIMLUNIT
 70
     2
  9
$DIMLWD
 70
    -2
  9
$DIMLWE
 70
    -2
  9
$DIMTMOVE
 70
     0
  9
$LUNITS
 70
     2
  9
$LUPREC
 70
     4
  9
$SKETCHINC
 40
1.0
  9
$FILLETRAD
 40
0.0
  9
$AUNITS
 70
     0
  9
$AUPREC
 70
     0
  9
$MENU
  1
.
  9
$ELEVATION
 40
0.0
  9
$PELEVATION
 40
0.0
  9
$THICKNESS
 40
0.0
  9
$LIMCHECK
 70
     0
  9
$CHAMFERA
 40
10.0
  9
$CHAMFERB
 40
10.0
  9
$CHAMFERC
 40
0.0
  9
$CHAMFERD
 40
0.0
  9
$SKPOLY
 70
     0
  9
$TDCREATE
 40
2450973.369189259
  9
$TDUCREATE
 40
2450973.285855926
  9
$TDUPDATE
 40
2456897.564312361
  9
$TDUUPDATE
 40
2456897.480979028
  9
$TDINDWG
 40
0.0092294213
  9
$TDUSRTIMER
 40
0.0092294213
  9
$USRTIMER
 70
     1
  9
$ANGBASE
 50
0.0
  9
$ANGDIR
 70
     0
  9
$PDMODE
 70
    35
  9
$PDSIZE
 40
-2.0
  9
$PLINEWID
 40
0.0
  9
$SPLFRAME
 70
     0
  9
$SPLINETYPE
 70
     6
  9
$SPLINESEGS
 70
     8
  9
$HANDSEED
  5
F36
  9
$SURFTAB1
 70
     6
  9
$SURFTAB2
 70
     6
  9
$SURFTYPE
 70
     6
  9
$SURFU
 70
     6
  9
$SURFV
 70
     6
  9
$UCSBASE
  2

  9
$UCSNAME
  2

  9
$UCSORG
 10
0.0
 20
0.0
 30
0.0
  9
$UCSXDIR
 10
1.0
 20
0.0
 30
0.0
  9
$UCSYDIR
 10
0.0
 20
1.0
 30
0.0
  9
$UCSORTHOREF
  2

  9
$UCSORTHOVIEW
 70
     0
  9
$UCSORGTOP
 10
0.0
 20
0.0
 30
0.0
  9
$UCSORGBOTTOM
 10
0.0
 20
0.0
 30
0.0
  9
$UCSORGLEFT
 10
0.0
 20
0.0
 30
0.0
  9
$UCSORGRIGHT
 10
0.0
 20
0.0
 30
0.0
  9
$UCSORGFRONT
 10
0.0
 20
0.0
 30
0.0
  9
$UCSORGBACK
 10
0.0
 20
0.0
 30
0.0
  9
$PUCSBASE
  2

  9
$PUCSNAME
  2

  9
$PUCSORG
 10
0.0
 20
0.0
 30
0.0
  9
$PUCSXDIR
 10
1.0
 20
0.0
 30
0.0
  9
$PUCSYDIR
 10
0.0
 20
1.0
 30
0.0
  9
$PUCSORTHOREF
  2

  9
$PUCSORTHOVIEW
 70
     0
  9
$PUCSORGTOP
 10
0.0
 20
0.0
 30
0.0
  9
$PUCSORGBOTTOM
 10
0.0
 20
0.0
 30
0.0
  9
$PUCSORGLEFT
 10
0.0
 20
0.0
 30
0.0
  9
$PUCSORGRIGHT
 10
0.0
 20
0.0
 30
0.0
  9
$PUCSORGFRONT
 10
0.0
 20
0.0
 30
0.0
  9
$PUCSORGBACK
 10
0.0
 20
0.0
 30
0.0
  9
$USERI1
 70
     0
  9
$USERI2
 70
     0
  9
$USERI3
 70
     0
  9
$USERI4
 70
     0
  9
$USERI5
 70
     0
  9
$USERR1
 40
0.0
  9
$USERR2
 40
0.0
  9
$USERR3
 40
0.0
  9
$USERR4
 40
0.0
  9
$USERR5
 40
0.0
  9
$WORLDVIEW
 70
     1
  9
$SHADEDGE
 70
     3
  9
$SHADEDIF
 70
    70
  9
$TILEMODE
 70
     1
  9
$MAXACTVP
 70
    16
  9
$PINSBASE
 10
0.0
 20
0.0
 30
0.0
  9
$PLIMCHECK
 70
     0
  9
$PEXTMIN
 10
1.000000000000000E+20
 20
1.000000000000000E+20
 30
1.000000000000000E+20
  9
$PEXTMAX
 10
-1.000000000000000E+20
 20
-1.000000000000000E+20
 30
-1.000000000000000E+20
  9
$PLIMMIN
 10
0.0
 20
0.0
  9
$PLIMMAX
 10
420.0
 20
297.0
  9
$UNITMODE
 70
     0
  9
$VISRETAIN
 70
     0
  9
$PLINEGEN
 70
     0
  9
$PSLTSCALE
 70
     1
  9
$TREEDEPTH
 70
  3020
  9
$CMLSTYLE
  2
STANDARD
  9
$CMLJUST
 70
     0
  9
$CMLSCALE
 40
1.0
  9
$PROXYGRAPHICS
 70
     1
  9
$MEASUREMENT
 70
     0
  9
$CELWEIGHT
370
    -1
  9
$ENDCAPS
280
     0
  9
$JOINSTYLE
280
     0
  9
$LWDISPLAY
290
     0
  9
$INSUNITS
 70
     0
  9
$HYPERLINKBASE
  1

  9
$STYLESHEET
  1
HP_SW.ctb
  9
$XEDIT
290
     1
  9
$CEPSNTYPE
380
     0
  9
$PSTYLEMODE
290
     1
  9
$FINGERPRINTGUID
  2
{1A06A605-2012-4014-9715-80595F3A049D}
  9
$VERSIONGUID
  2
{453895BB-1F92-4100-A566-9D53F2D70ADE}
  9
$EXTNAMES
290
     1
  9
$PSVPSCALE
 40
0.0
  9
$OLESTARTUP
290
     0
  0
ENDSEC
  0
SECTION
  2
CLASSES
  0
CLASS
  1
PH_VARS
  2
PhoenixVars
  3
PHOENIX7010
 90
        0
280
     0
281
     0
  0
CLASS
  1
ACMESCOPE
  2
AcMeScope
  3
ACME_MODULE_NAME
 90
        0
280
     0
281
     0
  0
CLASS
  1
ACMECOMMANDHISTORY
  2
AcMeCommandHistory
  3
ACME_MODULE_NAME
 90
        0
280
     0
281
     0
  0
CLASS
  1
AcRfInsAdjusterMgr
  2
AcRfInsAdjusterMgr
  3
ACME_MODULE_NAME
 90
    32768
280
     0
281
     0
  0
CLASS
  1
ACGREFMASTER
  2
AcGrefMaster
  3
"AcadRfServer"
 90
        0
280
     0
281
     0
  0
CLASS
  1
AmiMaster
  2
AmiMaster
  3
"AmiServices"
 90
        0
280
     0
281
     0
  0
CLASS
  1
ACASGREFMASTER
  2
AcAsGrefMaster
  3
"AutoSurfResolver"
 90
        0
280
     0
281
     0
  0
CLASS
  1
ADAPPL
  2
AcAdAppl
  3
DesignerServices
 90
        0
280
     0
281
     0
  0
CLASS
  1
DEPMGR
  2
AcAdDepMgr
  3
DesignerServices
 90
        0
280
     0
281
     0
  0
CLASS
  1
PARAMMGR
  2
AcAdParamMgr
  3
DesignerServices
 90
        0
280
     0
281
     0
  0
CLASS
  1
PARAMSCOPE
  2
AcAdParamScope
  3
DesignerServices
 90
        0
280
     0
281
     0
  0
CLASS
  1
"IM_SYSVAR_MAN"
  2
AcImSysVarManager
  3
"ADAM"
 90
        0
280
     0
281
     0
  0
CLASS
  1
SYSTEM_VAR_INT
  2
AcImIntSysVar
  3
"ADAM"
 90
        0
280
     0
281
     0
  0
CLASS
  1
SYSTEM_VAR_REAL
  2
AcImRealSysVar
  3
"ADAM"
 90
        0
280
     0
281
     0
  0
CLASS
  1
SYSTEM_VAR_STR
  2
AcImStrSysVar
  3
"ADAM"
 90
        0
280
     0
281
     0
  0
CLASS
  1
NAMEDAPPL
  2
AcAdNamedAppl
  3
DesignerServices
 90
        0
280
     0
281
     0
  0
CLASS
  1
ADPART
  2
AcAdPart
  3
DesignerServices
 90
    32768
280
     0
281
     1
  0
CLASS
  1
ADBASE
  2
AcAdBase
  3
DesignerServices
 90
        0
280
     0
281
     0
  0
CLASS
  1
BODYID
  2
AcAdBodyId
  3
DesignerServices
 90
        0
280
     0
281
     0
  0
CLASS
  1
WORKPLANEDISPLAYMGR
  2
AcAdDisplayMgr
  3
DesignerServices
 90
        0
280
     0
281
     0
  0
CLASS
  1
ADHNTMPLT
  2
AdHoleNoteTemplateMgr
  3
DesignerServices
 90
        0
280
     0
281
     0
  0
CLASS
  1
AM_HNTEMPLATE_MGR_NAME
  2
AdHoleNoteTemplateMgrName
  3
DesignerServices
 90
        0
280
     0
281
     0
  0
CLASS
  1
AcAdGrefModule
  2
AcAdGrefModule
  3
AD_GREF_SERVICES_NSTR
 90
        0
280
     0
281
     0
  0
CLASS
  1
AM_DRAWING_MGR
  2
AcDmDwgMgr
  3
AcMechDwgViewMgmt
 90
        0
280
     0
281
     0
  0
CLASS
  1
AM_DWG_DOCUMENT
  2
AcDmDwgDocument
  3
AcMechDwgViewMgmt
 90
        0
280
     0
281
     0
  0
CLASS
  1
AM_DWG_SHEET
  2
AcDmSheet
  3
AcMechDwgViewMgmt
 90
        0
280
     0
281
     0
  0
CLASS
  1
AM_VIEWDIMPARMAP
  2
AcDmViewDimParMap
  3
AcMechDwgViewMgmt
 90
        0
280
     0
281
     0
  0
CLASS
  1
AM_DWGMGR_NAME
  2
AcDmDwgMgrName
  3
AcMechDwgViewMgmt
 90
        0
280
     0
281
     0
  0
CLASS
  1
ACAMPROJECT
  2
AcAmProject
  3
DesignerAssemblies
 90
        0
280
     0
281
     0
  0
CLASS
  1
ACAMGRCOMPSET
  2
AcAmGrCompSet
  3
DesignerAssemblies
 90
    32768
280
     0
281
     0
  0
CLASS
  1
ACAMGRCOMPDEFSET
  2
AcAmGrCompDefSet
  3
DesignerAssemblies
 90
    32768
280
     0
281
     0
  0
CLASS
  1
ACAMGRCOMPDEF
  2
AcAmGrCompDef
  3
DesignerAssemblies
 90
        0
280
     0
281
     0
  0
CLASS
  1
ACAMCOMPDEF
  2
AcAmCompDef
  3
DesignerAssemblies
 90
        0
280
     0
281
     0
  0
CLASS
  1
ACAMCOMPDEFMGR
  2
AcAmCompDefMgr
  3
DesignerAssemblies
 90
        0
280
     0
281
     0
  0
CLASS
  1
AMCONTEXTMGR
  2
AcAmContextMgr
  3
DesignerAssemblies
 90
        0
280
     0
281
     0
  0
CLASS
  1
ACAMCONTEXTMODELER
  2
AcAmContextModeler
  3
DesignerAssemblies
 90
        0
280
     0
281
     0
  0
CLASS
  1
ACAMDRAWINGMAN
  2
AcAmDrawingMan
  3
DesignerAssemblies
 90
        0
280
     0
281
     0
  0
CLASS
  1
ACDMVIEWGEOM
  2
AcDmViewGeometry
  3
AcMechDwgViewMgmt
 90
    32768
280
     0
281
     1
  0
CLASS
  1
ASSYSVARS
  2
AcAsSysVars
  3
"AutoSurf"
 90
        0
280
     0
281
     0
  0
CLASS
  1
ASSTATICVARS
  2
AcAsStaticVars
  3
"AutoSurf"
 90
    32768
280
     0
281
     0
  0
CLASS
  1
ASAPP
  2
AcAsAppObject
  3
"AutoSurf"
 90
        0
280
     0
281
     0
  0
CLASS
  1
AGDICTIONARY
  2
AgDictionary
  3
"AccelView"
 90
        0
280
     0
281
     0
  0
CLASS
  1
PH_ENTDIMREACTOR
  2
EntDimReactor
  3
PHOENIX7010
 90
        0
280
     0
281
     0
  0
CLASS
  1
PH_DIMENTREACTOR
  2
DimEntReactor
  3
PHOENIX7010
 90
        0
280
     0
281
     0
  0
CLASS
  1
PH_GROUP
  2
PhGroup
  3
PHOENIX7010
 90
        0
280
     0
281
     0
  0
CLASS
  1
ACDBDICTIONARYWDFLT
  2
AcDbDictionaryWithDefault
  3
ObjectDBX Classes
 90
        0
280
     0
281
     0
  0
CLASS
  1
MATERIAL
  2
AcDbMaterial
  3
ObjectDBX Classes
 90
     1153
280
     0
281
     0
  0
CLASS
  1
VISUALSTYLE
  2
AcDbVisualStyle
  3
ObjectDBX Classes
 90
     4095
280
     0
281
     0
  0
CLASS
  1
TABLESTYLE
  2
AcDbTableStyle
  3
ObjectDBX Classes
 90
     4095
280
     0
281
     0
  0
CLASS
  1
SCALE
  2
AcDbScale
  3
ObjectDBX Classes
 90
     1153
280
     0
281
     0
  0
CLASS
  1
MLEADERSTYLE
  2
AcDbMLeaderStyle
  3
ACDB_MLEADERSTYLE_CLASS
 90
     4095
280
     0
281
     0
  0
CLASS
  1
DICTIONARYVAR
  2
AcDbDictionaryVar
  3
ObjectDBX Classes
 90
        0
280
     0
281
     0
  0
CLASS
  1
SORTENTSTABLE
  2
AcDbSortentsTable
  3
ObjectDBX Classes
 90
    32768
280
     0
281
     0
  0
CLASS
  1
AEC_REFEDIT_STATUS_TRACKER
  2
AecDbRefEditStatusTracker
  3
AecArchBase60|Product Desc: Autodesk Architectural Desktop 2007 |Company: Autodesk,Inc. |WEB Address: www.autodesk.com
 90
    32897
280
     0
281
     0
  0
CLASS
  1
NPOCOLLECTION
  2
AcDbImpNonPersistentObjectsCollection
  3
ObjectDBX Classes
 90
    33921
280
     0
281
     0
  0
CLASS
  1
CELLSTYLEMAP
  2
AcDbCellStyleMap
  3
ObjectDBX Classes
 90
     1152
280
     0
281
     0
  0
CLASS
  1
ACDBPLACEHOLDER
  2
AcDbPlaceHolder
  3
ObjectDBX Classes
 90
        0
280
     0
281
     0
  0
CLASS
  1
LAYOUT
  2
AcDbLayout
  3
ObjectDBX Classes
 90
        0
280
     0
281
     0
  0
ENDSEC
  0
SECTION
  2
TABLES
  0
TABLE
  2
VPORT
  5
8
330
0
100
AcDbSymbolTable
 70
     1
  0
VPORT
  5
DAB
330
8
100
AcDbSymbolTableRecord
100
AcDbViewportTableRecord
  2
*ACTIVE
 70
     0
 10
0.0
 20
0.0
 11
1.0
 21
1.0
 12
297.000001383014
 22
210.0000009778888
 13
0.0
 23
0.0
 14
10.0
 24
10.0
 15
10.0
 25
10.0
 16
0.0
 26
0.0
 36
1.0
 17
0.0
 27
0.0
 37
0.0
 40
421.0371723117124
 41
1.909415971394517
 42
50.0
 43
0.0
 44
0.0
 50
0.0
 51
0.0
 71
     0
 72
   800
 73
     1
 74
     3
 75
     0
 76
     0
 77
     0
 78
     0
281
     0
 65
     1
110
0.0
120
0.0
130
0.0
111
1.0
121
0.0
131
0.0
112
0.0
122
1.0
132
0.0
 79
     0
146
0.0
  0
ENDTAB
  0
TABLE
  2
LTYPE
  5
5
330
0
100
AcDbSymbolTable
 70
    10
  0
LTYPE
  5
14
330
5
100
AcDbSymbolTableRecord
100
AcDbLinetypeTableRecord
  2
BYBLOCK
 70
     0
  3

 72
    65
 73
     0
 40
0.0
  0
LTYPE
  5
15
330
5
100
AcDbSymbolTableRecord
100
AcDbLinetypeTableRecord
  2
BYLAYER
 70
     0
  3

 72
    65
 73
     0
 40
0.0
  0
LTYPE
  5
16
330
5
100
AcDbSymbolTableRecord
100
AcDbLinetypeTableRecord
  2
CONTINUOUS
 70
     0
  3
Solid line
 72
    65
 73
     0
 40
0.0
  0
LTYPE
  5
A8
330
5
100
AcDbSymbolTableRecord
100
AcDbLinetypeTableRecord
  2
PHANTOM2
 70
     0
  3
___ _ _ ___ _ _ ___ _ _ ___ _ _ ___ _ _ ___ _ _
 72
    65
 73
     6
 40
1.25
 49
0.625
 74
     0
 49
-0.125
 74
     0
 49
0.125
 74
     0
 49
-0.125
 74
     0
 49
0.125
 74
     0
 49
-0.125
 74
     0
  0
LTYPE
  5
D5
330
5
100
AcDbSymbolTableRecord
100
AcDbLinetypeTableRecord
  2
ASULTYPE
 70
     0
  3
Ausgezogene Linie
 72
    65
 73
     2
 40
3.0
 49
2.5
 74
     0
 49
0.5
 74
     0
  0
LTYPE
  5
D6
330
5
100
AcDbSymbolTableRecord
100
AcDbLinetypeTableRecord
  2
ASVLTYPE
 70
     0
  3
__ __ __ __ __ __ __ __ __ __ __ __ __ __ __ __ __ __ __ __ __
 72
    65
 73
     2
 40
0.75
 49
0.5
 74
     0
 49
-0.25
 74
     0
  0
LTYPE
  5
D8
330
5
100
AcDbSymbolTableRecord
100
AcDbLinetypeTableRecord
  2
VERDECKT
 70
     0
  3
__ __ __ __ __ __ __ __ __ __ __ __ __ __ __ __
 72
    65
 73
     2
 40
0.375
 49
0.25
 74
     0
 49
-0.125
 74
     0
  0
LTYPE
  5
D9
330
5
100
AcDbSymbolTableRecord
100
AcDbLinetypeTableRecord
  2
MITTE
 70
     0
  3
____ _ ____ _ ____ _ ____ _ ____ _ ____ _ ____ 
 72
    65
 73
     4
 40
2.0
 49
1.25
 74
     0
 49
-0.25
 74
     0
 49
0.25
 74
     0
 49
-0.25
 74
     0
  0
LTYPE
  5
684
330
5
100
AcDbSymbolTableRecord
100
AcDbLinetypeTableRecord
  2
ACAD_ISO02W100
 70
     0
  3
__ __ __ __ __ __ __ __ __ __ __ __ __ __ __ __
 72
    65
 73
     2
 40
15.0
 49
12.0
 74
     0
 49
-3.0
 74
     0
  0
LTYPE
  5
685
330
5
100
AcDbSymbolTableRecord
100
AcDbLinetypeTableRecord
  2
ACAD_ISO04W100
 70
     0
  3
____ . ____ . ____ . ____ . ____ . ____ . ____ 
 72
    65
 73
     4
 40
30.5
 49
24.0
 74
     0
 49
-3.0
 74
     0
 49
0.5
 74
     0
 49
-3.0
 74
     0
  0
LTYPE
  5
686
330
5
100
AcDbSymbolTableRecord
100
AcDbLinetypeTableRecord
  2
ACAD_ISO05W100
 70
     0
  3
____ .. ____ .. ____ .. ____ .. ____ .. ____ ..
 72
    65
 73
     6
 40
34.0
 49
24.0
 74
     0
 49
-3.0
 74
     0
 49
0.5
 74
     0
 49
-3.0
 74
     0
 49
0.5
 74
     0
 49
-3.0
 74
     0
  0
LTYPE
  5
687
330
5
100
AcDbSymbolTableRecord
100
AcDbLinetypeTableRecord
  2
ACAD_ISO07W100
 70
     0
  3
. . . . . . . . . . . . . . . . . . . . . . . .
 72
    65
 73
     2
 40
3.5
 49
0.5
 74
     0
 49
-3.0
 74
     0
  0
ENDTAB
  0
TABLE
  2
LAYER
  5
2
102
{ACAD_XDICTIONARY
360
E22
102
}
330
0
100
AcDbSymbolTable
 70
    15
  0
LAYER
  5
F
102
{ACAD_XDICTIONARY
360
E90
102
}
330
2
100
AcDbSymbolTableRecord
100
AcDbLayerTableRecord
  2
0
 70
     0
 62
     7
  6
CONTINUOUS
370
    -3
390
DAE
  0
LAYER
  5
44
102
{ACAD_XDICTIONARY
360
E92
102
}
330
2
100
AcDbSymbolTableRecord
100
AcDbLayerTableRecord
  2
4
 70
     0
 62
     7
  6
CONTINUOUS
370
    -3
390
DAE
  0
LAYER
  5
48
102
{ACAD_XDICTIONARY
360
E94
102
}
330
2
100
AcDbSymbolTableRecord
100
AcDbLayerTableRecord
  2
2
 70
     0
 62
     7
  6
CONTINUOUS
370
    -3
390
DAE
  0
LAYER
  5
4A
102
{ACAD_XDICTIONARY
360
E96
102
}
330
2
100
AcDbSymbolTableRecord
100
AcDbLayerTableRecord
  2
3
 70
     0
 62
     7
  6
CONTINUOUS
370
    -3
390
DAE
  0
LAYER
  5
B6
102
{ACAD_XDICTIONARY
360
E98
102
}
330
2
100
AcDbSymbolTableRecord
100
AcDbLayerTableRecord
  2
AM_VIEWS
 70
     0
 62
    -7
  6
CONTINUOUS
370
    -3
390
DAE
  0
LAYER
  5
B7
102
{ACAD_XDICTIONARY
360
E9A
102
}
330
2
100
AcDbSymbolTableRecord
100
AcDbLayerTableRecord
  2
AM_PARDIM
 70
     0
 62
     3
  6
CONTINUOUS
370
    -3
390
DAE
  0
LAYER
  5
B8
102
{ACAD_XDICTIONARY
360
E9C
102
}
330
2
100
AcDbSymbolTableRecord
100
AcDbLayerTableRecord
  2
AM_REFDIM
 70
     0
 62
     4
  6
CONTINUOUS
370
    -3
390
DAE
  0
LAYER
  5
B9
102
{ACAD_XDICTIONARY
360
E9E
102
}
330
2
100
AcDbSymbolTableRecord
100
AcDbLayerTableRecord
  2
AM_VIS
 70
     0
 62
     7
  6
CONTINUOUS
370
    -3
390
DAE
  0
LAYER
  5
BA
102
{ACAD_XDICTIONARY
360
EA0
102
}
330
2
100
AcDbSymbolTableRecord
100
AcDbLayerTableRecord
  2
AM_HID
 70
     0
 62
     7
  6
VERDECKT
370
    -3
390
DAE
  0
LAYER
  5
CB
102
{ACAD_XDICTIONARY
360
EA2
102
}
330
2
100
AcDbSymbolTableRecord
100
AcDbLayerTableRecord
  2
AM_TR
 70
     0
 62
     7
  6
CONTINUOUS
370
    -3
390
DAE
  0
LAYER
  5
CC
102
{ACAD_XDICTIONARY
360
EA4
102
}
330
2
100
AcDbSymbolTableRecord
100
AcDbLayerTableRecord
  2
AM_BM
 70
     0
 62
     7
  6
CONTINUOUS
370
    -3
390
DAE
  0
LAYER
  5
CD
102
{ACAD_XDICTIONARY
360
EA6
102
}
330
2
100
AcDbSymbolTableRecord
100
AcDbLayerTableRecord
  2
AM_BL
 70
     0
 62
     7
  6
CONTINUOUS
370
    -3
390
DAE
  0
LAYER
  5
EB
330
2
100
AcDbSymbolTableRecord
100
AcDbLayerTableRecord
  2
DEFPOINTS
 70
     0
 62
     7
  6
CONTINUOUS
290
     0
370
    -3
390
DAE
  0
LAYER
  5
68A
102
{ACAD_XDICTIONARY
360
EA8
102
}
330
2
100
AcDbSymbolTableRecord
100
AcDbLayerTableRecord
  2
1
 70
     0
 62
     7
  6
CONTINUOUS
370
    -3
390
DAE
  0
LAYER
  5
E21
102
{ACAD_XDICTIONARY
360
EAA
102
}
330
2
100
AcDbSymbolTableRecord
100
AcDbLayerTableRecord
  2
PH_HILFSELEMENTE
 70
     0
 62
    -7
  6
CONTINUOUS
370
    -3
390
DAE
  0
ENDTAB
  0
TABLE
  2
STYLE
  5
3
330
0
100
AcDbSymbolTable
 70
     2
  0
STYLE
  5
10
330
3
100
AcDbSymbolTableRecord
100
AcDbTextStyleTableRecord
  2
STANDARD
 70
     0
 40
0.0
 41
1.199999999999999
 50
0.0
 71
     0
 42
2.5
  3
ISOCP.shx
  4

  0
ENDTAB
  0
TABLE
  2
VIEW
  5
6
330
0
100
AcDbSymbolTable
 70
     0
  0
ENDTAB
  0
TABLE
  2
UCS
  5
7
330
0
100
AcDbSymbolTable
 70
     0
  0
ENDTAB
  0
TABLE
  2
APPID
  5
9
330
0
100
AcDbSymbolTable
 70
    10
  0
APPID
  5
11
330
9
100
AcDbSymbolTableRecord
100
AcDbRegAppTableRecord
  2
ACAD
 70
     0
  0
APPID
  5
32
330
9
100
AcDbSymbolTableRecord
100
AcDbRegAppTableRecord
  2
PHOENIX7010
 70
     0
  0
APPID
  5
B5
330
9
100
AcDbSymbolTableRecord
100
AcDbRegAppTableRecord
  2
AD_DRAW
 70
     0
  0
APPID
  5
CF
330
9
100
AcDbSymbolTableRecord
100
AcDbRegAppTableRecord
  2
DESIGNERASSEMBLIES
 70
     0
  0
APPID
  5
D1
330
9
100
AcDbSymbolTableRecord
100
AcDbRegAppTableRecord
  2
MCAD_NO_VIS
 70
     0
  0
APPID
  5
D7
330
9
100
AcDbSymbolTableRecord
100
AcDbRegAppTableRecord
  2
ASURF_PCURVE_APPNAME
 70
     0
  0
APPID
  5
E8C
330
9
100
AcDbSymbolTableRecord
100
AcDbRegAppTableRecord
  2
AcadAnnoPO
 70
     0
  0
APPID
  5
E8E
330
9
100
AcDbSymbolTableRecord
100
AcDbRegAppTableRecord
  2
ACAD_EXEMPT_FROM_CAD_STANDARDS
 70
     0
  0
APPID
  5
EC0
330
9
100
AcDbSymbolTableRecord
100
AcDbRegAppTableRecord
  2
ACAD_PSEXT
 70
     0
  0
APPID
  5
F32
330
9
100
AcDbSymbolTableRecord
100
AcDbRegAppTableRecord
  2
ACAD_MLEADERVER
 70
     0
  0
ENDTAB
  0
TABLE
  2
DIMSTYLE
  5
A
330
0
100
AcDbSymbolTable
 70
    11
100
AcDbDimStyleTable
 71
     1
340
33
  0
DIMSTYLE
105
1D
330
A
100
AcDbSymbolTableRecord
100
AcDbDimStyleTableRecord
  2
STANDARD
 70
     0
340
10
  0
DIMSTYLE
105
24
330
A
100
AcDbSymbolTableRecord
100
AcDbDimStyleTableRecord
  2
ISO-25
 70
     0
 41
2.5
 42
0.625
 43
3.75
 44
1.25
 74
     0
 77
     1
 78
     8
140
2.5
141
2.5
143
0.0394
145
1.0
147
0.625
172
     1
340
10
  0
DIMSTYLE
105
25
330
A
100
AcDbSymbolTableRecord
100
AcDbDimStyleTableRecord
  2
ISO-35
 70
     0
 41
3.5
 42
0.875
 43
5.25
 44
1.75
 74
     0
 77
     1
 78
     8
140
3.5
141
3.5
143
0.0394
145
1.399999999999999
147
0.875
172
     1
340
10
  0
DIMSTYLE
105
26
330
A
100
AcDbSymbolTableRecord
100
AcDbDimStyleTableRecord
  2
ISO-5
 70
     0
 41
5.0
 42
1.25
 43
7.5
 44
2.5
 74
     0
 77
     1
 78
     8
140
5.0
141
5.0
143
0.0394
145
2.0
147
1.25
172
     1
340
10
  0
DIMSTYLE
105
27
330
A
100
AcDbSymbolTableRecord
100
AcDbDimStyleTableRecord
  2
ISO-7
 70
     0
 41
7.0
 42
1.75
 43
10.5
 44
3.5
 74
     0
 77
     1
 78
     8
140
7.0
141
7.0
143
0.0394
145
2.799999999999999
147
1.75
172
     1
340
10
  0
DIMSTYLE
105
28
330
A
100
AcDbSymbolTableRecord
100
AcDbDimStyleTableRecord
  2
ISO1
 70
     0
 41
10.0
 42
2.5
 43
15.0
 44
5.0
 74
     0
 77
     1
 78
     8
140
10.0
141
10.0
143
0.0394
145
4.0
147
2.5
172
     1
340
10
  0
DIMSTYLE
105
29
330
A
100
AcDbSymbolTableRecord
100
AcDbDimStyleTableRecord
  2
ISO1-4
 70
     0
 41
14.0
 42
3.5
 43
21.0
 44
7.0
 74
     0
 77
     1
 78
     8
140
14.0
141
14.0
143
0.0394
145
5.599999999999999
147
3.5
172
     1
340
10
  0
DIMSTYLE
105
2A
330
A
100
AcDbSymbolTableRecord
100
AcDbDimStyleTableRecord
  2
ISO2
 70
     0
 41
20.0
 42
5.0
 43
30.0
 44
10.0
 74
     0
 77
     1
 78
     8
140
20.0
141
20.0
143
0.0394
145
8.0
147
5.0
172
     1
340
10
  0
DIMSTYLE
105
33
102
{ACAD_REACTORS
330
7B0
330
7CA
330
7E4
330
852
330
86C
330
8C7
330
8E5
330
901
330
91B
330
99C
330
9B6
102
}
330
A
100
AcDbSymbolTableRecord
100
AcDbDimStyleTableRecord
  2
PHOENIX
 70
     0
  4
"
 41
3.72
 42
0.0
 43
7.0
 44
1.5
 73
     0
 74
     0
 77
     1
 78
     8
140
3.5
141
0.0
143
0.0393700787401575
146
0.6666666666666666
147
2.0
172
     1
173
     1
176
     1
177
     1
178
     5
271
     2
272
     2
284
     8
288
     1
289
     0
340
10
341
35
343
35
344
35
  0
DIMSTYLE
105
34
330
A
100
AcDbSymbolTableRecord
100
AcDbDimStyleTableRecord
  2
PHOENIX$4
 70
     0
  4
"
 41
3.72
 42
0.0
 43
7.0
 44
1.5
 73
     0
 74
     0
 77
     1
 78
     8
140
3.5
141
0.0
143
0.0393700787401575
146
0.6666666666666666
147
2.0
173
     1
176
     1
177
     1
178
     5
271
     2
272
     2
281
     1
284
     8
288
     1
289
     0
340
10
341
35
343
35
344
35
  0
ENDTAB
  0
TABLE
  2
BLOCK_RECORD
  5
1
330
0
100
AcDbSymbolTable
 70
    24
  0
BLOCK_RECORD
  5
1A
330
1
100
AcDbSymbolTableRecord
100
AcDbBlockTableRecord
  2
*MODEL_SPACE
340
E05
  0
BLOCK_RECORD
  5
17
330
1
100
AcDbSymbolTableRecord
100
AcDbBlockTableRecord
  2
*PAPER_SPACE
340
E06
  0
BLOCK_RECORD
  5
35
330
1
100
AcDbSymbolTableRecord
100
AcDbBlockTableRecord
  2
_OPEN15
340
0
102
{BLKREFS
331
9F2
331
9F3
331
A00
331
A01
331
A0E
331
A0F
331
A1C
331
A1D
331
881
331
882
331
BA8
331
BA9
331
8FA
331
8FB
331
A38
331
A39
331
A48
331
A49
331
A56
331
A57
331
B8B
331
B8C
102
}
  0
BLOCK_RECORD
  5
C3
330
1
100
AcDbSymbolTableRecord
100
AcDbBlockTableRecord
  2
*U1
340
0
  0
BLOCK_RECORD
  5
7B1
330
1
100
AcDbSymbolTableRecord
100
AcDbBlockTableRecord
  2
*D2
340
0
  0
BLOCK_RECORD
  5
7CB
330
1
100
AcDbSymbolTableRecord
100
AcDbBlockTableRecord
  2
*D3
340
0
  0
BLOCK_RECORD
  5
7E5
330
1
100
AcDbSymbolTableRecord
100
AcDbBlockTableRecord
  2
*D4
340
0
  0
BLOCK_RECORD
  5
853
330
1
100
AcDbSymbolTableRecord
100
AcDbBlockTableRecord
  2
*D5
340
0
  0
BLOCK_RECORD
  5
86D
330
1
100
AcDbSymbolTableRecord
100
AcDbBlockTableRecord
  2
*D6
340
0
  0
BLOCK_RECORD
  5
8C8
330
1
100
AcDbSymbolTableRecord
100
AcDbBlockTableRecord
  2
*D7
340
0
  0
BLOCK_RECORD
  5
8E6
330
1
100
AcDbSymbolTableRecord
100
AcDbBlockTableRecord
  2
*D8
340
0
  0
BLOCK_RECORD
  5
902
330
1
100
AcDbSymbolTableRecord
100
AcDbBlockTableRecord
  2
*D9
340
0
  0
BLOCK_RECORD
  5
91C
330
1
100
AcDbSymbolTableRecord
100
AcDbBlockTableRecord
  2
*D10
340
0
  0
BLOCK_RECORD
  5
99D
330
1
100
AcDbSymbolTableRecord
100
AcDbBlockTableRecord
  2
*D11
340
0
  0
BLOCK_RECORD
  5
9B7
330
1
100
AcDbSymbolTableRecord
100
AcDbBlockTableRecord
  2
*D12
340
0
  0
BLOCK_RECORD
  5
B2C
330
1
100
AcDbSymbolTableRecord
100
AcDbBlockTableRecord
  2
*X13
340
0
102
{BLKREFS
331
B2E
102
}
  0
BLOCK_RECORD
  5
B4F
330
1
100
AcDbSymbolTableRecord
100
AcDbBlockTableRecord
  2
*X14
340
0
102
{BLKREFS
331
B51
102
}
  0
BLOCK_RECORD
  5
E09
330
1
100
AcDbSymbolTableRecord
100
AcDbBlockTableRecord
  2
PH_GRPBLK
340
0
102
{BLKREFS
331
E1D
331
E39
331
E3C
331
E74
102
}
  0
ENDTAB
  0
ENDSEC
  0
SECTION
  2
BLOCKS
  0
BLOCK
  5
1B
330
1A
100
AcDbEntity
  8
0
100
AcDbBlockBegin
  2
*MODEL_SPACE
 70
     0
 10
0.0
 20
0.0
 30
0.0
  3
*MODEL_SPACE
  1

  0
ENDBLK
  5
1C
330
1A
100
AcDbEntity
  8
0
100
AcDbBlockEnd
  0
BLOCK
  5
18
330
17
100
AcDbEntity
 67
     1
  8
0
100
AcDbBlockBegin
  2
*PAPER_SPACE
 70
     0
 10
0.0
 20
0.0
 30
0.0
  3
*PAPER_SPACE
  1

  0
ENDBLK
  5
19
330
17
100
AcDbEntity
 67
     1
  8
0
100
AcDbBlockEnd
  0
BLOCK
  5
39
330
35
100
AcDbEntity
  8
0
 62
     7
100
AcDbBlockBegin
  2
_OPEN15
 70
     0
 10
1.0
 20
0.0
 30
0.0
  3
_OPEN15
  1

  0
LINE
  5
36
330
35
100
AcDbEntity
  8
0
  6
ByBlock
 62
     0
100
AcDbLine
 10
0.0
 20
0.0
 30
0.0
 11
1.0
 21
0.0
 31
0.0
  0
LINE
  5
37
330
35
100
AcDbEntity
  8
0
  6
ByBlock
 62
     0
100
AcDbLine
 10
1.0
 20
0.0
 30
0.0
 11
0.0
 21
0.1316524975873958
 31
0.0
  0
LINE
  5
38
330
35
100
AcDbEntity
  8
0
  6
ByBlock
 62
     0
100
AcDbLine
 10
1.0
 20
0.0
 30
0.0
 11
0.0
 21
-0.1316524975873958
 31
0.0
  0
ENDBLK
  5
3A
330
35
100
AcDbEntity
  8
0
 62
     7
100
AcDbBlockEnd
  0
BLOCK
  5
C4
330
C3
100
AcDbEntity
  8
0
 62
     7
100
AcDbBlockBegin
  2
*U1
 70
     1
 10
0.0
 20
0.0
 30
0.0
  3
*U1
  1

  0
ENDBLK
  5
C5
330
C3
100
AcDbEntity
  8
0
 62
     7
100
AcDbBlockEnd
  0
BLOCK
  5
9EE
330
7B1
100
AcDbEntity
  8
0
100
AcDbBlockBegin
  2
*D2
 70
     1
 10
0.0
 20
0.0
 30
0.0
  3
*D2
  1

  0
LINE
  5
9EF
330
7B1
100
AcDbEntity
  8
0
  6
ByBlock
 62
     1
100
AcDbLine
 10
462.763870026706
 20
188.8768277114725
 30
0.0
 11
462.763870026706
 21
167.3768277114721
 31
0.0
  0
LINE
  5
9F0
330
7B1
100
AcDbEntity
  8
0
  6
ByBlock
 62
     1
100
AcDbLine
 10
487.7638700267062
 20
186.4268277114724
 30
0.0
 11
487.7638700267062
 21
167.3768277114721
 31
0.0
  0
LINE
  5
9F1
330
7B1
100
AcDbEntity
  8
0
  6
ByBlock
 62
     1
100
AcDbLine
 10
466.483870026706
 20
168.8768277114721
 30
0.0
 11
484.0438700267061
 21
168.8768277114721
 31
0.0
  0
INSERT
  5
9F2
330
7B1
100
AcDbEntity
  8
0
  6
ByBlock
 62
     1
100
AcDbBlockReference
  2
_OPEN15
 10
462.763870026706
 20
168.8768277114721
 30
0.0
 41
3.72
 42
3.72
 43
3.72
 50
180.0
  0
INSERT
  5
9F3
330
7B1
100
AcDbEntity
  8
0
  6
ByBlock
 62
     1
100
AcDbBlockReference
  2
_OPEN15
 10
487.7638700267062
 20
168.8768277114721
 30
0.0
 41
3.72
 42
3.72
 43
3.72
  0
MTEXT
  5
9F4
330
7B1
100
AcDbEntity
  8
0
  6
ByBlock
 62
     5
100
AcDbMText
 10
475.2499694528101
 20
173.6268277114721
 30
0.0
 40
7.0
 41
0.0
 71
     5
 72
     5
  1
\A1;25
 73
     1
 44
1.0
1001
ACAD
1000
MTEXTBEGIN
1070
    73
1070
     1
1070
    44
1040
1.0
1070
    74
1070
     0
1000
MTEXTEND
  0
POINT
  5
9F5
330
7B1
100
AcDbEntity
  8
DEFPOINTS
  6
ByBlock
 62
     0
100
AcDbPoint
 10
462.763870026706
 20
188.8768277114725
 30
0.0
  0
POINT
  5
9F6
330
7B1
100
AcDbEntity
  8
DEFPOINTS
  6
ByBlock
 62
     0
100
AcDbPoint
 10
487.7638700267062
 20
186.4268277114724
 30
0.0
  0
POINT
  5
9F7
330
7B1
100
AcDbEntity
  8
DEFPOINTS
  6
ByBlock
 62
     0
100
AcDbPoint
 10
487.7638700267062
 20
168.8768277114721
 30
0.0
  0
ENDBLK
  5
9F8
330
7B1
100
AcDbEntity
  8
0
100
AcDbBlockEnd
  0
BLOCK
  5
9FC
330
7CB
100
AcDbEntity
  8
0
100
AcDbBlockBegin
  2
*D3
 70
     1
 10
0.0
 20
0.0
 30
0.0
  3
*D3
  1

  0
LINE
  5
9FD
330
7CB
100
AcDbEntity
  8
0
  6
ByBlock
 62
     1
100
AcDbLine
 10
424.763870026706
 20
188.8768277114725
 30
0.0
 11
424.763870026706
 21
167.3768277114721
 31
0.0
  0
LINE
  5
9FE
330
7CB
100
AcDbEntity
  8
0
  6
ByBlock
 62
     1
100
AcDbLine
 10
462.763870026706
 20
188.8768277114725
 30
0.0
 11
462.763870026706
 21
167.3768277114721
 31
0.0
  0
LINE
  5
9FF
330
7CB
100
AcDbEntity
  8
0
  6
ByBlock
 62
     1
100
AcDbLine
 10
428.483870026706
 20
168.8768277114721
 30
0.0
 11
459.043870026706
 21
168.8768277114721
 31
0.0
  0
INSERT
  5
A00
330
7CB
100
AcDbEntity
  8
0
  6
ByBlock
 62
     1
100
AcDbBlockReference
  2
_OPEN15
 10
424.763870026706
 20
168.8768277114721
 30
0.0
 41
3.72
 42
3.72
 43
3.72
 50
180.0
  0
INSERT
  5
A01
330
7CB
100
AcDbEntity
  8
0
  6
ByBlock
 62
     1
100
AcDbBlockReference
  2
_OPEN15
 10
462.763870026706
 20
168.8768277114721
 30
0.0
 41
3.72
 42
3.72
 43
3.72
  0
MTEXT
  5
A02
330
7CB
100
AcDbEntity
  8
0
  6
ByBlock
 62
     5
100
AcDbMText
 10
444.1716177073076
 20
173.6268277114721
 30
0.0
 40
7.0
 41
0.0
 71
     5
 72
     5
  1
\A1;38
 73
     1
 44
1.0
1001
ACAD
1000
MTEXTBEGIN
1070
    73
1070
     1
1070
    44
1040
1.0
1070
    74
1070
     0
1000
MTEXTEND
  0
POINT
  5
A03
330
7CB
100
AcDbEntity
  8
DEFPOINTS
  6
ByBlock
 62
     0
100
AcDbPoint
 10
424.763870026706
 20
188.8768277114725
 30
0.0
  0
POINT
  5
A04
330
7CB
100
AcDbEntity
  8
DEFPOINTS
  6
ByBlock
 62
     0
100
AcDbPoint
 10
462.763870026706
 20
188.8768277114725
 30
0.0
  0
POINT
  5
A05
330
7CB
100
AcDbEntity
  8
DEFPOINTS
  6
ByBlock
 62
     0
100
AcDbPoint
 10
462.763870026706
 20
168.8768277114721
 30
0.0
  0
ENDBLK
  5
A06
330
7CB
100
AcDbEntity
  8
0
100
AcDbBlockEnd
  0
BLOCK
  5
A0A
330
7E5
100
AcDbEntity
  8
0
100
AcDbBlockBegin
  2
*D4
 70
     1
 10
0.0
 20
0.0
 30
0.0
  3
*D4
  1

  0
LINE
  5
A0B
330
7E5
100
AcDbEntity
  8
0
  6
ByBlock
 62
     1
100
AcDbLine
 10
436.763870026706
 20
186.2768277114725
 30
0.0
 11
436.763870026706
 21
155.3768277114721
 31
0.0
  0
LINE
  5
A0C
330
7E5
100
AcDbEntity
  8
0
  6
ByBlock
 62
     1
100
AcDbLine
 10
487.7638700267062
 20
186.4268277114724
 30
0.0
 11
487.7638700267062
 21
155.3768277114721
 31
0.0
  0
LINE
  5
A0D
330
7E5
100
AcDbEntity
  8
0
  6
ByBlock
 62
     1
100
AcDbLine
 10
440.4838700267061
 20
156.8768277114721
 30
0.0
 11
484.0438700267061
 21
156.8768277114721
 31
0.0
  0
INSERT
  5
A0E
330
7E5
100
AcDbEntity
  8
0
  6
ByBlock
 62
     1
100
AcDbBlockReference
  2
_OPEN15
 10
436.763870026706
 20
156.8768277114721
 30
0.0
 41
3.72
 42
3.72
 43
3.72
 50
180.0
  0
INSERT
  5
A0F
330
7E5
100
AcDbEntity
  8
0
  6
ByBlock
 62
     1
100
AcDbBlockReference
  2
_OPEN15
 10
487.7638700267062
 20
156.8768277114721
 30
0.0
 41
3.72
 42
3.72
 43
3.72
  0
MTEXT
  5
A10
330
7E5
100
AcDbEntity
  8
0
  6
ByBlock
 62
     5
100
AcDbMText
 10
464.0880262202704
 20
161.6268277114721
 30
0.0
 40
7.0
 41
0.0
 71
     5
 72
     5
  1
\A1;51
 73
     1
 44
1.0
1001
ACAD
1000
MTEXTBEGIN
1070
    73
1070
     1
1070
    44
1040
1.0
1070
    74
1070
     0
1000
MTEXTEND
  0
POINT
  5
A11
330
7E5
100
AcDbEntity
  8
DEFPOINTS
  6
ByBlock
 62
     0
100
AcDbPoint
 10
436.763870026706
 20
186.2768277114725
 30
0.0
  0
POINT
  5
A12
330
7E5
100
AcDbEntity
  8
DEFPOINTS
  6
ByBlock
 62
     0
100
AcDbPoint
 10
487.7638700267062
 20
186.4268277114724
 30
0.0
  0
POINT
  5
A13
330
7E5
100
AcDbEntity
  8
DEFPOINTS
  6
ByBlock
 62
     0
100
AcDbPoint
 10
487.7638700267062
 20
156.8768277114721
 30
0.0
  0
ENDBLK
  5
A14
330
7E5
100
AcDbEntity
  8
0
100
AcDbBlockEnd
  0
BLOCK
  5
A18
330
853
100
AcDbEntity
  8
0
100
AcDbBlockBegin
  2
*D5
 70
     1
 10
0.0
 20
0.0
 30
0.0
  3
*D5
  1

  0
LINE
  5
A19
330
853
100
AcDbEntity
  8
0
  6
ByBlock
 62
     1
100
AcDbLine
 10
331.3690048296588
 20
290.8768277114729
 30
0.0
 11
353.1690048296592
 21
290.8768277114729
 31
0.0
  0
LINE
  5
A1A
330
853
100
AcDbEntity
  8
0
  6
ByBlock
 62
     1
100
AcDbLine
 10
333.1690048296588
 20
321.8768277114727
 30
0.0
 11
353.1690048296592
 21
321.8768277114727
 31
0.0
  0
LINE
  5
A1B
330
853
100
AcDbEntity
  8
0
  6
ByBlock
 62
     1
100
AcDbLine
 10
351.6690048296592
 20
294.5968277114729
 30
0.0
 11
351.6690048296592
 21
318.1568277114727
 31
0.0
  0
INSERT
  5
A1C
330
853
100
AcDbEntity
  8
0
  6
ByBlock
 62
     1
100
AcDbBlockReference
  2
_OPEN15
 10
351.6690048296592
 20
290.8768277114729
 30
0.0
 41
3.72
 42
3.72
 43
3.72
 50
270.0
  0
INSERT
  5
A1D
330
853
100
AcDbEntity
  8
0
  6
ByBlock
 62
     1
100
AcDbBlockReference
  2
_OPEN15
 10
351.6690048296592
 20
321.8768277114727
 30
0.0
 41
3.72
 42
3.72
 43
3.72
 50
90.0
  0
MTEXT
  5
A1E
330
853
100
AcDbEntity
  8
0
  6
ByBlock
 62
     5
100
AcDbMText
 10
346.9190048296592
 20
307.7044555771981
 30
0.0
 40
7.0
 41
0.0
 71
     5
 72
     5
  1
\A1;31
 11
0.0
 21
1.0
 31
0.0
 73
     1
 44
1.0
1001
ACAD
1000
MTEXTBEGIN
1070
    73
1070
     1
1070
    44
1040
1.0
1070
    74
1070
     0
1000
MTEXTEND
  0
POINT
  5
A1F
330
853
100
AcDbEntity
  8
DEFPOINTS
  6
ByBlock
 62
     0
100
AcDbPoint
 10
331.3690048296588
 20
290.8768277114729
 30
0.0
  0
POINT
  5
A20
330
853
100
AcDbEntity
  8
DEFPOINTS
  6
ByBlock
 62
     0
100
AcDbPoint
 10
333.1690048296588
 20
321.8768277114727
 30
0.0
  0
POINT
  5
A21
330
853
100
AcDbEntity
  8
DEFPOINTS
  6
ByBlock
 62
     0
100
AcDbPoint
 10
351.6690048296592
 20
321.8768277114727
 30
0.0
  0
ENDBLK
  5
A22
330
853
100
AcDbEntity
  8
0
100
AcDbBlockEnd
  0
BLOCK
  5
87B
330
86D
100
AcDbEntity
  8
0
100
AcDbBlockBegin
  2
*D6
 70
     1
 10
0.0
 20
0.0
 30
0.0
  3
*D6
  1

  0
LINE
  5
87C
330
86D
100
AcDbEntity
  8
0
  6
ByBlock
 62
     1
100
AcDbLine
 10
152.4690048296588
 20
234.4341887826502
 30
0.0
 11
152.4690048296588
 21
225.365520172628
 31
0.0
  0
LINE
  5
87D
330
86D
100
AcDbEntity
  8
0
  6
ByBlock
 62
     1
100
AcDbLine
 10
156.0690048296588
 20
234.4341887826502
 30
0.0
 11
156.0690048296588
 21
225.365520172628
 31
0.0
  0
LINE
  5
87E
330
86D
100
AcDbEntity
  8
0
  6
ByBlock
 62
     1
100
AcDbLine
 10
159.7890048296588
 20
226.865520172628
 30
0.0
 11
163.5090048296588
 21
226.865520172628
 31
0.0
  0
LINE
  5
87F
330
86D
100
AcDbEntity
  8
0
  6
ByBlock
 62
     1
100
AcDbLine
 10
148.7490048296588
 20
226.865520172628
 30
0.0
 11
127.0315141480507
 21
226.865520172628
 31
0.0
  0
LINE
  5
880
330
86D
100
AcDbEntity
  8
0
  6
ByBlock
 62
     1
100
AcDbLine
 10
156.0690048296588
 20
226.865520172628
 30
0.0
 11
152.4690048296588
 21
226.865520172628
 31
0.0
  0
INSERT
  5
881
330
86D
100
AcDbEntity
  8
0
  6
ByBlock
 62
     1
100
AcDbBlockReference
  2
_OPEN15
 10
156.0690048296588
 20
226.865520172628
 30
0.0
 41
3.72
 42
3.72
 43
3.72
 50
180.0
  0
INSERT
  5
882
330
86D
100
AcDbEntity
  8
0
  6
ByBlock
 62
     1
100
AcDbBlockReference
  2
_OPEN15
 10
152.4690048296588
 20
226.865520172628
 30
0.0
 41
3.72
 42
3.72
 43
3.72
  0
MTEXT
  5
883
330
86D
100
AcDbEntity
  8
0
  6
ByBlock
 62
     5
100
AcDbMText
 10
136.2061204472633
 20
231.615520172628
 30
0.0
 40
7.0
 41
0.0
 71
     5
 72
     5
  1
\A1;3.6
 73
     1
 44
1.0
1001
ACAD
1000
MTEXTBEGIN
1070
    73
1070
     1
1070
    44
1040
1.0
1070
    74
1070
     0
1000
MTEXTEND
  0
POINT
  5
884
330
86D
100
AcDbEntity
  8
DEFPOINTS
  6
ByBlock
 62
     0
100
AcDbPoint
 10
152.4690048296588
 20
234.4341887826502
 30
0.0
  0
POINT
  5
885
330
86D
100
AcDbEntity
  8
DEFPOINTS
  6
ByBlock
 62
     0
100
AcDbPoint
 10
156.0690048296588
 20
234.4341887826502
 30
0.0
  0
POINT
  5
886
330
86D
100
AcDbEntity
  8
DEFPOINTS
  6
ByBlock
 62
     0
100
AcDbPoint
 10
156.0690048296588
 20
226.865520172628
 30
0.0
  0
ENDBLK
  5
887
330
86D
100
AcDbEntity
  8
0
100
AcDbBlockEnd
  0
BLOCK
  5
BA4
330
8C8
100
AcDbEntity
  8
0
100
AcDbBlockBegin
  2
*D7
 70
     1
 10
0.0
 20
0.0
 30
0.0
  3
*D7
  1

  0
LINE
  5
BA5
330
8C8
100
AcDbEntity
  8
0
  6
ByBlock
 62
     1
100
AcDbLine
 10
152.4690048296588
 20
187.3768277114727
 30
0.0
 11
152.4690048296588
 21
143.3768277114723
 31
0.0
  0
LINE
  5
BA6
330
8C8
100
AcDbEntity
  8
0
  6
ByBlock
 62
     1
100
AcDbLine
 10
336.6690048296586
 20
187.3768277114728
 30
0.0
 11
336.6690048296586
 21
143.3768277114723
 31
0.0
  0
LINE
  5
BA7
330
8C8
100
AcDbEntity
  8
0
  6
ByBlock
 62
     1
100
AcDbLine
 10
156.1890048296588
 20
144.8768277114723
 30
0.0
 11
332.9490048296587
 21
144.8768277114723
 31
0.0
  0
INSERT
  5
BA8
330
8C8
100
AcDbEntity
  8
0
  6
ByBlock
 62
     1
100
AcDbBlockReference
  2
_OPEN15
 10
152.4690048296588
 20
144.8768277114723
 30
0.0
 41
3.72
 42
3.72
 43
3.72
 50
180.0
  0
INSERT
  5
BA9
330
8C8
100
AcDbEntity
  8
0
  6
ByBlock
 62
     1
100
AcDbBlockReference
  2
_OPEN15
 10
336.6690048296586
 20
144.8768277114723
 30
0.0
 41
3.72
 42
3.72
 43
3.72
  0
MTEXT
  5
BAA
330
8C8
100
AcDbEntity
  8
0
  6
ByBlock
 62
     5
100
AcDbMText
 10
244.5690048296586
 20
149.6268277114723
 30
0.0
 40
7.0
 41
0.0
 71
     5
 72
     5
  1
\A1;L
 73
     1
 44
1.0
1001
ACAD
1000
MTEXTBEGIN
1070
    73
1070
     1
1070
    44
1040
1.0
1070
    74
1070
     0
1000
MTEXTEND
  0
POINT
  5
BAB
330
8C8
100
AcDbEntity
  8
DEFPOINTS
  6
ByBlock
 62
     0
100
AcDbPoint
 10
152.4690048296588
 20
187.3768277114727
 30
0.0
  0
POINT
  5
BAC
330
8C8
100
AcDbEntity
  8
DEFPOINTS
  6
ByBlock
 62
     0
100
AcDbPoint
 10
336.6690048296586
 20
187.3768277114728
 30
0.0
  0
POINT
  5
BAD
330
8C8
100
AcDbEntity
  8
DEFPOINTS
  6
ByBlock
 62
     0
100
AcDbPoint
 10
336.6690048296586
 20
144.8768277114723
 30
0.0
  0
ENDBLK
  5
BAE
330
8C8
100
AcDbEntity
  8
0
100
AcDbBlockEnd
  0
BLOCK
  5
8F4
330
8E6
100
AcDbEntity
  8
0
100
AcDbBlockBegin
  2
*D8
 70
     1
 10
0.0
 20
0.0
 30
0.0
  3
*D8
  1

  0
LINE
  5
8F5
330
8E6
100
AcDbEntity
  8
0
  6
ByBlock
 62
     1
100
AcDbLine
 10
291.1780477111171
 20
183.8768277114727
 30
0.0
 11
266.3798496359494
 21
183.8768277114727
 31
0.0
  0
LINE
  5
8F6
330
8E6
100
AcDbEntity
  8
0
  6
ByBlock
 62
     1
100
AcDbLine
 10
291.1780477111171
 20
187.4768277114727
 30
0.0
 11
266.3798496359494
 21
187.4768277114727
 31
0.0
  0
LINE
  5
8F7
330
8E6
100
AcDbEntity
  8
0
  6
ByBlock
 62
     1
100
AcDbLine
 10
267.8798496359494
 20
191.1968277114727
 30
0.0
 11
267.8798496359494
 21
194.9168277114727
 31
0.0
  0
LINE
  5
8F8
330
8E6
100
AcDbEntity
  8
0
  6
ByBlock
 62
     1
100
AcDbLine
 10
267.8798496359494
 20
180.1568277114727
 30
0.0
 11
267.8798496359494
 21
159.7022214122597
 31
0.0
  0
LINE
  5
8F9
330
8E6
100
AcDbEntity
  8
0
  6
ByBlock
 62
     1
100
AcDbLine
 10
267.8798496359494
 20
187.4768277114727
 30
0.0
 11
267.8798496359494
 21
183.8768277114727
 31
0.0
  0
INSERT
  5
8FA
330
8E6
100
AcDbEntity
  8
0
  6
ByBlock
 62
     1
100
AcDbBlockReference
  2
_OPEN15
 10
267.8798496359494
 20
187.4768277114727
 30
0.0
 41
3.72
 42
3.72
 43
3.72
 50
270.0
  0
INSERT
  5
8FB
330
8E6
100
AcDbEntity
  8
0
  6
ByBlock
 62
     1
100
AcDbBlockReference
  2
_OPEN15
 10
267.8798496359494
 20
183.8768277114727
 30
0.0
 41
3.72
 42
3.72
 43
3.72
 50
90.0
  0
MTEXT
  5
8FC
330
8E6
100
AcDbEntity
  8
0
  6
ByBlock
 62
     5
100
AcDbMText
 10
263.1298496359494
 20
168.8768277114723
 30
0.0
 40
7.0
 41
0.0
 71
     5
 72
     5
  1
\A1;3.6
 11
0.0
 21
1.0
 31
0.0
 73
     1
 44
1.0
1001
ACAD
1000
MTEXTBEGIN
1070
    73
1070
     1
1070
    44
1040
1.0
1070
    74
1070
     0
1000
MTEXTEND
  0
POINT
  5
8FD
330
8E6
100
AcDbEntity
  8
DEFPOINTS
  6
ByBlock
 62
     0
100
AcDbPoint
 10
291.1780477111171
 20
183.8768277114727
 30
0.0
  0
POINT
  5
8FE
330
8E6
100
AcDbEntity
  8
DEFPOINTS
  6
ByBlock
 62
     0
100
AcDbPoint
 10
291.1780477111171
 20
187.4768277114727
 30
0.0
  0
POINT
  5
8FF
330
8E6
100
AcDbEntity
  8
DEFPOINTS
  6
ByBlock
 62
     0
100
AcDbPoint
 10
267.8798496359494
 20
187.4768277114727
 30
0.0
  0
ENDBLK
  5
900
330
8E6
100
AcDbEntity
  8
0
100
AcDbBlockEnd
  0
BLOCK
  5
A34
330
902
100
AcDbEntity
  8
0
100
AcDbBlockBegin
  2
*D9
 70
     1
 10
0.0
 20
0.0
 30
0.0
  3
*D9
  1

  0
LINE
  5
A35
330
902
100
AcDbEntity
  8
0
  6
ByBlock
 62
     1
100
AcDbLine
 10
333.1690048296588
 20
183.8768277114727
 30
0.0
 11
377.1690048296592
 21
183.8768277114727
 31
0.0
  0
LINE
  5
A36
330
902
100
AcDbEntity
  8
0
  6
ByBlock
 62
     1
100
AcDbLine
 10
333.1690048296588
 20
321.8768277114727
 30
0.0
 11
377.1690048296592
 21
321.8768277114727
 31
0.0
  0
LINE
  5
A37
330
902
100
AcDbEntity
  8
0
  6
ByBlock
 62
     1
100
AcDbLine
 10
375.6690048296592
 20
187.5968277114727
 30
0.0
 11
375.6690048296592
 21
318.1568277114727
 31
0.0
  0
INSERT
  5
A38
330
902
100
AcDbEntity
  8
0
  6
ByBlock
 62
     1
100
AcDbBlockReference
  2
_OPEN15
 10
375.6690048296592
 20
183.8768277114727
 30
0.0
 41
3.72
 42
3.72
 43
3.72
 50
270.0
  0
INSERT
  5
A39
330
902
100
AcDbEntity
  8
0
  6
ByBlock
 62
     1
100
AcDbBlockReference
  2
_OPEN15
 10
375.6690048296592
 20
321.8768277114727
 30
0.0
 41
3.72
 42
3.72
 43
3.72
 50
90.0
  0
MTEXT
  5
A3A
330
902
100
AcDbEntity
  8
0
  6
ByBlock
 62
     5
100
AcDbMText
 10
370.9190048296592
 20
252.8768277114726
 30
0.0
 40
7.0
 41
0.0
 71
     5
 72
     5
  1
\A1;138
 11
0.0
 21
1.0
 31
0.0
 73
     1
 44
1.0
1001
ACAD
1000
MTEXTBEGIN
1070
    73
1070
     1
1070
    44
1040
1.0
1070
    74
1070
     0
1000
MTEXTEND
  0
POINT
  5
A3B
330
902
100
AcDbEntity
  8
DEFPOINTS
  6
ByBlock
 62
     0
100
AcDbPoint
 10
333.1690048296588
 20
183.8768277114727
 30
0.0
  0
POINT
  5
A3C
330
902
100
AcDbEntity
  8
DEFPOINTS
  6
ByBlock
 62
     0
100
AcDbPoint
 10
333.1690048296588
 20
321.8768277114727
 30
0.0
  0
POINT
  5
A3D
330
902
100
AcDbEntity
  8
DEFPOINTS
  6
ByBlock
 62
     0
100
AcDbPoint
 10
375.6690048296592
 20
321.8768277114727
 30
0.0
  0
ENDBLK
  5
A3E
330
902
100
AcDbEntity
  8
0
100
AcDbBlockEnd
  0
BLOCK
  5
A42
330
91C
100
AcDbEntity
  8
0
100
AcDbBlockBegin
  2
*D10
 70
     1
 10
0.0
 20
0.0
 30
0.0
  3
*D10
  1

  0
LINE
  5
A43
330
91C
100
AcDbEntity
  8
0
  6
ByBlock
 62
     1
100
AcDbLine
 10
323.0690048296588
 20
189.1768277114728
 30
0.0
 11
323.0690048296588
 21
155.3768277114723
 31
0.0
  0
LINE
  5
A44
330
91C
100
AcDbEntity
  8
0
  6
ByBlock
 62
     1
100
AcDbLine
 10
336.6690048296588
 20
187.3768277114728
 30
0.0
 11
336.6690048296588
 21
155.3768277114723
 31
0.0
  0
LINE
  5
A45
330
91C
100
AcDbEntity
  8
0
  6
ByBlock
 62
     1
100
AcDbLine
 10
340.3890048296588
 20
156.8768277114723
 30
0.0
 11
344.1090048296588
 21
156.8768277114723
 31
0.0
  0
LINE
  5
A46
330
91C
100
AcDbEntity
  8
0
  6
ByBlock
 62
     1
100
AcDbLine
 10
319.3490048296588
 20
156.8768277114723
 30
0.0
 11
290.4128411416516
 21
156.8768277114723
 31
0.0
  0
LINE
  5
A47
330
91C
100
AcDbEntity
  8
0
  6
ByBlock
 62
     1
100
AcDbLine
 10
336.6690048296588
 20
156.8768277114723
 30
0.0
 11
323.0690048296588
 21
156.8768277114723
 31
0.0
  0
INSERT
  5
A48
330
91C
100
AcDbEntity
  8
0
  6
ByBlock
 62
     1
100
AcDbBlockReference
  2
_OPEN15
 10
336.6690048296588
 20
156.8768277114723
 30
0.0
 41
3.72
 42
3.72
 43
3.72
 50
180.0
  0
INSERT
  5
A49
330
91C
100
AcDbEntity
  8
0
  6
ByBlock
 62
     1
100
AcDbBlockReference
  2
_OPEN15
 10
323.0690048296588
 20
156.8768277114723
 30
0.0
 41
3.72
 42
3.72
 43
3.72
  0
MTEXT
  5
A4A
330
91C
100
AcDbEntity
  8
0
  6
ByBlock
 62
     5
100
AcDbMText
 10
302.2124474408642
 20
161.6268277114723
 30
0.0
 40
7.0
 41
0.0
 71
     5
 72
     5
  1
\A1;13.6
 73
     1
 44
1.0
1001
ACAD
1000
MTEXTBEGIN
1070
    73
1070
     1
1070
    44
1040
1.0
1070
    74
1070
     0
1000
MTEXTEND
  0
POINT
  5
A4B
330
91C
100
AcDbEntity
  8
DEFPOINTS
  6
ByBlock
 62
     0
100
AcDbPoint
 10
323.0690048296588
 20
189.1768277114728
 30
0.0
  0
POINT
  5
A4C
330
91C
100
AcDbEntity
  8
DEFPOINTS
  6
ByBlock
 62
     0
100
AcDbPoint
 10
336.6690048296588
 20
187.3768277114728
 30
0.0
  0
POINT
  5
A4D
330
91C
100
AcDbEntity
  8
DEFPOINTS
  6
ByBlock
 62
     0
100
AcDbPoint
 10
336.6690048296588
 20
156.8768277114723
 30
0.0
  0
ENDBLK
  5
A4E
330
91C
100
AcDbEntity
  8
0
100
AcDbBlockEnd
  0
BLOCK
  5
A52
330
99D
100
AcDbEntity
  8
0
100
AcDbBlockBegin
  2
*D11
 70
     1
 10
0.0
 20
0.0
 30
0.0
  3
*D11
  1

  0
LINE
  5
A53
330
99D
100
AcDbEntity
  8
0
  6
ByBlock
 62
     1
100
AcDbLine
 10
164.0690048296587
 20
192.376827711473
 30
0.0
 11
111.9690048296584
 21
192.376827711473
 31
0.0
  0
LINE
  5
A54
330
99D
100
AcDbEntity
  8
0
  6
ByBlock
 62
     1
100
AcDbLine
 10
164.0690048296588
 20
313.3768277114727
 30
0.0
 11
111.9690048296584
 21
313.3768277114727
 31
0.0
  0
LINE
  5
A55
330
99D
100
AcDbEntity
  8
0
  6
ByBlock
 62
     1
100
AcDbLine
 10
113.4690048296584
 20
196.096827711473
 30
0.0
 11
113.4690048296584
 21
309.6568277114727
 31
0.0
  0
INSERT
  5
A56
330
99D
100
AcDbEntity
  8
0
  6
ByBlock
 62
     1
100
AcDbBlockReference
  2
_OPEN15
 10
113.4690048296584
 20
192.376827711473
 30
0.0
 41
3.72
 42
3.72
 43
3.72
 50
270.0
  0
INSERT
  5
A57
330
99D
100
AcDbEntity
  8
0
  6
ByBlock
 62
     1
100
AcDbBlockReference
  2
_OPEN15
 10
113.4690048296584
 20
313.3768277114727
 30
0.0
 41
3.72
 42
3.72
 43
3.72
 50
90.0
  0
MTEXT
  5
A58
330
99D
100
AcDbEntity
  8
0
  6
ByBlock
 62
     5
100
AcDbMText
 10
108.7190048296584
 20
252.8768277114729
 30
0.0
 40
7.0
 41
0.0
 71
     5
 72
     5
  1
\A1;121
 11
0.0
 21
1.0
 31
0.0
 73
     1
 44
1.0
1001
ACAD
1000
MTEXTBEGIN
1070
    73
1070
     1
1070
    44
1040
1.0
1070
    74
1070
     0
1000
MTEXTEND
  0
POINT
  5
A59
330
99D
100
AcDbEntity
  8
DEFPOINTS
  6
ByBlock
 62
     0
100
AcDbPoint
 10
164.0690048296587
 20
192.376827711473
 30
0.0
  0
POINT
  5
A5A
330
99D
100
AcDbEntity
  8
DEFPOINTS
  6
ByBlock
 62
     0
100
AcDbPoint
 10
164.0690048296588
 20
313.3768277114727
 30
0.0
  0
POINT
  5
A5B
330
99D
100
AcDbEntity
  8
DEFPOINTS
  6
ByBlock
 62
     0
100
AcDbPoint
 10
113.4690048296584
 20
313.3768277114727
 30
0.0
  0
ENDBLK
  5
A5C
330
99D
100
AcDbEntity
  8
0
100
AcDbBlockEnd
  0
BLOCK
  5
B87
330
9B7
100
AcDbEntity
  8
0
100
AcDbBlockBegin
  2
*D12
 70
     1
 10
0.0
 20
0.0
 30
0.0
  3
*D12
  1

  0
LINE
  5
B88
330
9B7
100
AcDbEntity
  8
0
  6
ByBlock
 62
     1
100
AcDbLine
 10
170.9190048296589
 20
318.8768277114728
 30
0.0
 11
170.9190048296589
 21
350.3768277114732
 31
0.0
  0
LINE
  5
B89
330
9B7
100
AcDbEntity
  8
0
  6
ByBlock
 62
     1
100
AcDbLine
 10
318.2190048296588
 20
318.8768277114726
 30
0.0
 11
318.2190048296588
 21
350.3768277114732
 31
0.0
  0
LINE
  5
B8A
330
9B7
100
AcDbEntity
  8
0
  6
ByBlock
 62
     1
100
AcDbLine
 10
174.6390048296589
 20
348.8768277114732
 30
0.0
 11
314.4990048296588
 21
348.8768277114732
 31
0.0
  0
INSERT
  5
B8B
330
9B7
100
AcDbEntity
  8
0
  6
ByBlock
 62
     1
100
AcDbBlockReference
  2
_OPEN15
 10
170.9190048296589
 20
348.8768277114732
 30
0.0
 41
3.72
 42
3.72
 43
3.72
 50
180.0
  0
INSERT
  5
B8C
330
9B7
100
AcDbEntity
  8
0
  6
ByBlock
 62
     1
100
AcDbBlockReference
  2
_OPEN15
 10
318.2190048296588
 20
348.8768277114732
 30
0.0
 41
3.72
 42
3.72
 43
3.72
  0
MTEXT
  5
B8D
330
9B7
100
AcDbEntity
  8
0
  6
ByBlock
 62
     5
100
AcDbMText
 10
244.569004829659
 20
353.6268277114732
 30
0.0
 40
7.0
 41
0.0
 71
     5
 72
     5
  1
\A1;L1
 73
     1
 44
1.0
1001
ACAD
1000
MTEXTBEGIN
1070
    73
1070
     1
1070
    44
1040
1.0
1070
    74
1070
     0
1000
MTEXTEND
  0
POINT
  5
B8E
330
9B7
100
AcDbEntity
  8
DEFPOINTS
  6
ByBlock
 62
     0
100
AcDbPoint
 10
170.9190048296589
 20
318.8768277114728
 30
0.0
  0
POINT
  5
B8F
330
9B7
100
AcDbEntity
  8
DEFPOINTS
  6
ByBlock
 62
     0
100
AcDbPoint
 10
318.2190048296588
 20
318.8768277114726
 30
0.0
  0
POINT
  5
B90
330
9B7
100
AcDbEntity
  8
DEFPOINTS
  6
ByBlock
 62
     0
100
AcDbPoint
 10
318.2190048296588
 20
348.8768277114732
 30
0.0
  0
ENDBLK
  5
B91
330
9B7
100
AcDbEntity
  8
0
100
AcDbBlockEnd
  0
BLOCK
  5
B2D
330
B2C
100
AcDbEntity
  8
0
100
AcDbBlockBegin
  2
*X13
 70
     1
 10
0.0
 20
0.0
 30
0.0
  3
*X13
  1

  0
LINE
  5
B2F
330
B2C
100
AcDbEntity
  8
0
  6
Continuous
 62
     0
100
AcDbLine
 10
460.4052907299683
 20
318.2768277114724
 30
0.0
 11
464.0052907299684
 21
321.8768277114723
 31
0.0
  0
LINE
  5
B30
330
B2C
100
AcDbEntity
  8
0
  6
Continuous
 62
     0
100
AcDbLine
 10
458.2839703864088
 20
318.2768277114724
 30
0.0
 11
461.8839703864087
 21
321.8768277114723
 31
0.0
  0
LINE
  5
B31
330
B2C
100
AcDbEntity
  8
0
  6
Continuous
 62
     0
100
AcDbLine
 10
456.1626500428491
 20
318.2768277114724
 30
0.0
 11
459.762650042849
 21
321.8768277114723
 31
0.0
  0
LINE
  5
B32
330
B2C
100
AcDbEntity
  8
0
  6
Continuous
 62
     0
100
AcDbLine
 10
454.0413296992895
 20
318.2768277114724
 30
0.0
 11
457.6413296992894
 21
321.8768277114723
 31
0.0
  0
LINE
  5
B33
330
B2C
100
AcDbEntity
  8
0
  6
Continuous
 62
     0
100
AcDbLine
 10
451.9200093557299
 20
318.2768277114724
 30
0.0
 11
455.5200093557298
 21
321.8768277114723
 31
0.0
  0
LINE
  5
B34
330
B2C
100
AcDbEntity
  8
0
  6
Continuous
 62
     0
100
AcDbLine
 10
449.7986890121702
 20
318.2768277114724
 30
0.0
 11
453.3986890121702
 21
321.8768277114723
 31
0.0
  0
LINE
  5
B35
330
B2C
100
AcDbEntity
  8
0
  6
Continuous
 62
     0
100
AcDbLine
 10
447.6773686686105
 20
318.2768277114724
 30
0.0
 11
451.2773686686105
 21
321.8768277114723
 31
0.0
  0
LINE
  5
B36
330
B2C
100
AcDbEntity
  8
0
  6
Continuous
 62
     0
100
AcDbLine
 10
445.5560483250508
 20
318.2768277114723
 30
0.0
 11
449.1560483250508
 21
321.8768277114723
 31
0.0
  0
LINE
  5
B37
330
B2C
100
AcDbEntity
  8
0
  6
Continuous
 62
     0
100
AcDbLine
 10
443.4347279814912
 20
318.2768277114723
 30
0.0
 11
447.0347279814912
 21
321.8768277114723
 31
0.0
  0
LINE
  5
B38
330
B2C
100
AcDbEntity
  8
0
  6
Continuous
 62
     0
100
AcDbLine
 10
441.3134076379316
 20
318.2768277114724
 30
0.0
 11
444.9134076379316
 21
321.8768277114723
 31
0.0
  0
LINE
  5
B39
330
B2C
100
AcDbEntity
  8
0
  6
Continuous
 62
     0
100
AcDbLine
 10
439.1920872943719
 20
318.2768277114724
 30
0.0
 11
442.792087294372
 21
321.8768277114723
 31
0.0
  0
LINE
  5
B3A
330
B2C
100
AcDbEntity
  8
0
  6
Continuous
 62
     0
100
AcDbLine
 10
437.0707669508123
 20
318.2768277114724
 30
0.0
 11
440.6707669508123
 21
321.8768277114723
 31
0.0
  0
LINE
  5
B3B
330
B2C
100
AcDbEntity
  8
0
  6
Continuous
 62
     0
100
AcDbLine
 10
436.1494466072528
 20
319.4768277114726
 30
0.0
 11
437.3494466072528
 21
320.6768277114726
 31
0.0
  0
LINE
  5
B3C
330
B2C
100
AcDbEntity
  8
0
  6
Continuous
 62
     0
100
AcDbLine
 10
462.526611073528
 20
318.2768277114724
 30
0.0
 11
466.1266110735279
 21
321.8768277114723
 31
0.0
  0
LINE
  5
B3D
330
B2C
100
AcDbEntity
  8
0
  6
Continuous
 62
     0
100
AcDbLine
 10
464.6479314170877
 20
318.2768277114724
 30
0.0
 11
468.2479314170876
 21
321.8768277114723
 31
0.0
  0
LINE
  5
B3E
330
B2C
100
AcDbEntity
  8
0
  6
Continuous
 62
     0
100
AcDbLine
 10
466.7692517606473
 20
318.2768277114724
 30
0.0
 11
470.3692517606473
 21
321.8768277114723
 31
0.0
  0
LINE
  5
B3F
330
B2C
100
AcDbEntity
  8
0
  6
Continuous
 62
     0
100
AcDbLine
 10
468.8905721042069
 20
318.2768277114724
 30
0.0
 11
472.4905721042069
 21
321.8768277114723
 31
0.0
  0
LINE
  5
B40
330
B2C
100
AcDbEntity
  8
0
  6
Continuous
 62
     0
100
AcDbLine
 10
471.0118924477666
 20
318.2768277114724
 30
0.0
 11
474.6118924477666
 21
321.8768277114723
 31
0.0
  0
LINE
  5
B41
330
B2C
100
AcDbEntity
  8
0
  6
Continuous
 62
     0
100
AcDbLine
 10
473.1332127913263
 20
318.2768277114724
 30
0.0
 11
476.7332127913262
 21
321.8768277114723
 31
0.0
  0
LINE
  5
B42
330
B2C
100
AcDbEntity
  8
0
  6
Continuous
 62
     0
100
AcDbLine
 10
475.2545331348859
 20
318.2768277114724
 30
0.0
 11
478.8545331348859
 21
321.8768277114723
 31
0.0
  0
LINE
  5
B43
330
B2C
100
AcDbEntity
  8
0
  6
Continuous
 62
     0
100
AcDbLine
 10
477.3758534784455
 20
318.2768277114724
 30
0.0
 11
480.9758534784455
 21
321.8768277114723
 31
0.0
  0
LINE
  5
B44
330
B2C
100
AcDbEntity
  8
0
  6
Continuous
 62
     0
100
AcDbLine
 10
479.4971738220052
 20
318.2768277114724
 30
0.0
 11
483.0971738220052
 21
321.8768277114723
 31
0.0
  0
LINE
  5
B45
330
B2C
100
AcDbEntity
  8
0
  6
Continuous
 62
     0
100
AcDbLine
 10
481.6184941655648
 20
318.2768277114724
 30
0.0
 11
485.2184941655648
 21
321.8768277114723
 31
0.0
  0
LINE
  5
B46
330
B2C
100
AcDbEntity
  8
0
  6
Continuous
 62
     0
100
AcDbLine
 10
483.7398145091245
 20
318.2768277114724
 30
0.0
 11
484.9966708607667
 21
319.5336840631146
 31
0.0
  0
LINE
  5
B47
330
B2C
100
AcDbEntity
  8
0
  6
Continuous
 62
     0
100
AcDbLine
 10
486.2898145091245
 20
320.8268277114724
 30
0.0
 11
487.3398145091244
 21
321.8768277114723
 31
0.0
  0
LINE
  5
B48
330
B2C
100
AcDbEntity
  8
0
  6
Continuous
 62
     0
100
AcDbLine
 10
485.8611348526841
 20
318.2768277114724
 30
0.0
 11
486.9111348526842
 21
319.3268277114725
 31
0.0
  0
LINE
  5
B49
330
B2C
100
AcDbEntity
  8
0
  6
Continuous
 62
     0
100
AcDbLine
 10
488.4111348526841
 20
320.8268277114724
 30
0.0
 11
489.4611348526841
 21
321.8768277114723
 31
0.0
  0
ENDBLK
  5
B4A
330
B2C
100
AcDbEntity
  8
0
100
AcDbBlockEnd
  0
BLOCK
  5
B50
330
B4F
100
AcDbEntity
  8
0
100
AcDbBlockBegin
  2
*X14
 70
     1
 10
0.0
 20
0.0
 30
0.0
  3
*X14
  1

  0
LINE
  5
B52
330
B4F
100
AcDbEntity
  8
0
  6
Continuous
 62
     0
100
AcDbLine
 10
459.6484723742261
 20
183.8768277114725
 30
0.0
 11
463.2484723742259
 21
187.4768277114725
 31
0.0
  0
LINE
  5
B53
330
B4F
100
AcDbEntity
  8
0
  6
Continuous
 62
     0
100
AcDbLine
 10
457.5271520306664
 20
183.8768277114725
 30
0.0
 11
461.1271520306663
 21
187.4768277114725
 31
0.0
  0
LINE
  5
B54
330
B4F
100
AcDbEntity
  8
0
  6
Continuous
 62
     0
100
AcDbLine
 10
455.4058316871068
 20
183.8768277114725
 30
0.0
 11
459.0058316871067
 21
187.4768277114725
 31
0.0
  0
LINE
  5
B55
330
B4F
100
AcDbEntity
  8
0
  6
Continuous
 62
     0
100
AcDbLine
 10
453.2845113435471
 20
183.8768277114725
 30
0.0
 11
456.8845113435471
 21
187.4768277114725
 31
0.0
  0
LINE
  5
B56
330
B4F
100
AcDbEntity
  8
0
  6
Continuous
 62
     0
100
AcDbLine
 10
451.1631909999874
 20
183.8768277114725
 30
0.0
 11
454.7631909999874
 21
187.4768277114725
 31
0.0
  0
LINE
  5
B57
330
B4F
100
AcDbEntity
  8
0
  6
Continuous
 62
     0
100
AcDbLine
 10
449.0418706564279
 20
183.8768277114725
 30
0.0
 11
452.6418706564278
 21
187.4768277114725
 31
0.0
  0
LINE
  5
B58
330
B4F
100
AcDbEntity
  8
0
  6
Continuous
 62
     0
100
AcDbLine
 10
446.9205503128682
 20
183.8768277114725
 30
0.0
 11
450.5205503128681
 21
187.4768277114725
 31
0.0
  0
LINE
  5
B59
330
B4F
100
AcDbEntity
  8
0
  6
Continuous
 62
     0
100
AcDbLine
 10
444.7992299693087
 20
183.8768277114725
 30
0.0
 11
448.3992299693086
 21
187.4768277114725
 31
0.0
  0
LINE
  5
B5A
330
B4F
100
AcDbEntity
  8
0
  6
Continuous
 62
     0
100
AcDbLine
 10
442.6779096257489
 20
183.8768277114725
 30
0.0
 11
446.2779096257488
 21
187.4768277114725
 31
0.0
  0
LINE
  5
B5B
330
B4F
100
AcDbEntity
  8
0
  6
Continuous
 62
     0
100
AcDbLine
 10
440.5565892821893
 20
183.8768277114725
 30
0.0
 11
444.1565892821893
 21
187.4768277114725
 31
0.0
  0
LINE
  5
B5C
330
B4F
100
AcDbEntity
  8
0
  6
Continuous
 62
     0
100
AcDbLine
 10
439.2638700267061
 20
184.7054287995489
 30
0.0
 11
442.0352689386296
 21
187.4768277114725
 31
0.0
  0
LINE
  5
B5D
330
B4F
100
AcDbEntity
  8
0
  6
Continuous
 62
     0
100
AcDbLine
 10
437.5139485950699
 20
185.0768277114724
 30
0.0
 11
439.91394859507
 21
187.4768277114725
 31
0.0
  0
LINE
  5
B5E
330
B4F
100
AcDbEntity
  8
0
  6
Continuous
 62
     0
100
AcDbLine
 10
435.3926282515102
 20
185.0768277114724
 30
0.0
 11
436.5926282515103
 21
186.2768277114725
 31
0.0
  0
LINE
  5
B5F
330
B4F
100
AcDbEntity
  8
0
  6
Continuous
 62
     0
100
AcDbLine
 10
436.763870026706
 20
186.4480694866682
 30
0.0
 11
437.7926282515103
 21
187.4768277114725
 31
0.0
  0
LINE
  5
B60
330
B4F
100
AcDbEntity
  8
0
  6
Continuous
 62
     0
100
AcDbLine
 10
461.7697927177856
 20
183.8768277114725
 30
0.0
 11
465.3697927177856
 21
187.4768277114725
 31
0.0
  0
LINE
  5
B61
330
B4F
100
AcDbEntity
  8
0
  6
Continuous
 62
     0
100
AcDbLine
 10
463.8911130613454
 20
183.8768277114725
 30
0.0
 11
467.4911130613452
 21
187.4768277114725
 31
0.0
  0
LINE
  5
B62
330
B4F
100
AcDbEntity
  8
0
  6
Continuous
 62
     0
100
AcDbLine
 10
466.0124334049049
 20
183.8768277114725
 30
0.0
 11
469.6124334049049
 21
187.4768277114725
 31
0.0
  0
LINE
  5
B63
330
B4F
100
AcDbEntity
  8
0
  6
Continuous
 62
     0
100
AcDbLine
 10
468.1337537484647
 20
183.8768277114725
 30
0.0
 11
471.7337537484645
 21
187.4768277114725
 31
0.0
  0
LINE
  5
B64
330
B4F
100
AcDbEntity
  8
0
  6
Continuous
 62
     0
100
AcDbLine
 10
470.2550740920242
 20
183.8768277114725
 30
0.0
 11
473.8550740920242
 21
187.4768277114725
 31
0.0
  0
LINE
  5
B65
330
B4F
100
AcDbEntity
  8
0
  6
Continuous
 62
     0
100
AcDbLine
 10
472.3763944355839
 20
183.8768277114725
 30
0.0
 11
475.9763944355838
 21
187.4768277114725
 31
0.0
  0
LINE
  5
B66
330
B4F
100
AcDbEntity
  8
0
  6
Continuous
 62
     0
100
AcDbLine
 10
474.4977147791435
 20
183.8768277114725
 30
0.0
 11
478.0977147791435
 21
187.4768277114725
 31
0.0
  0
LINE
  5
B67
330
B4F
100
AcDbEntity
  8
0
  6
Continuous
 62
     0
100
AcDbLine
 10
476.6190351227032
 20
183.8768277114725
 30
0.0
 11
480.219035122703
 21
187.4768277114725
 31
0.0
  0
LINE
  5
B68
330
B4F
100
AcDbEntity
  8
0
  6
Continuous
 62
     0
100
AcDbLine
 10
478.7403554662629
 20
183.8768277114725
 30
0.0
 11
482.3403554662627
 21
187.4768277114724
 31
0.0
  0
LINE
  5
B69
330
B4F
100
AcDbEntity
  8
0
  6
Continuous
 62
     0
100
AcDbLine
 10
480.8616758098224
 20
183.8768277114725
 30
0.0
 11
484.4616758098224
 21
187.4768277114724
 31
0.0
  0
LINE
  5
B6A
330
B4F
100
AcDbEntity
  8
0
  6
Continuous
 62
     0
100
AcDbLine
 10
482.9829961533821
 20
183.8768277114725
 30
0.0
 11
484.7641079082993
 21
185.6579394663898
 31
0.0
  0
LINE
  5
B6B
330
B4F
100
AcDbEntity
  8
0
  6
Continuous
 62
     0
100
AcDbLine
 10
485.5329961533819
 20
186.4268277114723
 30
0.0
 11
486.582996153382
 21
187.4768277114724
 31
0.0
  0
LINE
  5
B6C
330
B4F
100
AcDbEntity
  8
0
  6
Continuous
 62
     0
100
AcDbLine
 10
485.1043164969417
 20
183.8768277114725
 30
0.0
 11
486.1543164969416
 21
184.9268277114724
 31
0.0
  0
LINE
  5
B6D
330
B4F
100
AcDbEntity
  8
0
  6
Continuous
 62
     0
100
AcDbLine
 10
487.6543164969415
 20
186.4268277114723
 30
0.0
 11
487.7638700267062
 21
186.5363812412369
 31
0.0
  0
LINE
  5
B6E
330
B4F
100
AcDbEntity
  8
0
  6
Continuous
 62
     0
100
AcDbLine
 10
487.2256368405014
 20
183.8768277114725
 30
0.0
 11
488.2756368405012
 21
184.9268277114724
 31
0.0
  0
LINE
  5
B6F
330
B4F
100
AcDbEntity
  8
0
  6
Continuous
 62
     0
100
AcDbLine
 10
489.346957184061
 20
183.8768277114725
 30
0.0
 11
489.763870026706
 21
184.2937405541176
 31
0.0
  0
ENDBLK
  5
B70
330
B4F
100
AcDbEntity
  8
0
100
AcDbBlockEnd
  0
BLOCK
  5
E0A
330
E09
100
AcDbEntity
  8
0
 62
     7
370
    50
100
AcDbBlockBegin
  2
PH_GRPBLK
 70
     0
 10
0.0
 20
0.0
 30
0.0
  3
PH_GRPBLK
  1

  0
POINT
  5
E0B
330
E09
100
AcDbEntity
  8
DEFPOINTS
  6
Continuous
 62
     0
370
    50
100
AcDbPoint
 10
0.0
 20
0.0
 30
0.0
  0
ENDBLK
  5
E0C
330
E09
100
AcDbEntity
  8
0
 62
     7
370
    50
100
AcDbBlockEnd
  0
ENDSEC
  0
SECTION
  2
ENTITIES
  0
TEXT
  5
759
330
1A
100
AcDbEntity
  8
1
  6
Continuous
 62
     5
100
AcDbText
 10
175.61990616622
 20
41.04981574118633
 30
0.0
 40
7.0
  1
BC 1000 N
 41
1.574999999999999
100
AcDbText
1001
PHOENIX7010
1002
{
1070
    62
1070
     5
1070
    41
1040
1.0
1002
}
  0
TEXT
  5
75A
330
1A
100
AcDbEntity
  8
1
  6
Continuous
 62
     5
100
AcDbText
 10
175.61990616622
 20
27.04981574118634
 30
0.0
 40
7.0
  1
BC 2000 N
 41
1.574999999999999
100
AcDbText
1001
PHOENIX7010
1002
{
1070
    62
1070
     5
1070
    41
1040
1.0
1002
}
  0
TEXT
  5
75B
330
1A
100
AcDbEntity
  8
1
  6
Continuous
 62
     5
100
AcDbText
 10
175.61990616622
 20
13.04981574118633
 30
0.0
 40
7.0
  1
BC 3000 N
 41
1.574999999999999
100
AcDbText
1001
PHOENIX7010
1002
{
1070
    62
1070
     5
1070
    41
1040
1.0
1002
}
  0
LINE
  5
75C
330
1A
100
AcDbEntity
  8
1
  6
Continuous
 62
     1
100
AcDbLine
 10
249.7832429984288
 20
9.549815741186428
 30
0.0
 11
249.7832429984288
 21
76.13230963627166
 31
0.0
1001
PHOENIX7010
1002
{
1070
    62
1070
     1
1070
    41
1040
1.0
1002
}
  0
LINE
  5
75D
330
1A
100
AcDbEntity
  8
1
  6
Continuous
 62
     1
100
AcDbLine
 10
308.5832429984288
 20
9.549815741186463
 30
0.0
 11
308.5832429984288
 21
65.54981574118642
 31
0.0
1001
PHOENIX7010
1002
{
1070
    62
1070
     1
1070
    41
1040
1.0
1002
}
  0
LINE
  5
75E
330
1A
100
AcDbEntity
  8
1
  6
Continuous
 62
     1
100
AcDbLine
 10
361.1016185302866
 20
51.54981574118633
 30
0.0
 11
174.39490616622
 21
51.54981574118631
 31
0.0
1001
PHOENIX7010
1002
{
1070
    62
1070
     1
1070
    41
1040
1.0
1002
}
  0
LINE
  5
75F
330
1A
100
AcDbEntity
  8
1
  6
Continuous
 62
     1
100
AcDbLine
 10
174.39490616622
 20
37.54981574118634
 30
0.0
 11
361.1016185302866
 21
37.54981574118636
 31
0.0
1001
PHOENIX7010
1002
{
1070
    62
1070
     1
1070
    41
1040
1.0
1002
}
  0
LINE
  5
760
330
1A
100
AcDbEntity
  8
1
  6
Continuous
 62
     1
100
AcDbLine
 10
361.1016185302867
 20
23.54981574118637
 30
0.0
 11
174.39490616622
 21
23.54981574118633
 31
0.0
1001
PHOENIX7010
1002
{
1070
    62
1070
     1
1070
    41
1040
1.0
1002
}
  0
LINE
  5
761
330
1A
100
AcDbEntity
  8
1
  6
Continuous
 62
     7
100
AcDbLine
 10
489.7638700267061
 20
183.8768277114724
 30
0.0
 11
489.7638700267062
 21
321.8768277114724
 31
0.0
1001
PHOENIX7010
1002
{
1070
    62
1070
     7
1070
    41
1040
1.0
1002
}
  0
LINE
  5
762
330
1A
100
AcDbEntity
  8
1
  6
Continuous
 62
     7
100
AcDbLine
 10
489.7638700267062
 20
320.8268277114724
 30
0.0
 11
485.5138700267063
 21
320.8268277114724
 31
0.0
1001
PHOENIX7010
1002
{
1070
    62
1070
     7
1070
    41
1040
1.0
1002
}
  0
LINE
  5
763
330
1A
100
AcDbEntity
  8
1
  6
Continuous
 62
     7
100
AcDbLine
 10
487.7638700267063
 20
319.3268277114725
 30
0.0
 11
485.5138700267063
 21
319.3268277114725
 31
0.0
1001
PHOENIX7010
1002
{
1070
    62
1070
     7
1070
    41
1040
1.0
1002
}
  0
LINE
  5
764
330
1A
100
AcDbEntity
  8
1
  6
ACAD_ISO04W100
 62
     1
100
AcDbLine
 10
489.7638700267062
 20
320.0768277114725
 30
0.0
 11
482.7638700267063
 21
320.0768277114725
 31
0.0
1001
PHOENIX7010
1002
{
1070
    62
1070
     1
1070
    41
1040
1.0
1002
}
  0
LINE
  5
765
330
1A
100
AcDbEntity
  8
1
  6
Continuous
 62
     7
100
AcDbLine
 10
487.7638700267062
 20
186.4268277114724
 30
0.0
 11
487.7638700267063
 21
319.3268277114725
 31
0.0
1001
PHOENIX7010
1002
{
1070
    62
1070
     7
1070
    41
1040
1.0
1002
}
  0
ARC
  5
766
330
1A
100
AcDbEntity
  8
1
  6
Continuous
 62
     7
100
AcDbCircle
 10
485.5138700267063
 20
320.0768277114725
 30
0.0
 40
0.7499999999998864
100
AcDbArc
 50
90.0
 51
270.0000000000086
1001
PHOENIX7010
1002
{
1070
    62
1070
     7
1070
    41
1040
1.0
1002
}
  0
LINE
  5
767
330
1A
100
AcDbEntity
  8
1
  6
ACAD_ISO04W100
 62
     1
100
AcDbLine
 10
491.7638700267061
 20
252.8768277114724
 30
0.0
 11
433.2638700267061
 21
252.8768277114725
 31
0.0
1001
PHOENIX7010
1002
{
1070
    62
1070
     1
1070
    41
1040
1.0
1002
}
  0
LINE
  5
768
330
1A
100
AcDbEntity
  8
1
  6
Continuous
 62
     7
100
AcDbLine
 10
487.7638700267063
 20
318.2768277114724
 30
0.0
 11
436.7638700267063
 21
318.2768277114725
 31
0.0
1001
PHOENIX7010
1002
{
1070
    62
1070
     7
1070
    41
1040
1.0
1002
}
  0
LINE
  5
769
330
1A
100
AcDbEntity
  8
1
  6
Continuous
 62
     7
100
AcDbLine
 10
439.2638700267062
 20
321.8768277114724
 30
0.0
 11
489.7638700267062
 21
321.8768277114724
 31
0.0
1001
PHOENIX7010
1002
{
1070
    62
1070
     7
1070
    41
1040
1.0
1002
}
  0
LINE
  5
76A
330
1A
100
AcDbEntity
  8
1
  6
Continuous
 62
     7
100
AcDbLine
 10
439.2638700267062
 20
320.6768277114725
 30
0.0
 11
439.2638700267062
 21
321.8768277114724
 31
0.0
1001
PHOENIX7010
1002
{
1070
    62
1070
     7
1070
    41
1040
1.0
1002
}
  0
LINE
  5
76B
330
1A
100
AcDbEntity
  8
1
  6
ACAD_ISO04W100
 62
     1
100
AcDbLine
 10
433.2638700267063
 20
320.0768277114726
 30
0.0
 11
441.2638700267063
 21
320.0768277114725
 31
0.0
1001
PHOENIX7010
1002
{
1070
    62
1070
     1
1070
    41
1040
1.0
1002
}
  0
LINE
  5
76C
330
1A
100
AcDbEntity
  8
1
  6
Continuous
 62
     7
100
AcDbLine
 10
435.2638700267062
 20
320.6768277114726
 30
0.0
 11
439.2638700267062
 21
320.6768277114725
 31
0.0
1001
PHOENIX7010
1002
{
1070
    62
1070
     7
1070
    41
1040
1.0
1002
}
  0
LINE
  5
76D
330
1A
100
AcDbEntity
  8
1
  6
Continuous
 62
     7
100
AcDbLine
 10
435.2638700267062
 20
319.4768277114726
 30
0.0
 11
436.7638700267063
 21
319.4768277114726
 31
0.0
1001
PHOENIX7010
1002
{
1070
    62
1070
     7
1070
    41
1040
1.0
1002
}
  0
LINE
  5
76E
330
1A
100
AcDbEntity
  8
1
  6
ACAD_ISO04W100
 62
     1
100
AcDbLine
 10
464.7638700267062
 20
313.3768277114724
 30
0.0
 11
422.7638700267062
 21
313.3768277114725
 31
0.0
1001
PHOENIX7010
1002
{
1070
    62
1070
     1
1070
    41
1040
1.0
1002
}
  0
LINE
  5
76F
330
1A
100
AcDbEntity
  8
1
  6
Continuous
 62
     7
100
AcDbLine
 10
462.7638700267063
 20
309.8768277114723
 30
0.0
 11
462.7638700267063
 21
316.8768277114724
 31
0.0
1001
PHOENIX7010
1002
{
1070
    62
1070
     7
1070
    41
1040
1.0
1002
}
  0
LINE
  5
770
330
1A
100
AcDbEntity
  8
1
  6
Continuous
 62
     7
100
AcDbLine
 10
487.7638700267063
 20
290.8768277114725
 30
0.0
 11
436.7638700267063
 21
290.8768277114726
 31
0.0
1001
PHOENIX7010
1002
{
1070
    62
1070
     7
1070
    41
1040
1.0
1002
}
  0
LINE
  5
771
330
1A
100
AcDbEntity
  8
1
  6
Continuous
 62
     7
100
AcDbLine
 10
462.7638700267062
 20
287.4768277114723
 30
0.0
 11
445.7638700267061
 21
287.4768277114723
 31
0.0
1001
PHOENIX7010
1002
{
1070
    62
1070
     7
1070
    41
1040
1.0
1002
}
  0
LINE
  5
772
330
1A
100
AcDbEntity
  8
1
  6
Continuous
 62
     7
100
AcDbLine
 10
424.7638700267063
 20
309.8768277114724
 30
0.0
 11
424.7638700267063
 21
316.8768277114725
 31
0.0
1001
PHOENIX7010
1002
{
1070
    62
1070
     7
1070
    41
1040
1.0
1002
}
  0
LINE
  5
773
330
1A
100
AcDbEntity
  8
1
  6
Continuous
 62
     7
100
AcDbLine
 10
462.7638700267063
 20
290.8768277114725
 30
0.0
 11
462.7638700267062
 21
287.4768277114723
 31
0.0
1001
PHOENIX7010
1002
{
1070
    62
1070
     7
1070
    41
1040
1.0
1002
}
  0
LINE
  5
774
330
1A
100
AcDbEntity
  8
1
  6
Continuous
 62
     7
100
AcDbLine
 10
445.7638700267063
 20
290.8768277114725
 30
0.0
 11
445.7638700267061
 21
287.4768277114723
 31
0.0
1001
PHOENIX7010
1002
{
1070
    62
1070
     7
1070
    41
1040
1.0
1002
}
  0
LINE
  5
775
330
1A
100
AcDbEntity
  8
1
  6
Continuous
 62
     7
100
AcDbLine
 10
424.7638700267063
 20
309.8768277114724
 30
0.0
 11
462.7638700267063
 21
309.8768277114723
 31
0.0
1001
PHOENIX7010
1002
{
1070
    62
1070
     7
1070
    41
1040
1.0
1002
}
  0
LINE
  5
776
330
1A
100
AcDbEntity
  8
1
  6
Continuous
 62
     7
100
AcDbLine
 10
462.7638700267063
 20
314.8768277114724
 30
0.0
 11
445.7638700267063
 21
314.8768277114724
 31
0.0
1001
PHOENIX7010
1002
{
1070
    62
1070
     7
1070
    41
1040
1.0
1002
}
  0
LINE
  5
777
330
1A
100
AcDbEntity
  8
1
  6
Continuous
 62
     7
100
AcDbLine
 10
462.7638700267063
 20
316.0768277114724
 30
0.0
 11
445.7638700267063
 21
316.0768277114724
 31
0.0
1001
PHOENIX7010
1002
{
1070
    62
1070
     7
1070
    41
1040
1.0
1002
}
  0
LINE
  5
778
330
1A
100
AcDbEntity
  8
1
  6
Continuous
 62
     7
100
AcDbLine
 10
446.7638700267063
 20
318.2768277114724
 30
0.0
 11
446.7638700267063
 21
316.0768277114724
 31
0.0
1001
PHOENIX7010
1002
{
1070
    62
1070
     7
1070
    41
1040
1.0
1002
}
  0
LINE
  5
779
330
1A
100
AcDbEntity
  8
1
  6
Continuous
 62
     7
100
AcDbLine
 10
445.7638700267063
 20
318.2768277114724
 30
0.0
 11
445.7638700267063
 21
314.8768277114724
 31
0.0
1001
PHOENIX7010
1002
{
1070
    62
1070
     7
1070
    41
1040
1.0
1002
}
  0
LINE
  5
77A
330
1A
100
AcDbEntity
  8
1
  6
Continuous
 62
     7
100
AcDbLine
 10
489.7638700267061
 20
184.9268277114724
 30
0.0
 11
485.513870026706
 21
184.9268277114724
 31
0.0
1001
PHOENIX7010
1002
{
1070
    62
1070
     7
1070
    41
1040
1.0
1002
}
  0
LINE
  5
77B
102
{ACAD_REACTORS
330
9EC
330
A08
102
}
330
1A
100
AcDbEntity
  8
1
  6
Continuous
 62
     7
100
AcDbLine
 10
487.7638700267062
 20
186.4268277114724
 30
0.0
 11
485.513870026706
 21
186.4268277114724
 31
0.0
1001
PHOENIX7010
1002
{
1070
    62
1070
     7
1070
    41
1040
1.0
1002
}
  0
LINE
  5
77C
330
1A
100
AcDbEntity
  8
1
  6
ACAD_ISO04W100
 62
     1
100
AcDbLine
 10
489.7638700267061
 20
185.6768277114723
 30
0.0
 11
482.7638700267061
 21
185.6768277114724
 31
0.0
1001
PHOENIX7010
1002
{
1070
    62
1070
     1
1070
    41
1040
1.0
1002
}
  0
ARC
  5
77D
330
1A
100
AcDbEntity
  8
1
  6
Continuous
 62
     7
100
AcDbCircle
 10
485.513870026706
 20
185.6768277114724
 30
0.0
 40
0.7499999999998864
100
AcDbArc
 50
89.99999999999131
 51
270.0
1001
PHOENIX7010
1002
{
1070
    62
1070
     7
1070
    41
1040
1.0
1002
}
  0
LINE
  5
77E
330
1A
100
AcDbEntity
  8
1
  6
Continuous
 62
     7
100
AcDbLine
 10
487.7638700267062
 20
187.4768277114724
 30
0.0
 11
436.763870026706
 21
187.4768277114725
 31
0.0
1001
PHOENIX7010
1002
{
1070
    62
1070
     7
1070
    41
1040
1.0
1002
}
  0
LINE
  5
77F
330
1A
100
AcDbEntity
  8
1
  6
Continuous
 62
     7
100
AcDbLine
 10
439.2638700267061
 20
183.8768277114725
 30
0.0
 11
489.7638700267061
 21
183.8768277114724
 31
0.0
1001
PHOENIX7010
1002
{
1070
    62
1070
     7
1070
    41
1040
1.0
1002
}
  0
LINE
  5
780
330
1A
100
AcDbEntity
  8
1
  6
Continuous
 62
     7
100
AcDbLine
 10
439.2638700267061
 20
185.0768277114724
 30
0.0
 11
439.2638700267061
 21
183.8768277114725
 31
0.0
1001
PHOENIX7010
1002
{
1070
    62
1070
     7
1070
    41
1040
1.0
1002
}
  0
LINE
  5
781
330
1A
100
AcDbEntity
  8
1
  6
ACAD_ISO04W100
 62
     1
100
AcDbLine
 10
433.263870026706
 20
185.6768277114724
 30
0.0
 11
441.263870026706
 21
185.6768277114724
 31
0.0
1001
PHOENIX7010
1002
{
1070
    62
1070
     1
1070
    41
1040
1.0
1002
}
  0
LINE
  5
782
330
1A
100
AcDbEntity
  8
1
  6
Continuous
 62
     7
100
AcDbLine
 10
435.2638700267061
 20
185.0768277114724
 30
0.0
 11
439.2638700267061
 21
185.0768277114724
 31
0.0
1001
PHOENIX7010
1002
{
1070
    62
1070
     7
1070
    41
1040
1.0
1002
}
  0
LINE
  5
783
102
{ACAD_REACTORS
330
A07
102
}
330
1A
100
AcDbEntity
  8
1
  6
Continuous
 62
     7
100
AcDbLine
 10
435.2638700267061
 20
186.2768277114725
 30
0.0
 11
436.763870026706
 21
186.2768277114725
 31
0.0
1001
PHOENIX7010
1002
{
1070
    62
1070
     7
1070
    41
1040
1.0
1002
}
  0
LINE
  5
784
330
1A
100
AcDbEntity
  8
1
  6
ACAD_ISO04W100
 62
     1
100
AcDbLine
 10
464.7638700267061
 20
192.3768277114725
 30
0.0
 11
422.7638700267061
 21
192.3768277114725
 31
0.0
1001
PHOENIX7010
1002
{
1070
    62
1070
     1
1070
    41
1040
1.0
1002
}
  0
LINE
  5
785
102
{ACAD_REACTORS
330
9EB
330
9FA
102
}
330
1A
100
AcDbEntity
  8
1
  6
Continuous
 62
     7
100
AcDbLine
 10
462.7638700267062
 20
195.8768277114726
 30
0.0
 11
462.763870026706
 21
188.8768277114725
 31
0.0
1001
PHOENIX7010
1002
{
1070
    62
1070
     7
1070
    41
1040
1.0
1002
}
  0
LINE
  5
786
330
1A
100
AcDbEntity
  8
1
  6
Continuous
 62
     7
100
AcDbLine
 10
487.7638700267062
 20
214.8768277114723
 30
0.0
 11
436.7638700267061
 21
214.8768277114724
 31
0.0
1001
PHOENIX7010
1002
{
1070
    62
1070
     7
1070
    41
1040
1.0
1002
}
  0
LINE
  5
787
330
1A
100
AcDbEntity
  8
1
  6
Continuous
 62
     7
100
AcDbLine
 10
462.7638700267062
 20
218.2768277114726
 30
0.0
 11
445.7638700267061
 21
218.2768277114726
 31
0.0
1001
PHOENIX7010
1002
{
1070
    62
1070
     7
1070
    41
1040
1.0
1002
}
  0
LINE
  5
788
102
{ACAD_REACTORS
330
9F9
102
}
330
1A
100
AcDbEntity
  8
1
  6
Continuous
 62
     7
100
AcDbLine
 10
424.7638700267061
 20
195.8768277114726
 30
0.0
 11
424.763870026706
 21
188.8768277114725
 31
0.0
1001
PHOENIX7010
1002
{
1070
    62
1070
     7
1070
    41
1040
1.0
1002
}
  0
LINE
  5
789
330
1A
100
AcDbEntity
  8
1
  6
Continuous
 62
     7
100
AcDbLine
 10
462.7638700267062
 20
214.8768277114724
 30
0.0
 11
462.7638700267062
 21
218.2768277114726
 31
0.0
1001
PHOENIX7010
1002
{
1070
    62
1070
     7
1070
    41
1040
1.0
1002
}
  0
LINE
  5
78A
330
1A
100
AcDbEntity
  8
1
  6
Continuous
 62
     7
100
AcDbLine
 10
445.7638700267061
 20
214.8768277114724
 30
0.0
 11
445.7638700267061
 21
218.2768277114726
 31
0.0
1001
PHOENIX7010
1002
{
1070
    62
1070
     7
1070
    41
1040
1.0
1002
}
  0
LINE
  5
78B
330
1A
100
AcDbEntity
  8
1
  6
Continuous
 62
     7
100
AcDbLine
 10
424.7638700267061
 20
195.8768277114726
 30
0.0
 11
462.7638700267062
 21
195.8768277114726
 31
0.0
1001
PHOENIX7010
1002
{
1070
    62
1070
     7
1070
    41
1040
1.0
1002
}
  0
LINE
  5
78C
330
1A
100
AcDbEntity
  8
1
  6
Continuous
 62
     7
100
AcDbLine
 10
462.7638700267062
 20
190.8768277114725
 30
0.0
 11
445.7638700267061
 21
190.8768277114725
 31
0.0
1001
PHOENIX7010
1002
{
1070
    62
1070
     7
1070
    41
1040
1.0
1002
}
  0
LINE
  5
78D
330
1A
100
AcDbEntity
  8
1
  6
Continuous
 62
     7
100
AcDbLine
 10
462.763870026706
 20
189.6768277114725
 30
0.0
 11
445.763870026706
 21
189.6768277114725
 31
0.0
1001
PHOENIX7010
1002
{
1070
    62
1070
     7
1070
    41
1040
1.0
1002
}
  0
LINE
  5
78E
330
1A
100
AcDbEntity
  8
1
  6
Continuous
 62
     7
100
AcDbLine
 10
446.763870026706
 20
187.4768277114725
 30
0.0
 11
446.763870026706
 21
189.6768277114725
 31
0.0
1001
PHOENIX7010
1002
{
1070
    62
1070
     7
1070
    41
1040
1.0
1002
}
  0
LINE
  5
78F
330
1A
100
AcDbEntity
  8
1
  6
Continuous
 62
     7
100
AcDbLine
 10
445.763870026706
 20
187.4768277114725
 30
0.0
 11
445.7638700267061
 21
190.8768277114725
 31
0.0
1001
PHOENIX7010
1002
{
1070
    62
1070
     7
1070
    41
1040
1.0
1002
}
  0
DIMENSION
  5
7B0
102
{ACAD_REACTORS
330
9ED
102
}
330
1A
100
AcDbEntity
  8
1
  6
Continuous
 62
     7
100
AcDbDimension
  2
*D2
 10
487.7638700267062
 20
168.8768277114721
 30
0.0
 11
475.2499694528101
 21
168.8768277114721
 31
0.0
 70
   160
 71
     5
 42
-1.0
  3
PHOENIX
100
AcDbAlignedDimension
 13
462.763870026706
 23
188.8768277114725
 33
0.0
 14
487.7638700267062
 24
186.4268277114724
 34
0.0
100
AcDbRotatedDimension
1001
ACAD
1000
DSTYLE
1002
{
1070
   140
1040
7.0
1070
   271
1070
     9
1070
   147
1040
1.25
1002
}
  0
DIMENSION
  5
7CA
102
{ACAD_REACTORS
330
9FB
102
}
330
1A
100
AcDbEntity
  8
1
  6
Continuous
 62
     7
100
AcDbDimension
  2
*D3
 10
462.763870026706
 20
168.8768277114721
 30
0.0
 11
444.1716177073076
 21
168.8768277114721
 31
0.0
 70
   160
 71
     5
 42
-1.0
  3
PHOENIX
100
AcDbAlignedDimension
 13
424.763870026706
 23
188.8768277114725
 33
0.0
 14
462.763870026706
 24
188.8768277114725
 34
0.0
100
AcDbRotatedDimension
1001
ACAD
1000
DSTYLE
1002
{
1070
   140
1040
7.0
1070
   271
1070
     9
1070
   147
1040
1.25
1002
}
  0
DIMENSION
  5
7E4
102
{ACAD_REACTORS
330
A09
102
}
330
1A
100
AcDbEntity
  8
1
  6
Continuous
 62
     7
100
AcDbDimension
  2
*D4
 10
487.7638700267062
 20
156.8768277114721
 30
0.0
 11
464.0880262202704
 21
156.8768277114721
 31
0.0
 70
   160
 71
     5
 42
-1.0
  3
PHOENIX
100
AcDbAlignedDimension
 13
436.763870026706
 23
186.2768277114725
 33
0.0
 14
487.7638700267062
 24
186.4268277114724
 34
0.0
100
AcDbRotatedDimension
1001
ACAD
1000
DSTYLE
1002
{
1070
   140
1040
7.0
1070
   271
1070
     9
1070
   147
1040
1.25
1002
}
  0
LINE
  5
7FE
330
1A
100
AcDbEntity
  8
1
  6
Continuous
 62
     7
100
AcDbLine
 10
435.2638700267062
 20
292.0768277114727
 30
0.0
 11
436.7638700267063
 21
292.0768277114727
 31
0.0
1001
PHOENIX7010
1002
{
1070
    62
1070
     7
1070
    41
1040
1.0
1002
}
  0
LINE
  5
7FF
330
1A
100
AcDbEntity
  8
1
  6
Continuous
 62
     7
100
AcDbLine
 10
435.2638700267061
 20
213.6768277114724
 30
0.0
 11
436.7638700267061
 21
213.6768277114724
 31
0.0
1001
PHOENIX7010
1002
{
1070
    62
1070
     7
1070
    41
1040
1.0
1002
}
  0
LINE
  5
800
330
1A
100
AcDbEntity
  8
1
  6
Continuous
 62
     7
100
AcDbLine
 10
489.7638700267062
 20
293.4268277114726
 30
0.0
 11
487.7638700267063
 21
293.4268277114726
 31
0.0
1001
PHOENIX7010
1002
{
1070
    62
1070
     7
1070
    41
1040
1.0
1002
}
  0
LINE
  5
801
330
1A
100
AcDbEntity
  8
1
  6
Continuous
 62
     7
100
AcDbLine
 10
489.7638700267061
 20
212.3268277114723
 30
0.0
 11
487.7638700267062
 21
212.3268277114723
 31
0.0
1001
PHOENIX7010
1002
{
1070
    62
1070
     7
1070
    41
1040
1.0
1002
}
  0
LINE
  5
802
330
1A
100
AcDbEntity
  8
1
  6
Continuous
 62
     7
100
AcDbLine
 10
436.7638700267063
 20
316.8768277114725
 30
0.0
 11
436.7638700267063
 21
319.4768277114726
 31
0.0
1001
PHOENIX7010
1002
{
1070
    62
1070
     7
1070
    41
1040
1.0
1002
}
  0
LINE
  5
803
330
1A
100
AcDbEntity
  8
1
  6
Continuous
 62
     7
100
AcDbLine
 10
435.2638700267062
 20
316.8768277114725
 30
0.0
 11
435.2638700267062
 21
320.6768277114726
 31
0.0
1001
PHOENIX7010
1002
{
1070
    62
1070
     7
1070
    41
1040
1.0
1002
}
  0
LINE
  5
804
330
1A
100
AcDbEntity
  8
1
  6
Continuous
 62
     7
100
AcDbLine
 10
424.7638700267063
 20
316.8768277114725
 30
0.0
 11
445.7638700267063
 21
316.8768277114724
 31
0.0
1001
PHOENIX7010
1002
{
1070
    62
1070
     7
1070
    41
1040
1.0
1002
}
  0
LINE
  5
805
330
1A
100
AcDbEntity
  8
1
  6
Continuous
 62
     7
100
AcDbLine
 10
446.7638700267063
 20
316.8768277114724
 30
0.0
 11
462.7638700267063
 21
316.8768277114724
 31
0.0
1001
PHOENIX7010
1002
{
1070
    62
1070
     7
1070
    41
1040
1.0
1002
}
  0
LINE
  5
806
330
1A
100
AcDbEntity
  8
1
  6
Continuous
 62
     7
100
AcDbLine
 10
424.763870026706
 20
188.8768277114725
 30
0.0
 11
445.763870026706
 21
188.8768277114725
 31
0.0
1001
PHOENIX7010
1002
{
1070
    62
1070
     7
1070
    41
1040
1.0
1002
}
  0
LINE
  5
807
330
1A
100
AcDbEntity
  8
1
  6
Continuous
 62
     7
100
AcDbLine
 10
446.763870026706
 20
188.8768277114725
 30
0.0
 11
462.763870026706
 21
188.8768277114725
 31
0.0
1001
PHOENIX7010
1002
{
1070
    62
1070
     7
1070
    41
1040
1.0
1002
}
  0
LINE
  5
808
330
1A
100
AcDbEntity
  8
1
  6
Continuous
 62
     7
100
AcDbLine
 10
436.763870026706
 20
186.2768277114725
 30
0.0
 11
436.763870026706
 21
188.8768277114725
 31
0.0
1001
PHOENIX7010
1002
{
1070
    62
1070
     7
1070
    41
1040
1.0
1002
}
  0
LINE
  5
809
330
1A
100
AcDbEntity
  8
1
  6
Continuous
 62
     7
100
AcDbLine
 10
435.2638700267061
 20
185.0768277114724
 30
0.0
 11
435.2638700267061
 21
188.8768277114725
 31
0.0
1001
PHOENIX7010
1002
{
1070
    62
1070
     7
1070
    41
1040
1.0
1002
}
  0
LINE
  5
80A
330
1A
100
AcDbEntity
  8
1
  6
Continuous
 62
     7
100
AcDbLine
 10
435.2638700267061
 20
195.8768277114726
 30
0.0
 11
435.2638700267062
 21
309.8768277114724
 31
0.0
1001
PHOENIX7010
1002
{
1070
    62
1070
     7
1070
    41
1040
1.0
1002
}
  0
LINE
  5
80B
330
1A
100
AcDbEntity
  8
1
  6
Continuous
 62
     7
100
AcDbLine
 10
436.7638700267061
 20
195.8768277114726
 30
0.0
 11
436.7638700267063
 21
309.8768277114724
 31
0.0
1001
PHOENIX7010
1002
{
1070
    62
1070
     7
1070
    41
1040
1.0
1002
}
  0
CIRCLE
  5
80E
102
{ACAD_REACTORS
330
DA0
102
}
330
1A
100
AcDbEntity
  8
1
  6
Continuous
 62
     5
100
AcDbCircle
 10
504.7638700267063
 20
252.8768277114727
 30
0.0
 40
7.0
1001
PHOENIX7010
1002
{
1070
    62
1070
     5
1070
    41
1040
1.0
1002
}
  0
TEXT
  5
80F
102
{ACAD_REACTORS
330
DA0
102
}
330
1A
100
AcDbEntity
  8
1
  6
Continuous
 62
     5
100
AcDbText
 10
500.6711091253682
 20
249.4381374450297
 30
0.0
 40
7.0
  1
6
 50
0.0000000000002214
 41
1.574999999999999
100
AcDbText
1001
PHOENIX7010
1002
{
1070
    62
1070
     5
1070
    41
1040
1.0
1002
}
  0
CIRCLE
  5
812
102
{ACAD_REACTORS
330
DA1
102
}
330
1A
100
AcDbEntity
  8
1
  6
Continuous
 62
     5
100
AcDbCircle
 10
409.7638700267059
 20
252.8768277114725
 30
0.0
 40
7.0
1001
PHOENIX7010
1002
{
1070
    62
1070
     5
1070
    41
1040
1.0
1002
}
  0
TEXT
  5
813
102
{ACAD_REACTORS
330
DA1
102
}
330
1A
100
AcDbEntity
  8
1
  6
Continuous
 62
     5
100
AcDbText
 10
405.6711091253677
 20
249.4381374450294
 30
0.0
 40
7.0
  1
5
 41
1.574999999999999
100
AcDbText
1001
PHOENIX7010
1002
{
1070
    62
1070
     5
1070
    41
1040
1.0
1002
}
  0
LINE
  5
814
102
{ACAD_REACTORS
330
A23
102
}
330
1A
100
AcDbEntity
  8
1
  6
Continuous
 62
     7
100
AcDbLine
 10
152.4690048296588
 20
187.3768277114727
 30
0.0
 11
152.4690048296588
 21
318.3768277114727
 31
0.0
1001
PHOENIX7010
1002
{
1070
    62
1070
     7
1070
    41
1040
1.0
1002
}
  0
LINE
  5
815
102
{ACAD_REACTORS
330
A16
330
A32
102
}
330
1A
100
AcDbEntity
  8
1
  6
Continuous
 62
     7
100
AcDbLine
 10
333.1690048296588
 20
321.8768277114727
 30
0.0
 11
155.9690048296588
 21
321.8768277114727
 31
0.0
1001
PHOENIX7010
1002
{
1070
    62
1070
     7
1070
    41
1040
1.0
1002
}
  0
LINE
  5
816
330
1A
100
AcDbEntity
  8
1
  6
ACAD_ISO04W100
 62
     1
100
AcDbLine
 10
244.5690048296589
 20
323.8768277114727
 30
0.0
 11
244.5690048296587
 21
181.8768277114727
 31
0.0
1001
PHOENIX7010
1002
{
1070
    62
1070
     1
1070
    41
1040
1.0
1002
}
  0
LINE
  5
817
102
{ACAD_REACTORS
330
A24
102
}
330
1A
100
AcDbEntity
  8
1
  6
Continuous
 62
     7
100
AcDbLine
 10
336.6690048296586
 20
187.3768277114728
 30
0.0
 11
336.6690048296588
 21
318.3768277114727
 31
0.0
1001
PHOENIX7010
1002
{
1070
    62
1070
     7
1070
    41
1040
1.0
1002
}
  0
LINE
  5
818
330
1A
100
AcDbEntity
  8
1
  6
ACAD_ISO04W100
 62
     1
100
AcDbLine
 10
338.6690048296587
 20
252.8768277114727
 30
0.0
 11
150.4690048296588
 21
252.8768277114727
 31
0.0
1001
PHOENIX7010
1002
{
1070
    62
1070
     1
1070
    41
1040
1.0
1002
}
  0
LINE
  5
819
330
1A
100
AcDbEntity
  8
1
  6
Continuous
 62
     7
100
AcDbLine
 10
163.6217165589933
 20
319.8768277114727
 30
0.0
 11
155.9690048296588
 21
319.8768277114727
 31
0.0
1001
PHOENIX7010
1002
{
1070
    62
1070
     7
1070
    41
1040
1.0
1002
}
  0
LINE
  5
81A
330
1A
100
AcDbEntity
  8
1
  6
Continuous
 62
     7
100
AcDbLine
 10
156.2690048296589
 20
311.8768277114727
 30
0.0
 11
154.4690048296588
 21
311.8768277114727
 31
0.0
1001
PHOENIX7010
1002
{
1070
    62
1070
     7
1070
    41
1040
1.0
1002
}
  0
ARC
  5
81B
330
1A
100
AcDbEntity
  8
1
  6
Continuous
 62
     7
100
AcDbCircle
 10
155.9690048296588
 20
318.3768277114727
 30
0.0
 40
1.5
100
AcDbArc
 50
90.0
 51
180.0
1001
PHOENIX7010
1002
{
1070
    62
1070
     7
1070
    41
1040
1.0
1002
}
  0
LINE
  5
81C
330
1A
100
AcDbEntity
  8
1
  6
Continuous
 62
     7
100
AcDbLine
 10
154.4690048296588
 20
318.3768277114727
 30
0.0
 11
154.4690048296588
 21
311.8768277114727
 31
0.0
1001
PHOENIX7010
1002
{
1070
    62
1070
     7
1070
    41
1040
1.0
1002
}
  0
LINE
  5
81D
330
1A
100
AcDbEntity
  8
1
  6
Continuous
 62
     7
100
AcDbLine
 10
154.4690048296588
 20
310.8768277114728
 30
0.0
 11
154.4690048296588
 21
293.3241159821384
 31
0.0
1001
PHOENIX7010
1002
{
1070
    62
1070
     7
1070
    41
1040
1.0
1002
}
  0
LINE
  5
81E
330
1A
100
AcDbEntity
  8
1
  6
Continuous
 62
     7
100
AcDbLine
 10
156.0690048296588
 20
216.5768277114727
 30
0.0
 11
156.0690048296588
 21
289.1768277114728
 31
0.0
1001
PHOENIX7010
1002
{
1070
    62
1070
     7
1070
    41
1040
1.0
1002
}
  0
LINE
  5
81F
330
1A
100
AcDbEntity
  8
1
  6
ACAD_ISO04W100
 62
     1
100
AcDbLine
 10
321.3690048296588
 20
320.0768277114728
 30
0.0
 11
167.7690048296588
 21
320.0768277114728
 31
0.0
1001
PHOENIX7010
1002
{
1070
    62
1070
     1
1070
    41
1040
1.0
1002
}
  0
LINE
  5
820
330
1A
100
AcDbEntity
  8
1
  6
ACAD_ISO04W100
 62
     1
100
AcDbLine
 10
164.2690048296588
 20
316.5768277114728
 30
0.0
 11
164.2690048296588
 21
296.1768277114728
 31
0.0
1001
PHOENIX7010
1002
{
1070
    62
1070
     1
1070
    41
1040
1.0
1002
}
  0
ARC
  5
821
330
1A
100
AcDbEntity
  8
1
  6
ACAD_ISO04W100
 62
     1
100
AcDbCircle
 10
167.7690048296588
 20
316.5768277114728
 30
0.0
 40
3.5
100
AcDbArc
 50
90.0
 51
180.0
1001
PHOENIX7010
1002
{
1070
    62
1070
     1
1070
    41
1040
1.0
1002
}
  0
LINE
  5
822
330
1A
100
AcDbEntity
  8
1
  6
Continuous
 62
     7
100
AcDbLine
 10
321.3690048296588
 20
318.2768277114727
 30
0.0
 11
167.7690048296588
 21
318.2768277114727
 31
0.0
1001
PHOENIX7010
1002
{
1070
    62
1070
     7
1070
    41
1040
1.0
1002
}
  0
LINE
  5
823
330
1A
100
AcDbEntity
  8
1
  6
Continuous
 62
     7
100
AcDbLine
 10
166.0690048296588
 20
316.5768277114728
 30
0.0
 11
166.0690048296588
 21
296.1768277114728
 31
0.0
1001
PHOENIX7010
1002
{
1070
    62
1070
     7
1070
    41
1040
1.0
1002
}
  0
ARC
  5
824
330
1A
100
AcDbEntity
  8
1
  6
Continuous
 62
     7
100
AcDbCircle
 10
167.7690048296588
 20
316.5768277114728
 30
0.0
 40
5.299999999999947
100
AcDbArc
 50
141.490710875565
 51
180.0
1001
PHOENIX7010
1002
{
1070
    62
1070
     7
1070
    41
1040
1.0
1002
}
  0
ARC
  5
825
330
1A
100
AcDbEntity
  8
1
  6
Continuous
 62
     7
100
AcDbCircle
 10
167.7690048296588
 20
316.5768277114728
 30
0.0
 40
1.699999999999931
100
AcDbArc
 50
90.0
 51
180.0
1001
PHOENIX7010
1002
{
1070
    62
1070
     7
1070
    41
1040
1.0
1002
}
  0
ARC
  5
826
330
1A
100
AcDbEntity
  8
1
  6
Continuous
 62
     7
100
AcDbCircle
 10
155.9690048296588
 20
318.3768277114727
 30
0.0
 40
3.5
100
AcDbArc
 50
90.0
 51
180.0
1001
PHOENIX7010
1002
{
1070
    62
1070
     7
1070
    41
1040
1.0
1002
}
  0
LINE
  5
827
330
1A
100
AcDbEntity
  8
1
  6
Continuous
 62
     7
100
AcDbLine
 10
159.6690048296589
 20
311.8768277114727
 30
0.0
 11
159.6690048296589
 21
310.8768277114728
 31
0.0
1001
PHOENIX7010
1002
{
1070
    62
1070
     7
1070
    41
1040
1.0
1002
}
  0
LINE
  5
828
330
1A
100
AcDbEntity
  8
1
  6
Continuous
 62
     7
100
AcDbLine
 10
162.4690048296588
 20
314.6768277114728
 30
0.0
 11
159.6690048296589
 21
311.8768277114727
 31
0.0
1001
PHOENIX7010
1002
{
1070
    62
1070
     7
1070
    41
1040
1.0
1002
}
  0
LINE
  5
829
330
1A
100
AcDbEntity
  8
1
  6
Continuous
 62
     7
100
AcDbLine
 10
162.4690048296588
 20
316.5768277114728
 30
0.0
 11
162.4690048296588
 21
311.8768277114727
 31
0.0
1001
PHOENIX7010
1002
{
1070
    62
1070
     7
1070
    41
1040
1.0
1002
}
  0
LINE
  5
82A
330
1A
100
AcDbEntity
  8
1
  6
Continuous
 62
     7
100
AcDbLine
 10
162.4690048296588
 20
310.8768277114728
 30
0.0
 11
162.4690048296588
 21
296.1768277114728
 31
0.0
1001
PHOENIX7010
1002
{
1070
    62
1070
     7
1070
    41
1040
1.0
1002
}
  0
LINE
  5
82B
330
1A
100
AcDbEntity
  8
1
  6
Continuous
 62
     7
100
AcDbLine
 10
160.7690048296588
 20
294.4768277114728
 30
0.0
 11
157.7690048296588
 21
294.4768277114728
 31
0.0
1001
PHOENIX7010
1002
{
1070
    62
1070
     7
1070
    41
1040
1.0
1002
}
  0
LINE
  5
82C
330
1A
100
AcDbEntity
  8
1
  6
ACAD_ISO04W100
 62
     1
100
AcDbLine
 10
160.7690048296588
 20
292.6768277114728
 30
0.0
 11
157.7690048296588
 21
292.6768277114728
 31
0.0
1001
PHOENIX7010
1002
{
1070
    62
1070
     1
1070
    41
1040
1.0
1002
}
  0
LINE
  5
82D
330
1A
100
AcDbEntity
  8
1
  6
Continuous
 62
     7
100
AcDbLine
 10
160.7690048296588
 20
290.8768277114729
 30
0.0
 11
157.7690048296588
 21
290.8768277114729
 31
0.0
1001
PHOENIX7010
1002
{
1070
    62
1070
     7
1070
    41
1040
1.0
1002
}
  0
ARC
  5
82E
330
1A
100
AcDbEntity
  8
1
  6
ACAD_ISO04W100
 62
     1
100
AcDbCircle
 10
160.7690048296588
 20
296.1768277114728
 30
0.0
 40
3.5
100
AcDbArc
 50
270.0
 51
0.0
1001
PHOENIX7010
1002
{
1070
    62
1070
     1
1070
    41
1040
1.0
1002
}
  0
LINE
  5
82F
330
1A
100
AcDbEntity
  8
1
  6
ACAD_ISO04W100
 62
     1
100
AcDbLine
 10
154.2690048296588
 20
289.1768277114728
 30
0.0
 11
154.2690048296588
 21
216.5768277114727
 31
0.0
1001
PHOENIX7010
1002
{
1070
    62
1070
     1
1070
    41
1040
1.0
1002
}
  0
ARC
  5
830
330
1A
100
AcDbEntity
  8
1
  6
ACAD_ISO04W100
 62
     1
100
AcDbCircle
 10
157.7690048296588
 20
289.1768277114728
 30
0.0
 40
3.5
100
AcDbArc
 50
90.0
 51
180.0
1001
PHOENIX7010
1002
{
1070
    62
1070
     1
1070
    41
1040
1.0
1002
}
  0
ARC
  5
831
330
1A
100
AcDbEntity
  8
1
  6
Continuous
 62
     7
100
AcDbCircle
 10
157.7690048296588
 20
289.1768277114728
 30
0.0
 40
1.700000000000045
100
AcDbArc
 50
90.0
 51
180.0
1001
PHOENIX7010
1002
{
1070
    62
1070
     7
1070
    41
1040
1.0
1002
}
  0
ARC
  5
832
330
1A
100
AcDbEntity
  8
1
  6
Continuous
 62
     7
100
AcDbCircle
 10
157.7690048296588
 20
289.1768277114728
 30
0.0
 40
5.299999999999954
100
AcDbArc
 50
90.0
 51
128.5092891244332
1001
PHOENIX7010
1002
{
1070
    62
1070
     7
1070
    41
1040
1.0
1002
}
  0
ARC
  5
833
330
1A
100
AcDbEntity
  8
1
  6
Continuous
 62
     7
100
AcDbCircle
 10
160.7690048296588
 20
296.1768277114728
 30
0.0
 40
1.700000000000045
100
AcDbArc
 50
270.0
 51
0.0
1001
PHOENIX7010
1002
{
1070
    62
1070
     7
1070
    41
1040
1.0
1002
}
  0
ARC
  5
834
330
1A
100
AcDbEntity
  8
1
  6
Continuous
 62
     7
100
AcDbCircle
 10
160.7690048296588
 20
296.1768277114728
 30
0.0
 40
5.299999999999954
100
AcDbArc
 50
270.0
 51
0.0
1001
PHOENIX7010
1002
{
1070
    62
1070
     7
1070
    41
1040
1.0
1002
}
  0
LINE
  5
835
330
1A
100
AcDbEntity
  8
1
  6
Continuous
 62
     7
100
AcDbLine
 10
325.5162931003243
 20
319.8768277114727
 30
0.0
 11
333.1690048296588
 21
319.8768277114727
 31
0.0
1001
PHOENIX7010
1002
{
1070
    62
1070
     7
1070
    41
1040
1.0
1002
}
  0
LINE
  5
836
330
1A
100
AcDbEntity
  8
1
  6
Continuous
 62
     7
100
AcDbLine
 10
332.8690048296587
 20
311.8768277114727
 30
0.0
 11
334.6690048296588
 21
311.8768277114727
 31
0.0
1001
PHOENIX7010
1002
{
1070
    62
1070
     7
1070
    41
1040
1.0
1002
}
  0
ARC
  5
837
330
1A
100
AcDbEntity
  8
1
  6
Continuous
 62
     7
100
AcDbCircle
 10
333.1690048296588
 20
318.3768277114727
 30
0.0
 40
1.5
100
AcDbArc
 50
0.0
 51
90.0
1001
PHOENIX7010
1002
{
1070
    62
1070
     7
1070
    41
1040
1.0
1002
}
  0
LINE
  5
838
330
1A
100
AcDbEntity
  8
1
  6
Continuous
 62
     7
100
AcDbLine
 10
334.6690048296588
 20
318.3768277114727
 30
0.0
 11
334.6690048296588
 21
311.8768277114727
 31
0.0
1001
PHOENIX7010
1002
{
1070
    62
1070
     7
1070
    41
1040
1.0
1002
}
  0
LINE
  5
839
330
1A
100
AcDbEntity
  8
1
  6
Continuous
 62
     7
100
AcDbLine
 10
334.6690048296588
 20
310.8768277114728
 30
0.0
 11
334.6690048296588
 21
293.3241159821384
 31
0.0
1001
PHOENIX7010
1002
{
1070
    62
1070
     7
1070
    41
1040
1.0
1002
}
  0
LINE
  5
83A
330
1A
100
AcDbEntity
  8
1
  6
Continuous
 62
     7
100
AcDbLine
 10
332.8690048296587
 20
311.8768277114727
 30
0.0
 11
332.8690048296587
 21
310.8768277114728
 31
0.0
1001
PHOENIX7010
1002
{
1070
    62
1070
     7
1070
    41
1040
1.0
1002
}
  0
LINE
  5
83B
330
1A
100
AcDbEntity
  8
1
  6
ACAD_ISO04W100
 62
     1
100
AcDbLine
 10
324.8690048296588
 20
316.5768277114727
 30
0.0
 11
324.8690048296588
 21
296.1768277114728
 31
0.0
1001
PHOENIX7010
1002
{
1070
    62
1070
     1
1070
    41
1040
1.0
1002
}
  0
ARC
  5
83C
330
1A
100
AcDbEntity
  8
1
  6
ACAD_ISO04W100
 62
     1
100
AcDbCircle
 10
321.3690048296588
 20
316.5768277114727
 30
0.0
 40
3.5
100
AcDbArc
 50
0.0
 51
90.0
1001
PHOENIX7010
1002
{
1070
    62
1070
     1
1070
    41
1040
1.0
1002
}
  0
LINE
  5
83D
330
1A
100
AcDbEntity
  8
1
  6
Continuous
 62
     7
100
AcDbLine
 10
323.0690048296588
 20
316.5768277114727
 30
0.0
 11
323.0690048296588
 21
296.1768277114728
 31
0.0
1001
PHOENIX7010
1002
{
1070
    62
1070
     7
1070
    41
1040
1.0
1002
}
  0
ARC
  5
83E
330
1A
100
AcDbEntity
  8
1
  6
Continuous
 62
     7
100
AcDbCircle
 10
321.3690048296588
 20
316.5768277114727
 30
0.0
 40
5.300000000000017
100
AcDbArc
 50
0.0
 51
38.50928912443591
1001
PHOENIX7010
1002
{
1070
    62
1070
     7
1070
    41
1040
1.0
1002
}
  0
ARC
  5
83F
330
1A
100
AcDbEntity
  8
1
  6
Continuous
 62
     7
100
AcDbCircle
 10
321.3690048296588
 20
316.5768277114727
 30
0.0
 40
1.700000000000045
100
AcDbArc
 50
0.0
 51
90.0
1001
PHOENIX7010
1002
{
1070
    62
1070
     7
1070
    41
1040
1.0
1002
}
  0
ARC
  5
840
330
1A
100
AcDbEntity
  8
1
  6
Continuous
 62
     7
100
AcDbCircle
 10
333.1690048296588
 20
318.3768277114727
 30
0.0
 40
3.5
100
AcDbArc
 50
0.0
 51
90.0
1001
PHOENIX7010
1002
{
1070
    62
1070
     7
1070
    41
1040
1.0
1002
}
  0
LINE
  5
841
330
1A
100
AcDbEntity
  8
1
  6
Continuous
 62
     7
100
AcDbLine
 10
329.4690048296587
 20
311.8768277114727
 30
0.0
 11
329.4690048296587
 21
310.8768277114728
 31
0.0
1001
PHOENIX7010
1002
{
1070
    62
1070
     7
1070
    41
1040
1.0
1002
}
  0
LINE
  5
842
330
1A
100
AcDbEntity
  8
1
  6
Continuous
 62
     7
100
AcDbLine
 10
326.6690048296588
 20
314.6768277114727
 30
0.0
 11
329.4690048296587
 21
311.8768277114727
 31
0.0
1001
PHOENIX7010
1002
{
1070
    62
1070
     7
1070
    41
1040
1.0
1002
}
  0
LINE
  5
843
330
1A
100
AcDbEntity
  8
1
  6
Continuous
 62
     7
100
AcDbLine
 10
326.6690048296588
 20
310.8768277114728
 30
0.0
 11
326.6690048296588
 21
296.1768277114728
 31
0.0
1001
PHOENIX7010
1002
{
1070
    62
1070
     7
1070
    41
1040
1.0
1002
}
  0
LINE
  5
844
330
1A
100
AcDbEntity
  8
1
  6
Continuous
 62
     7
100
AcDbLine
 10
328.3690048296588
 20
294.4768277114728
 30
0.0
 11
331.3690048296588
 21
294.4768277114728
 31
0.0
1001
PHOENIX7010
1002
{
1070
    62
1070
     7
1070
    41
1040
1.0
1002
}
  0
LINE
  5
845
330
1A
100
AcDbEntity
  8
1
  6
ACAD_ISO04W100
 62
     1
100
AcDbLine
 10
328.3690048296588
 20
292.6768277114728
 30
0.0
 11
331.3690048296588
 21
292.6768277114728
 31
0.0
1001
PHOENIX7010
1002
{
1070
    62
1070
     1
1070
    41
1040
1.0
1002
}
  0
LINE
  5
846
102
{ACAD_REACTORS
330
A15
102
}
330
1A
100
AcDbEntity
  8
1
  6
Continuous
 62
     7
100
AcDbLine
 10
328.3690048296588
 20
290.8768277114729
 30
0.0
 11
331.3690048296588
 21
290.8768277114729
 31
0.0
1001
PHOENIX7010
1002
{
1070
    62
1070
     7
1070
    41
1040
1.0
1002
}
  0
ARC
  5
847
330
1A
100
AcDbEntity
  8
1
  6
ACAD_ISO04W100
 62
     1
100
AcDbCircle
 10
328.3690048296588
 20
296.1768277114728
 30
0.0
 40
3.5
100
AcDbArc
 50
180.0
 51
270.0
1001
PHOENIX7010
1002
{
1070
    62
1070
     1
1070
    41
1040
1.0
1002
}
  0
ARC
  5
848
330
1A
100
AcDbEntity
  8
1
  6
ACAD_ISO04W100
 62
     1
100
AcDbCircle
 10
331.3690048296588
 20
289.1768277114728
 30
0.0
 40
3.5
100
AcDbArc
 50
0.0
 51
90.0
1001
PHOENIX7010
1002
{
1070
    62
1070
     1
1070
    41
1040
1.0
1002
}
  0
ARC
  5
849
330
1A
100
AcDbEntity
  8
1
  6
Continuous
 62
     7
100
AcDbCircle
 10
331.3690048296588
 20
289.1768277114728
 30
0.0
 40
1.700000000000045
100
AcDbArc
 50
0.0
 51
90.0
1001
PHOENIX7010
1002
{
1070
    62
1070
     7
1070
    41
1040
1.0
1002
}
  0
ARC
  5
84A
330
1A
100
AcDbEntity
  8
1
  6
Continuous
 62
     7
100
AcDbCircle
 10
331.3690048296588
 20
289.1768277114728
 30
0.0
 40
5.299999999999954
100
AcDbArc
 50
51.49071087556553
 51
90.0
1001
PHOENIX7010
1002
{
1070
    62
1070
     7
1070
    41
1040
1.0
1002
}
  0
ARC
  5
84B
330
1A
100
AcDbEntity
  8
1
  6
Continuous
 62
     7
100
AcDbCircle
 10
328.3690048296588
 20
296.1768277114728
 30
0.0
 40
1.700000000000045
100
AcDbArc
 50
180.0
 51
270.0
1001
PHOENIX7010
1002
{
1070
    62
1070
     7
1070
    41
1040
1.0
1002
}
  0
ARC
  5
84C
330
1A
100
AcDbEntity
  8
1
  6
Continuous
 62
     7
100
AcDbCircle
 10
328.3690048296588
 20
296.1768277114728
 30
0.0
 40
5.299999999999954
100
AcDbArc
 50
180.0
 51
270.0
1001
PHOENIX7010
1002
{
1070
    62
1070
     7
1070
    41
1040
1.0
1002
}
  0
LINE
  5
84D
102
{ACAD_REACTORS
330
A50
102
}
330
1A
100
AcDbEntity
  8
1
  6
ACAD_ISO04W100
 62
     1
100
AcDbLine
 10
176.4190048296589
 20
313.3768277114727
 30
0.0
 11
164.0690048296588
 21
313.3768277114727
 31
0.0
1001
PHOENIX7010
1002
{
1070
    62
1070
     1
1070
    41
1040
1.0
1002
}
  0
LINE
  5
84E
102
{ACAD_REACTORS
330
A5D
102
}
330
1A
100
AcDbEntity
  8
1
  6
ACAD_ISO04W100
 62
     1
100
AcDbLine
 10
170.9190048296589
 20
318.8768277114728
 30
0.0
 11
170.9190048296589
 21
307.8768277114726
 31
0.0
1001
PHOENIX7010
1002
{
1070
    62
1070
     1
1070
    41
1040
1.0
1002
}
  0
CIRCLE
  5
84F
330
1A
100
AcDbEntity
  8
1
  6
Continuous
 62
     7
100
AcDbCircle
 10
170.9190048296589
 20
313.3768277114727
 30
0.0
 40
2.1
1001
PHOENIX7010
1002
{
1070
    62
1070
     7
1070
    41
1040
1.0
1002
}
  0
LINE
  5
850
330
1A
100
AcDbEntity
  8
1
  6
Continuous
 62
     7
100
AcDbLine
 10
333.0690048296588
 20
216.5768277114727
 30
0.0
 11
333.0690048296588
 21
289.1768277114728
 31
0.0
1001
PHOENIX7010
1002
{
1070
    62
1070
     7
1070
    41
1040
1.0
1002
}
  0
LINE
  5
851
330
1A
100
AcDbEntity
  8
1
  6
ACAD_ISO04W100
 62
     1
100
AcDbLine
 10
334.8690048296588
 20
289.1768277114728
 30
0.0
 11
334.8690048296587
 21
216.5768277114727
 31
0.0
1001
PHOENIX7010
1002
{
1070
    62
1070
     1
1070
    41
1040
1.0
1002
}
  0
DIMENSION
  5
852
102
{ACAD_REACTORS
330
A17
102
}
330
1A
100
AcDbEntity
  8
1
  6
Continuous
 62
     7
100
AcDbDimension
  2
*D5
 10
351.6690048296592
 20
321.8768277114727
 30
0.0
 11
351.6690048296592
 21
307.7044555771981
 31
0.0
 70
   160
 71
     5
 42
-1.0
  3
PHOENIX
100
AcDbAlignedDimension
 13
331.3690048296588
 23
290.8768277114729
 33
0.0
 14
333.1690048296588
 24
321.8768277114727
 34
0.0
 50
90.0
100
AcDbRotatedDimension
1001
ACAD
1000
DSTYLE
1002
{
1070
   140
1040
7.0
1070
   271
1070
     9
1070
   147
1040
1.25
1002
}
  0
DIMENSION
  5
86C
330
1A
100
AcDbEntity
  8
1
  6
Continuous
 62
     7
100
AcDbDimension
  2
*D6
 10
156.0690048296588
 20
226.865520172628
 30
0.0
 11
136.2061204472633
 21
226.865520172628
 31
0.0
 70
   160
 71
     5
 42
-1.0
  3
PHOENIX
100
AcDbAlignedDimension
 13
152.4690048296588
 23
234.4341887826502
 33
0.0
 14
156.0690048296588
 24
234.4341887826502
 34
0.0
100
AcDbRotatedDimension
1001
ACAD
1000
DSTYLE
1002
{
1070
   140
1040
7.0
1070
   271
1070
     9
1070
   147
1040
1.25
1002
}
  0
CIRCLE
  5
88A
102
{ACAD_REACTORS
330
DA2
102
}
330
1A
100
AcDbEntity
  8
1
  6
Continuous
 62
     5
100
AcDbCircle
 10
137.4690048296591
 20
252.8768277114727
 30
0.0
 40
7.0
1001
PHOENIX7010
1002
{
1070
    62
1070
     5
1070
    41
1040
1.0
1002
}
  0
TEXT
  5
88B
102
{ACAD_REACTORS
330
DA2
102
}
330
1A
100
AcDbEntity
  8
1
  6
Continuous
 62
     5
100
AcDbText
 10
133.3762439283208
 20
249.4381374450297
 30
0.0
 40
7.0
  1
3
 41
1.574999999999999
100
AcDbText
1001
PHOENIX7010
1002
{
1070
    62
1070
     5
1070
    41
1040
1.0
1002
}
  0
CIRCLE
  5
88E
102
{ACAD_REACTORS
330
DA3
102
}
330
1A
100
AcDbEntity
  8
1
  6
Continuous
 62
     5
100
AcDbCircle
 10
244.5690048296589
 20
336.8768277114727
 30
0.0
 40
7.0
1001
PHOENIX7010
1002
{
1070
    62
1070
     5
1070
    41
1040
1.0
1002
}
  0
TEXT
  5
88F
102
{ACAD_REACTORS
330
DA3
102
}
330
1A
100
AcDbEntity
  8
1
  6
Continuous
 62
     5
100
AcDbText
 10
240.2262439283206
 20
333.4381374450297
 30
0.0
 40
7.0
  1
1
 41
1.574999999999999
100
AcDbText
1001
PHOENIX7010
1002
{
1070
    62
1070
     5
1070
    41
1040
1.0
1002
}
  0
CIRCLE
  5
892
102
{ACAD_REACTORS
330
DA4
102
}
330
1A
100
AcDbEntity
  8
1
  6
Continuous
 62
     5
100
AcDbCircle
 10
351.6690048296585
 20
252.8768277114725
 30
0.0
 40
7.0
1001
PHOENIX7010
1002
{
1070
    62
1070
     5
1070
    41
1040
1.0
1002
}
  0
TEXT
  5
893
102
{ACAD_REACTORS
330
DA4
102
}
330
1A
100
AcDbEntity
  8
1
  6
Continuous
 62
     5
100
AcDbText
 10
347.5762439283203
 20
249.4381374450295
 30
0.0
 40
7.0
  1
4
 41
1.574999999999999
100
AcDbText
1001
PHOENIX7010
1002
{
1070
    62
1070
     5
1070
    41
1040
1.0
1002
}
  0
ARC
  5
894
330
1A
100
AcDbEntity
  8
1
  6
Continuous
 62
     7
100
AcDbCircle
 10
328.3690048296588
 20
209.5768277114727
 30
0.0
 40
5.299999999999954
100
AcDbArc
 50
90.0
 51
180.0
1001
PHOENIX7010
1002
{
1070
    62
1070
     7
1070
    41
1040
1.0
1002
}
  0
ARC
  5
895
330
1A
100
AcDbEntity
  8
1
  6
Continuous
 62
     7
100
AcDbCircle
 10
328.3690048296588
 20
209.5768277114727
 30
0.0
 40
1.700000000000045
100
AcDbArc
 50
90.0
 51
180.0
1001
PHOENIX7010
1002
{
1070
    62
1070
     7
1070
    41
1040
1.0
1002
}
  0
ARC
  5
896
330
1A
100
AcDbEntity
  8
1
  6
Continuous
 62
     7
100
AcDbCircle
 10
331.3690048296588
 20
216.5768277114727
 30
0.0
 40
5.299999999999954
100
AcDbArc
 50
270.0
 51
308.5092891244334
1001
PHOENIX7010
1002
{
1070
    62
1070
     7
1070
    41
1040
1.0
1002
}
  0
ARC
  5
897
330
1A
100
AcDbEntity
  8
1
  6
Continuous
 62
     7
100
AcDbCircle
 10
331.3690048296588
 20
216.5768277114727
 30
0.0
 40
1.700000000000045
100
AcDbArc
 50
270.0
 51
0.0
1001
PHOENIX7010
1002
{
1070
    62
1070
     7
1070
    41
1040
1.0
1002
}
  0
ARC
  5
898
330
1A
100
AcDbEntity
  8
1
  6
ACAD_ISO04W100
 62
     1
100
AcDbCircle
 10
331.3690048296588
 20
216.5768277114727
 30
0.0
 40
3.5
100
AcDbArc
 50
270.0
 51
0.0
1001
PHOENIX7010
1002
{
1070
    62
1070
     1
1070
    41
1040
1.0
1002
}
  0
ARC
  5
899
330
1A
100
AcDbEntity
  8
1
  6
ACAD_ISO04W100
 62
     1
100
AcDbCircle
 10
328.3690048296588
 20
209.5768277114727
 30
0.0
 40
3.5
100
AcDbArc
 50
90.0
 51
180.0
1001
PHOENIX7010
1002
{
1070
    62
1070
     1
1070
    41
1040
1.0
1002
}
  0
LINE
  5
89A
330
1A
100
AcDbEntity
  8
1
  6
Continuous
 62
     7
100
AcDbLine
 10
328.3690048296588
 20
214.8768277114727
 30
0.0
 11
331.3690048296588
 21
214.8768277114727
 31
0.0
1001
PHOENIX7010
1002
{
1070
    62
1070
     7
1070
    41
1040
1.0
1002
}
  0
LINE
  5
89B
330
1A
100
AcDbEntity
  8
1
  6
ACAD_ISO04W100
 62
     1
100
AcDbLine
 10
328.3690048296588
 20
213.0768277114727
 30
0.0
 11
331.3690048296588
 21
213.0768277114727
 31
0.0
1001
PHOENIX7010
1002
{
1070
    62
1070
     1
1070
    41
1040
1.0
1002
}
  0
LINE
  5
89C
330
1A
100
AcDbEntity
  8
1
  6
Continuous
 62
     7
100
AcDbLine
 10
328.3690048296588
 20
211.2768277114728
 30
0.0
 11
331.3690048296588
 21
211.2768277114728
 31
0.0
1001
PHOENIX7010
1002
{
1070
    62
1070
     7
1070
    41
1040
1.0
1002
}
  0
LINE
  5
89D
330
1A
100
AcDbEntity
  8
1
  6
Continuous
 62
     7
100
AcDbLine
 10
326.6690048296588
 20
194.8768277114728
 30
0.0
 11
326.6690048296588
 21
209.5768277114727
 31
0.0
1001
PHOENIX7010
1002
{
1070
    62
1070
     7
1070
    41
1040
1.0
1002
}
  0
LINE
  5
89E
330
1A
100
AcDbEntity
  8
1
  6
Continuous
 62
     7
100
AcDbLine
 10
326.6690048296588
 20
191.0768277114728
 30
0.0
 11
329.4690048296587
 21
193.8768277114728
 31
0.0
1001
PHOENIX7010
1002
{
1070
    62
1070
     7
1070
    41
1040
1.0
1002
}
  0
LINE
  5
89F
330
1A
100
AcDbEntity
  8
1
  6
Continuous
 62
     7
100
AcDbLine
 10
329.4690048296587
 20
193.8768277114728
 30
0.0
 11
329.4690048296587
 21
194.8768277114728
 31
0.0
1001
PHOENIX7010
1002
{
1070
    62
1070
     7
1070
    41
1040
1.0
1002
}
  0
ARC
  5
8A0
102
{ACAD_REACTORS
330
A40
102
}
330
1A
100
AcDbEntity
  8
1
  6
Continuous
 62
     7
100
AcDbCircle
 10
333.1690048296588
 20
187.3768277114728
 30
0.0
 40
3.5
100
AcDbArc
 50
270.0
 51
0.0
1001
PHOENIX7010
1002
{
1070
    62
1070
     7
1070
    41
1040
1.0
1002
}
  0
ARC
  5
8A1
102
{ACAD_REACTORS
330
A3F
102
}
330
1A
100
AcDbEntity
  8
1
  6
Continuous
 62
     7
100
AcDbCircle
 10
321.3690048296588
 20
189.1768277114728
 30
0.0
 40
1.699999999999988
100
AcDbArc
 50
270.0
 51
0.0
1001
PHOENIX7010
1002
{
1070
    62
1070
     7
1070
    41
1040
1.0
1002
}
  0
ARC
  5
8A2
330
1A
100
AcDbEntity
  8
1
  6
Continuous
 62
     7
100
AcDbCircle
 10
321.3690048296588
 20
189.1768277114728
 30
0.0
 40
5.299999999999982
100
AcDbArc
 50
321.4907108755646
 51
0.0
1001
PHOENIX7010
1002
{
1070
    62
1070
     7
1070
    41
1040
1.0
1002
}
  0
LINE
  5
8A3
330
1A
100
AcDbEntity
  8
1
  6
Continuous
 62
     7
100
AcDbLine
 10
323.0690048296588
 20
189.1768277114728
 30
0.0
 11
323.0690048296588
 21
209.5768277114727
 31
0.0
1001
PHOENIX7010
1002
{
1070
    62
1070
     7
1070
    41
1040
1.0
1002
}
  0
ARC
  5
8A4
330
1A
100
AcDbEntity
  8
1
  6
ACAD_ISO04W100
 62
     1
100
AcDbCircle
 10
321.3690048296588
 20
189.1768277114728
 30
0.0
 40
3.5
100
AcDbArc
 50
270.0
 51
0.0
1001
PHOENIX7010
1002
{
1070
    62
1070
     1
1070
    41
1040
1.0
1002
}
  0
LINE
  5
8A5
330
1A
100
AcDbEntity
  8
1
  6
ACAD_ISO04W100
 62
     1
100
AcDbLine
 10
324.8690048296588
 20
189.1768277114728
 30
0.0
 11
324.8690048296588
 21
209.5768277114727
 31
0.0
1001
PHOENIX7010
1002
{
1070
    62
1070
     1
1070
    41
1040
1.0
1002
}
  0
LINE
  5
8A6
330
1A
100
AcDbEntity
  8
1
  6
Continuous
 62
     7
100
AcDbLine
 10
332.8690048296587
 20
193.8768277114728
 30
0.0
 11
332.8690048296587
 21
194.8768277114728
 31
0.0
1001
PHOENIX7010
1002
{
1070
    62
1070
     7
1070
    41
1040
1.0
1002
}
  0
LINE
  5
8A7
330
1A
100
AcDbEntity
  8
1
  6
Continuous
 62
     7
100
AcDbLine
 10
334.6690048296588
 20
194.8768277114728
 30
0.0
 11
334.6690048296588
 21
212.4295394408071
 31
0.0
1001
PHOENIX7010
1002
{
1070
    62
1070
     7
1070
    41
1040
1.0
1002
}
  0
LINE
  5
8A8
330
1A
100
AcDbEntity
  8
1
  6
Continuous
 62
     7
100
AcDbLine
 10
334.6690048296588
 20
187.3768277114728
 30
0.0
 11
334.6690048296588
 21
193.8768277114728
 31
0.0
1001
PHOENIX7010
1002
{
1070
    62
1070
     7
1070
    41
1040
1.0
1002
}
  0
ARC
  5
8A9
330
1A
100
AcDbEntity
  8
1
  6
Continuous
 62
     7
100
AcDbCircle
 10
333.1690048296588
 20
187.3768277114728
 30
0.0
 40
1.5
100
AcDbArc
 50
270.0
 51
0.0
1001
PHOENIX7010
1002
{
1070
    62
1070
     7
1070
    41
1040
1.0
1002
}
  0
LINE
  5
8AA
330
1A
100
AcDbEntity
  8
1
  6
Continuous
 62
     7
100
AcDbLine
 10
332.8690048296587
 20
193.8768277114728
 30
0.0
 11
334.6690048296588
 21
193.8768277114728
 31
0.0
1001
PHOENIX7010
1002
{
1070
    62
1070
     7
1070
    41
1040
1.0
1002
}
  0
LINE
  5
8AB
330
1A
100
AcDbEntity
  8
1
  6
Continuous
 62
     7
100
AcDbLine
 10
325.5162931003243
 20
185.8768277114728
 30
0.0
 11
333.1690048296588
 21
185.8768277114728
 31
0.0
1001
PHOENIX7010
1002
{
1070
    62
1070
     7
1070
    41
1040
1.0
1002
}
  0
ARC
  5
8AC
330
1A
100
AcDbEntity
  8
1
  6
Continuous
 62
     7
100
AcDbCircle
 10
160.7690048296588
 20
209.5768277114727
 30
0.0
 40
5.299999999999954
100
AcDbArc
 50
0.0
 51
90.0
1001
PHOENIX7010
1002
{
1070
    62
1070
     7
1070
    41
1040
1.0
1002
}
  0
ARC
  5
8AD
330
1A
100
AcDbEntity
  8
1
  6
Continuous
 62
     7
100
AcDbCircle
 10
160.7690048296588
 20
209.5768277114727
 30
0.0
 40
1.700000000000045
100
AcDbArc
 50
0.0
 51
90.0
1001
PHOENIX7010
1002
{
1070
    62
1070
     7
1070
    41
1040
1.0
1002
}
  0
ARC
  5
8AE
330
1A
100
AcDbEntity
  8
1
  6
Continuous
 62
     7
100
AcDbCircle
 10
157.7690048296588
 20
216.5768277114727
 30
0.0
 40
5.299999999999954
100
AcDbArc
 50
231.4907108755668
 51
270.0
1001
PHOENIX7010
1002
{
1070
    62
1070
     7
1070
    41
1040
1.0
1002
}
  0
ARC
  5
8AF
330
1A
100
AcDbEntity
  8
1
  6
Continuous
 62
     7
100
AcDbCircle
 10
157.7690048296588
 20
216.5768277114727
 30
0.0
 40
1.700000000000045
100
AcDbArc
 50
180.0
 51
270.0
1001
PHOENIX7010
1002
{
1070
    62
1070
     7
1070
    41
1040
1.0
1002
}
  0
ARC
  5
8B0
330
1A
100
AcDbEntity
  8
1
  6
ACAD_ISO04W100
 62
     1
100
AcDbCircle
 10
157.7690048296588
 20
216.5768277114727
 30
0.0
 40
3.5
100
AcDbArc
 50
180.0
 51
270.0
1001
PHOENIX7010
1002
{
1070
    62
1070
     1
1070
    41
1040
1.0
1002
}
  0
ARC
  5
8B1
330
1A
100
AcDbEntity
  8
1
  6
ACAD_ISO04W100
 62
     1
100
AcDbCircle
 10
160.7690048296588
 20
209.5768277114727
 30
0.0
 40
3.5
100
AcDbArc
 50
0.0
 51
90.0
1001
PHOENIX7010
1002
{
1070
    62
1070
     1
1070
    41
1040
1.0
1002
}
  0
LINE
  5
8B2
330
1A
100
AcDbEntity
  8
1
  6
Continuous
 62
     7
100
AcDbLine
 10
160.7690048296588
 20
214.8768277114727
 30
0.0
 11
157.7690048296588
 21
214.8768277114727
 31
0.0
1001
PHOENIX7010
1002
{
1070
    62
1070
     7
1070
    41
1040
1.0
1002
}
  0
LINE
  5
8B3
330
1A
100
AcDbEntity
  8
1
  6
ACAD_ISO04W100
 62
     1
100
AcDbLine
 10
160.7690048296588
 20
213.0768277114727
 30
0.0
 11
157.7690048296588
 21
213.0768277114727
 31
0.0
1001
PHOENIX7010
1002
{
1070
    62
1070
     1
1070
    41
1040
1.0
1002
}
  0
LINE
  5
8B4
330
1A
100
AcDbEntity
  8
1
  6
Continuous
 62
     7
100
AcDbLine
 10
160.7690048296588
 20
211.2768277114728
 30
0.0
 11
157.7690048296588
 21
211.2768277114728
 31
0.0
1001
PHOENIX7010
1002
{
1070
    62
1070
     7
1070
    41
1040
1.0
1002
}
  0
LINE
  5
8B5
330
1A
100
AcDbEntity
  8
1
  6
Continuous
 62
     7
100
AcDbLine
 10
162.4690048296588
 20
194.8768277114727
 30
0.0
 11
162.4690048296588
 21
209.5768277114727
 31
0.0
1001
PHOENIX7010
1002
{
1070
    62
1070
     7
1070
    41
1040
1.0
1002
}
  0
LINE
  5
8B6
330
1A
100
AcDbEntity
  8
1
  6
Continuous
 62
     7
100
AcDbLine
 10
162.4690048296588
 20
191.0768277114727
 30
0.0
 11
159.6690048296589
 21
193.8768277114727
 31
0.0
1001
PHOENIX7010
1002
{
1070
    62
1070
     7
1070
    41
1040
1.0
1002
}
  0
LINE
  5
8B7
330
1A
100
AcDbEntity
  8
1
  6
Continuous
 62
     7
100
AcDbLine
 10
159.6690048296589
 20
193.8768277114727
 30
0.0
 11
159.6690048296589
 21
194.8768277114727
 31
0.0
1001
PHOENIX7010
1002
{
1070
    62
1070
     7
1070
    41
1040
1.0
1002
}
  0
ARC
  5
8B8
330
1A
100
AcDbEntity
  8
1
  6
Continuous
 62
     7
100
AcDbCircle
 10
155.9690048296588
 20
187.3768277114727
 30
0.0
 40
3.5
100
AcDbArc
 50
180.0
 51
270.0
1001
PHOENIX7010
1002
{
1070
    62
1070
     7
1070
    41
1040
1.0
1002
}
  0
ARC
  5
8B9
330
1A
100
AcDbEntity
  8
1
  6
Continuous
 62
     7
100
AcDbCircle
 10
167.7690048296588
 20
189.1768277114727
 30
0.0
 40
1.699999999999988
100
AcDbArc
 50
180.0
 51
270.0
1001
PHOENIX7010
1002
{
1070
    62
1070
     7
1070
    41
1040
1.0
1002
}
  0
ARC
  5
8BA
330
1A
100
AcDbEntity
  8
1
  6
Continuous
 62
     7
100
AcDbCircle
 10
167.7690048296588
 20
189.1768277114727
 30
0.0
 40
5.299999999999982
100
AcDbArc
 50
180.0
 51
218.5092891244354
1001
PHOENIX7010
1002
{
1070
    62
1070
     7
1070
    41
1040
1.0
1002
}
  0
LINE
  5
8BB
330
1A
100
AcDbEntity
  8
1
  6
Continuous
 62
     7
100
AcDbLine
 10
166.0690048296588
 20
189.1768277114727
 30
0.0
 11
166.0690048296588
 21
209.5768277114727
 31
0.0
1001
PHOENIX7010
1002
{
1070
    62
1070
     7
1070
    41
1040
1.0
1002
}
  0
LINE
  5
8BC
330
1A
100
AcDbEntity
  8
1
  6
Continuous
 62
     7
100
AcDbLine
 10
321.3690048296588
 20
187.4768277114727
 30
0.0
 11
167.7690048296588
 21
187.4768277114727
 31
0.0
1001
PHOENIX7010
1002
{
1070
    62
1070
     7
1070
    41
1040
1.0
1002
}
  0
ARC
  5
8BD
330
1A
100
AcDbEntity
  8
1
  6
ACAD_ISO04W100
 62
     1
100
AcDbCircle
 10
167.7690048296588
 20
189.1768277114727
 30
0.0
 40
3.5
100
AcDbArc
 50
180.0
 51
270.0
1001
PHOENIX7010
1002
{
1070
    62
1070
     1
1070
    41
1040
1.0
1002
}
  0
LINE
  5
8BE
330
1A
100
AcDbEntity
  8
1
  6
ACAD_ISO04W100
 62
     1
100
AcDbLine
 10
164.2690048296588
 20
189.1768277114727
 30
0.0
 11
164.2690048296588
 21
209.5768277114727
 31
0.0
1001
PHOENIX7010
1002
{
1070
    62
1070
     1
1070
    41
1040
1.0
1002
}
  0
LINE
  5
8BF
330
1A
100
AcDbEntity
  8
1
  6
ACAD_ISO04W100
 62
     1
100
AcDbLine
 10
321.3690048296588
 20
185.6768277114727
 30
0.0
 11
167.7690048296588
 21
185.6768277114727
 31
0.0
1001
PHOENIX7010
1002
{
1070
    62
1070
     1
1070
    41
1040
1.0
1002
}
  0
LINE
  5
8C0
330
1A
100
AcDbEntity
  8
1
  6
Continuous
 62
     7
100
AcDbLine
 10
156.2690048296589
 20
193.8768277114727
 30
0.0
 11
156.2690048296589
 21
194.8768277114727
 31
0.0
1001
PHOENIX7010
1002
{
1070
    62
1070
     7
1070
    41
1040
1.0
1002
}
  0
LINE
  5
8C1
330
1A
100
AcDbEntity
  8
1
  6
Continuous
 62
     7
100
AcDbLine
 10
154.4690048296588
 20
194.8768277114727
 30
0.0
 11
154.4690048296588
 21
212.4295394408071
 31
0.0
1001
PHOENIX7010
1002
{
1070
    62
1070
     7
1070
    41
1040
1.0
1002
}
  0
LINE
  5
8C2
330
1A
100
AcDbEntity
  8
1
  6
Continuous
 62
     7
100
AcDbLine
 10
154.4690048296588
 20
187.3768277114727
 30
0.0
 11
154.4690048296588
 21
193.8768277114727
 31
0.0
1001
PHOENIX7010
1002
{
1070
    62
1070
     7
1070
    41
1040
1.0
1002
}
  0
ARC
  5
8C3
330
1A
100
AcDbEntity
  8
1
  6
Continuous
 62
     7
100
AcDbCircle
 10
155.9690048296588
 20
187.3768277114727
 30
0.0
 40
1.5
100
AcDbArc
 50
180.0
 51
270.0
1001
PHOENIX7010
1002
{
1070
    62
1070
     7
1070
    41
1040
1.0
1002
}
  0
LINE
  5
8C4
330
1A
100
AcDbEntity
  8
1
  6
Continuous
 62
     7
100
AcDbLine
 10
156.2690048296589
 20
193.8768277114727
 30
0.0
 11
154.4690048296588
 21
193.8768277114727
 31
0.0
1001
PHOENIX7010
1002
{
1070
    62
1070
     7
1070
    41
1040
1.0
1002
}
  0
LINE
  5
8C5
330
1A
100
AcDbEntity
  8
1
  6
Continuous
 62
     7
100
AcDbLine
 10
163.6217165589933
 20
185.8768277114727
 30
0.0
 11
155.9690048296588
 21
185.8768277114727
 31
0.0
1001
PHOENIX7010
1002
{
1070
    62
1070
     7
1070
    41
1040
1.0
1002
}
  0
LINE
  5
8C6
102
{ACAD_REACTORS
330
A31
102
}
330
1A
100
AcDbEntity
  8
1
  6
Continuous
 62
     7
100
AcDbLine
 10
333.1690048296588
 20
183.8768277114727
 30
0.0
 11
155.9690048296588
 21
183.8768277114727
 31
0.0
1001
PHOENIX7010
1002
{
1070
    62
1070
     7
1070
    41
1040
1.0
1002
}
  0
DIMENSION
  5
8C7
102
{ACAD_REACTORS
330
A25
102
}
330
1A
100
AcDbEntity
  8
1
  6
Continuous
 62
     7
100
AcDbDimension
  2
*D7
 10
336.6690048296586
 20
144.8768277114723
 30
0.0
 11
244.5690048296586
 21
144.8768277114723
 31
0.0
 70
   160
  1
L
 71
     5
 42
-1.0
  3
PHOENIX
100
AcDbAlignedDimension
 13
152.4690048296588
 23
187.3768277114727
 33
0.0
 14
336.6690048296586
 24
187.3768277114728
 34
0.0
100
AcDbRotatedDimension
1001
ACAD
1000
DSTYLE
1002
{
1070
   140
1040
7.0
1070
   271
1070
     6
1070
   147
1040
1.25
1070
   272
1070
     6
1002
}
  0
CIRCLE
  5
8E3
102
{ACAD_REACTORS
330
DA5
102
}
330
1A
100
AcDbEntity
  8
1
  6
Continuous
 62
     5
100
AcDbCircle
 10
244.5690048296585
 20
168.8768277114729
 30
0.0
 40
7.0
1001
PHOENIX7010
1002
{
1070
    62
1070
     5
1070
    41
1040
1.0
1002
}
  0
TEXT
  5
8E4
102
{ACAD_REACTORS
330
DA5
102
}
330
1A
100
AcDbEntity
  8
1
  6
Continuous
 62
     5
100
AcDbText
 10
240.4762439283202
 20
165.4381374450299
 30
0.0
 40
7.0
  1
2
 41
1.574999999999999
100
AcDbText
1001
PHOENIX7010
1002
{
1070
    62
1070
     5
1070
    41
1040
1.0
1002
}
  0
DIMENSION
  5
8E5
330
1A
100
AcDbEntity
  8
1
  6
Continuous
 62
     7
100
AcDbDimension
  2
*D8
 10
267.8798496359494
 20
187.4768277114727
 30
0.0
 11
267.8798496359494
 21
168.8768277114723
 31
0.0
 70
   160
 71
     5
 42
-1.0
  3
PHOENIX
100
AcDbAlignedDimension
 13
291.1780477111171
 23
183.8768277114727
 33
0.0
 14
291.1780477111171
 24
187.4768277114727
 34
0.0
 50
90.0
100
AcDbRotatedDimension
1001
ACAD
1000
DSTYLE
1002
{
1070
   140
1040
7.0
1070
   271
1070
     9
1070
   147
1040
1.25
1002
}
  0
DIMENSION
  5
901
102
{ACAD_REACTORS
330
A33
102
}
330
1A
100
AcDbEntity
  8
1
  6
Continuous
 62
     7
100
AcDbDimension
  2
*D9
 10
375.6690048296592
 20
321.8768277114727
 30
0.0
 11
375.6690048296592
 21
252.8768277114726
 31
0.0
 70
   160
 71
     5
 42
-1.0
  3
PHOENIX
100
AcDbAlignedDimension
 13
333.1690048296588
 23
183.8768277114727
 33
0.0
 14
333.1690048296588
 24
321.8768277114727
 34
0.0
 50
90.0
100
AcDbRotatedDimension
1001
ACAD
1000
DSTYLE
1002
{
1070
   140
1040
7.0
1070
   271
1070
     9
1070
   147
1040
1.25
1002
}
  0
DIMENSION
  5
91B
102
{ACAD_REACTORS
330
A41
102
}
330
1A
100
AcDbEntity
  8
1
  6
Continuous
 62
     7
100
AcDbDimension
  2
*D10
 10
336.6690048296588
 20
156.8768277114723
 30
0.0
 11
302.2124474408642
 21
156.8768277114723
 31
0.0
 70
   160
 71
     5
 42
-1.0
  3
PHOENIX
100
AcDbAlignedDimension
 13
323.0690048296588
 23
189.1768277114728
 33
0.0
 14
336.6690048296588
 24
187.3768277114728
 34
0.0
100
AcDbRotatedDimension
1001
ACAD
1000
DSTYLE
1002
{
1070
   140
1040
7.0
1070
   271
1070
     9
1070
   147
1040
1.25
1002
}
  0
LINE
  5
937
330
1A
100
AcDbEntity
  8
1
  6
Continuous
 62
     7
100
AcDbLine
 10
162.4690048296588
 20
310.8768277114728
 30
0.0
 11
159.6690048296589
 21
310.8768277114728
 31
0.0
1001
PHOENIX7010
1002
{
1070
    62
1070
     7
1070
    41
1040
1.0
1002
}
  0
LINE
  5
938
330
1A
100
AcDbEntity
  8
1
  6
Continuous
 62
     7
100
AcDbLine
 10
156.2690048296589
 20
310.8768277114728
 30
0.0
 11
154.4690048296588
 21
310.8768277114728
 31
0.0
1001
PHOENIX7010
1002
{
1070
    62
1070
     7
1070
    41
1040
1.0
1002
}
  0
LINE
  5
939
330
1A
100
AcDbEntity
  8
1
  6
Continuous
 62
     7
100
AcDbLine
 10
332.8690048296587
 20
310.8768277114726
 30
0.0
 11
334.6690048296588
 21
310.8768277114726
 31
0.0
1001
PHOENIX7010
1002
{
1070
    62
1070
     7
1070
    41
1040
1.0
1002
}
  0
LINE
  5
93A
330
1A
100
AcDbEntity
  8
1
  6
Continuous
 62
     7
100
AcDbLine
 10
326.6690048296589
 20
310.8768277114726
 30
0.0
 11
329.4690048296588
 21
310.8768277114726
 31
0.0
1001
PHOENIX7010
1002
{
1070
    62
1070
     7
1070
    41
1040
1.0
1002
}
  0
LINE
  5
93B
330
1A
100
AcDbEntity
  8
1
  6
Continuous
 62
     7
100
AcDbLine
 10
332.8690048296587
 20
194.8768277114729
 30
0.0
 11
334.6690048296588
 21
194.8768277114729
 31
0.0
1001
PHOENIX7010
1002
{
1070
    62
1070
     7
1070
    41
1040
1.0
1002
}
  0
LINE
  5
93C
330
1A
100
AcDbEntity
  8
1
  6
Continuous
 62
     7
100
AcDbLine
 10
326.6690048296589
 20
194.8768277114729
 30
0.0
 11
329.4690048296588
 21
194.8768277114729
 31
0.0
1001
PHOENIX7010
1002
{
1070
    62
1070
     7
1070
    41
1040
1.0
1002
}
  0
LINE
  5
93D
330
1A
100
AcDbEntity
  8
1
  6
Continuous
 62
     7
100
AcDbLine
 10
156.2690048296587
 20
194.876827711473
 30
0.0
 11
154.4690048296587
 21
194.876827711473
 31
0.0
1001
PHOENIX7010
1002
{
1070
    62
1070
     7
1070
    41
1040
1.0
1002
}
  0
LINE
  5
93E
330
1A
100
AcDbEntity
  8
1
  6
Continuous
 62
     7
100
AcDbLine
 10
162.4690048296586
 20
194.876827711473
 30
0.0
 11
159.6690048296587
 21
194.876827711473
 31
0.0
1001
PHOENIX7010
1002
{
1070
    62
1070
     7
1070
    41
1040
1.0
1002
}
  0
LINE
  5
93F
330
1A
100
AcDbEntity
  8
1
  6
Continuous
 62
     7
100
AcDbLine
 10
162.4690048296588
 20
311.8768277114727
 30
0.0
 11
159.6690048296589
 21
311.8768277114727
 31
0.0
1001
PHOENIX7010
1002
{
1070
    62
1070
     7
1070
    41
1040
1.0
1002
}
  0
LINE
  5
940
330
1A
100
AcDbEntity
  8
1
  6
ACAD_ISO04W100
 62
     1
100
AcDbLine
 10
158.4690048296588
 20
321.8768277114727
 30
0.0
 11
158.4690048296588
 21
292.4768277114728
 31
0.0
1001
PHOENIX7010
1002
{
1070
    62
1070
     1
1070
    41
1040
1.0
1002
}
  0
LINE
  5
941
330
1A
100
AcDbEntity
  8
1
  6
ACAD_ISO04W100
 62
     1
100
AcDbLine
 10
158.2690048296589
 20
315.8768277114727
 30
0.0
 11
152.4690048296588
 21
315.8768277114727
 31
0.0
1001
PHOENIX7010
1002
{
1070
    62
1070
     1
1070
    41
1040
1.0
1002
}
  0
LINE
  5
942
330
1A
100
AcDbEntity
  8
1
  6
Continuous
 62
     7
100
AcDbLine
 10
156.2690048296589
 20
316.7768277114727
 30
0.0
 11
154.4690048296588
 21
316.7768277114727
 31
0.0
1001
PHOENIX7010
1002
{
1070
    62
1070
     7
1070
    41
1040
1.0
1002
}
  0
LINE
  5
943
330
1A
100
AcDbEntity
  8
1
  6
Continuous
 62
     7
100
AcDbLine
 10
156.2690048296589
 20
314.9768277114727
 30
0.0
 11
154.4690048296588
 21
314.9768277114727
 31
0.0
1001
PHOENIX7010
1002
{
1070
    62
1070
     7
1070
    41
1040
1.0
1002
}
  0
LINE
  5
944
330
1A
100
AcDbEntity
  8
1
  6
Continuous
 62
     7
100
AcDbLine
 10
156.2690048296589
 20
316.7768277114727
 30
0.0
 11
156.2690048296589
 21
314.9768277114727
 31
0.0
1001
PHOENIX7010
1002
{
1070
    62
1070
     7
1070
    41
1040
1.0
1002
}
  0
LINE
  5
945
330
1A
100
AcDbEntity
  8
1
  6
Continuous
 62
     7
100
AcDbLine
 10
156.2690048296589
 20
311.8768277114727
 30
0.0
 11
156.2690048296589
 21
310.8768277114728
 31
0.0
1001
PHOENIX7010
1002
{
1070
    62
1070
     7
1070
    41
1040
1.0
1002
}
  0
LINE
  5
946
330
1A
100
AcDbEntity
  8
1
  6
Continuous
 62
     7
100
AcDbLine
 10
159.3690048296588
 20
318.0768277114727
 30
0.0
 11
159.3690048296588
 21
319.8768277114727
 31
0.0
1001
PHOENIX7010
1002
{
1070
    62
1070
     7
1070
    41
1040
1.0
1002
}
  0
LINE
  5
947
330
1A
100
AcDbEntity
  8
1
  6
Continuous
 62
     7
100
AcDbLine
 10
157.5690048296588
 20
318.0768277114727
 30
0.0
 11
157.5690048296588
 21
319.8768277114727
 31
0.0
1001
PHOENIX7010
1002
{
1070
    62
1070
     7
1070
    41
1040
1.0
1002
}
  0
LINE
  5
948
330
1A
100
AcDbEntity
  8
1
  6
Continuous
 62
     7
100
AcDbLine
 10
159.3690048296588
 20
318.0768277114727
 30
0.0
 11
157.5690048296588
 21
318.0768277114727
 31
0.0
1001
PHOENIX7010
1002
{
1070
    62
1070
     7
1070
    41
1040
1.0
1002
}
  0
LINE
  5
949
330
1A
100
AcDbEntity
  8
1
  6
Continuous
 62
     7
100
AcDbLine
 10
326.6690048296589
 20
316.5768277114727
 30
0.0
 11
326.6690048296589
 21
311.8768277114726
 31
0.0
1001
PHOENIX7010
1002
{
1070
    62
1070
     7
1070
    41
1040
1.0
1002
}
  0
LINE
  5
94A
330
1A
100
AcDbEntity
  8
1
  6
ACAD_ISO04W100
 62
     1
100
AcDbLine
 10
330.6690048296589
 20
321.8768277114727
 30
0.0
 11
330.6690048296588
 21
292.4768277114726
 31
0.0
1001
PHOENIX7010
1002
{
1070
    62
1070
     1
1070
    41
1040
1.0
1002
}
  0
LINE
  5
94B
330
1A
100
AcDbEntity
  8
1
  6
Continuous
 62
     7
100
AcDbLine
 10
326.6690048296589
 20
311.8768277114726
 30
0.0
 11
329.4690048296589
 21
311.8768277114726
 31
0.0
1001
PHOENIX7010
1002
{
1070
    62
1070
     7
1070
    41
1040
1.0
1002
}
  0
LINE
  5
94C
330
1A
100
AcDbEntity
  8
1
  6
Continuous
 62
     7
100
AcDbLine
 10
331.5690048296588
 20
318.0768277114726
 30
0.0
 11
331.5690048296588
 21
319.8768277114726
 31
0.0
1001
PHOENIX7010
1002
{
1070
    62
1070
     7
1070
    41
1040
1.0
1002
}
  0
LINE
  5
94D
330
1A
100
AcDbEntity
  8
1
  6
Continuous
 62
     7
100
AcDbLine
 10
329.7690048296589
 20
318.0768277114726
 30
0.0
 11
329.7690048296589
 21
319.8768277114726
 31
0.0
1001
PHOENIX7010
1002
{
1070
    62
1070
     7
1070
    41
1040
1.0
1002
}
  0
LINE
  5
94E
330
1A
100
AcDbEntity
  8
1
  6
Continuous
 62
     7
100
AcDbLine
 10
332.8690048296588
 20
316.7768277114726
 30
0.0
 11
332.8690048296588
 21
314.9768277114727
 31
0.0
1001
PHOENIX7010
1002
{
1070
    62
1070
     7
1070
    41
1040
1.0
1002
}
  0
LINE
  5
94F
330
1A
100
AcDbEntity
  8
1
  6
Continuous
 62
     7
100
AcDbLine
 10
332.8690048296588
 20
314.9768277114727
 30
0.0
 11
334.6690048296589
 21
314.9768277114727
 31
0.0
1001
PHOENIX7010
1002
{
1070
    62
1070
     7
1070
    41
1040
1.0
1002
}
  0
LINE
  5
950
330
1A
100
AcDbEntity
  8
1
  6
Continuous
 62
     7
100
AcDbLine
 10
332.8690048296588
 20
316.7768277114726
 30
0.0
 11
334.6690048296589
 21
316.7768277114726
 31
0.0
1001
PHOENIX7010
1002
{
1070
    62
1070
     7
1070
    41
1040
1.0
1002
}
  0
LINE
  5
951
330
1A
100
AcDbEntity
  8
1
  6
ACAD_ISO04W100
 62
     1
100
AcDbLine
 10
330.8690048296588
 20
315.8768277114726
 30
0.0
 11
336.6690048296589
 21
315.8768277114726
 31
0.0
1001
PHOENIX7010
1002
{
1070
    62
1070
     1
1070
    41
1040
1.0
1002
}
  0
LINE
  5
952
330
1A
100
AcDbEntity
  8
1
  6
Continuous
 62
     7
100
AcDbLine
 10
329.7690048296589
 20
318.0768277114726
 30
0.0
 11
331.5690048296588
 21
318.0768277114726
 31
0.0
1001
PHOENIX7010
1002
{
1070
    62
1070
     7
1070
    41
1040
1.0
1002
}
  0
LINE
  5
953
330
1A
100
AcDbEntity
  8
1
  6
Continuous
 62
     7
100
AcDbLine
 10
326.6690048296589
 20
189.1768277114728
 30
0.0
 11
326.6690048296589
 21
193.8768277114729
 31
0.0
1001
PHOENIX7010
1002
{
1070
    62
1070
     7
1070
    41
1040
1.0
1002
}
  0
LINE
  5
954
330
1A
100
AcDbEntity
  8
1
  6
ACAD_ISO04W100
 62
     1
100
AcDbLine
 10
330.6690048296589
 20
183.8768277114729
 30
0.0
 11
330.6690048296588
 21
213.2768277114728
 31
0.0
1001
PHOENIX7010
1002
{
1070
    62
1070
     1
1070
    41
1040
1.0
1002
}
  0
LINE
  5
955
330
1A
100
AcDbEntity
  8
1
  6
Continuous
 62
     7
100
AcDbLine
 10
326.6690048296589
 20
193.8768277114729
 30
0.0
 11
329.4690048296589
 21
193.8768277114729
 31
0.0
1001
PHOENIX7010
1002
{
1070
    62
1070
     7
1070
    41
1040
1.0
1002
}
  0
LINE
  5
956
330
1A
100
AcDbEntity
  8
1
  6
Continuous
 62
     7
100
AcDbLine
 10
331.5690048296588
 20
187.6768277114729
 30
0.0
 11
331.5690048296588
 21
185.8768277114729
 31
0.0
1001
PHOENIX7010
1002
{
1070
    62
1070
     7
1070
    41
1040
1.0
1002
}
  0
LINE
  5
957
330
1A
100
AcDbEntity
  8
1
  6
Continuous
 62
     7
100
AcDbLine
 10
329.7690048296589
 20
187.6768277114729
 30
0.0
 11
329.7690048296589
 21
185.8768277114729
 31
0.0
1001
PHOENIX7010
1002
{
1070
    62
1070
     7
1070
    41
1040
1.0
1002
}
  0
LINE
  5
958
330
1A
100
AcDbEntity
  8
1
  6
Continuous
 62
     7
100
AcDbLine
 10
332.8690048296588
 20
188.9768277114729
 30
0.0
 11
332.8690048296588
 21
190.7768277114728
 31
0.0
1001
PHOENIX7010
1002
{
1070
    62
1070
     7
1070
    41
1040
1.0
1002
}
  0
LINE
  5
959
330
1A
100
AcDbEntity
  8
1
  6
Continuous
 62
     7
100
AcDbLine
 10
332.8690048296588
 20
190.7768277114728
 30
0.0
 11
334.6690048296589
 21
190.7768277114728
 31
0.0
1001
PHOENIX7010
1002
{
1070
    62
1070
     7
1070
    41
1040
1.0
1002
}
  0
LINE
  5
95A
330
1A
100
AcDbEntity
  8
1
  6
Continuous
 62
     7
100
AcDbLine
 10
332.8690048296588
 20
188.9768277114729
 30
0.0
 11
334.6690048296589
 21
188.9768277114729
 31
0.0
1001
PHOENIX7010
1002
{
1070
    62
1070
     7
1070
    41
1040
1.0
1002
}
  0
LINE
  5
95B
330
1A
100
AcDbEntity
  8
1
  6
ACAD_ISO04W100
 62
     1
100
AcDbLine
 10
330.8690048296588
 20
189.8768277114729
 30
0.0
 11
336.6690048296589
 21
189.8768277114729
 31
0.0
1001
PHOENIX7010
1002
{
1070
    62
1070
     1
1070
    41
1040
1.0
1002
}
  0
LINE
  5
95C
330
1A
100
AcDbEntity
  8
1
  6
Continuous
 62
     7
100
AcDbLine
 10
329.7690048296589
 20
187.6768277114729
 30
0.0
 11
331.5690048296588
 21
187.6768277114729
 31
0.0
1001
PHOENIX7010
1002
{
1070
    62
1070
     7
1070
    41
1040
1.0
1002
}
  0
LINE
  5
95D
330
1A
100
AcDbEntity
  8
1
  6
Continuous
 62
     7
100
AcDbLine
 10
162.4690048296586
 20
189.176827711473
 30
0.0
 11
162.4690048296586
 21
193.876827711473
 31
0.0
1001
PHOENIX7010
1002
{
1070
    62
1070
     7
1070
    41
1040
1.0
1002
}
  0
LINE
  5
95E
330
1A
100
AcDbEntity
  8
1
  6
ACAD_ISO04W100
 62
     1
100
AcDbLine
 10
158.4690048296586
 20
183.876827711473
 30
0.0
 11
158.4690048296587
 21
213.276827711473
 31
0.0
1001
PHOENIX7010
1002
{
1070
    62
1070
     1
1070
    41
1040
1.0
1002
}
  0
LINE
  5
95F
330
1A
100
AcDbEntity
  8
1
  6
Continuous
 62
     7
100
AcDbLine
 10
162.4690048296586
 20
193.876827711473
 30
0.0
 11
159.6690048296587
 21
193.876827711473
 31
0.0
1001
PHOENIX7010
1002
{
1070
    62
1070
     7
1070
    41
1040
1.0
1002
}
  0
LINE
  5
960
330
1A
100
AcDbEntity
  8
1
  6
Continuous
 62
     7
100
AcDbLine
 10
157.5690048296587
 20
187.6768277114731
 30
0.0
 11
157.5690048296587
 21
185.876827711473
 31
0.0
1001
PHOENIX7010
1002
{
1070
    62
1070
     7
1070
    41
1040
1.0
1002
}
  0
LINE
  5
961
330
1A
100
AcDbEntity
  8
1
  6
Continuous
 62
     7
100
AcDbLine
 10
159.3690048296586
 20
187.6768277114731
 30
0.0
 11
159.3690048296586
 21
185.876827711473
 31
0.0
1001
PHOENIX7010
1002
{
1070
    62
1070
     7
1070
    41
1040
1.0
1002
}
  0
LINE
  5
962
330
1A
100
AcDbEntity
  8
1
  6
Continuous
 62
     7
100
AcDbLine
 10
156.2690048296587
 20
188.976827711473
 30
0.0
 11
156.2690048296587
 21
190.776827711473
 31
0.0
1001
PHOENIX7010
1002
{
1070
    62
1070
     7
1070
    41
1040
1.0
1002
}
  0
LINE
  5
963
330
1A
100
AcDbEntity
  8
1
  6
Continuous
 62
     7
100
AcDbLine
 10
156.2690048296587
 20
190.776827711473
 30
0.0
 11
154.4690048296587
 21
190.776827711473
 31
0.0
1001
PHOENIX7010
1002
{
1070
    62
1070
     7
1070
    41
1040
1.0
1002
}
  0
LINE
  5
964
330
1A
100
AcDbEntity
  8
1
  6
Continuous
 62
     7
100
AcDbLine
 10
156.2690048296587
 20
188.976827711473
 30
0.0
 11
154.4690048296587
 21
188.976827711473
 31
0.0
1001
PHOENIX7010
1002
{
1070
    62
1070
     7
1070
    41
1040
1.0
1002
}
  0
LINE
  5
965
330
1A
100
AcDbEntity
  8
1
  6
ACAD_ISO04W100
 62
     1
100
AcDbLine
 10
158.2690048296587
 20
189.876827711473
 30
0.0
 11
152.4690048296587
 21
189.876827711473
 31
0.0
1001
PHOENIX7010
1002
{
1070
    62
1070
     1
1070
    41
1040
1.0
1002
}
  0
LINE
  5
966
330
1A
100
AcDbEntity
  8
1
  6
Continuous
 62
     7
100
AcDbLine
 10
159.3690048296586
 20
187.6768277114731
 30
0.0
 11
157.5690048296587
 21
187.6768277114731
 31
0.0
1001
PHOENIX7010
1002
{
1070
    62
1070
     7
1070
    41
1040
1.0
1002
}
  0
LINE
  5
967
330
1A
100
AcDbEntity
  8
1
  6
Continuous
 62
     7
100
AcDbLine
 10
168.2690048296588
 20
312.2768277114727
 30
0.0
 11
168.2690048296588
 21
309.8768277114726
 31
0.0
1001
PHOENIX7010
1002
{
1070
    62
1070
     7
1070
    41
1040
1.0
1002
}
  0
LINE
  5
968
330
1A
100
AcDbEntity
  8
1
  6
Continuous
 62
     7
100
AcDbLine
 10
168.2690048296588
 20
309.8768277114726
 30
0.0
 11
170.9190048296589
 21
309.8768277114726
 31
0.0
1001
PHOENIX7010
1002
{
1070
    62
1070
     7
1070
    41
1040
1.0
1002
}
  0
LINE
  5
969
330
1A
100
AcDbEntity
  8
1
  6
Continuous
 62
     7
100
AcDbLine
 10
168.2690048296588
 20
312.2768277114727
 30
0.0
 11
166.0690048296588
 21
312.2768277114727
 31
0.0
1001
PHOENIX7010
1002
{
1070
    62
1070
     7
1070
    41
1040
1.0
1002
}
  0
LINE
  5
96A
330
1A
100
AcDbEntity
  8
1
  6
Continuous
 62
     7
100
AcDbLine
 10
167.5963552844917
 20
314.4768277114728
 30
0.0
 11
166.0690048296588
 21
314.4768277114728
 31
0.0
1001
PHOENIX7010
1002
{
1070
    62
1070
     7
1070
    41
1040
1.0
1002
}
  0
LINE
  5
96B
330
1A
100
AcDbEntity
  8
1
  6
Continuous
 62
     7
100
AcDbLine
 10
176.9690048296588
 20
316.0768277114727
 30
0.0
 11
176.9690048296588
 21
314.8768277114728
 31
0.0
1001
PHOENIX7010
1002
{
1070
    62
1070
     7
1070
    41
1040
1.0
1002
}
  0
LINE
  5
96C
330
1A
100
AcDbEntity
  8
1
  6
Continuous
 62
     7
100
AcDbLine
 10
176.9690048296588
 20
316.0768277114727
 30
0.0
 11
173.1461105747882
 21
316.0768277114727
 31
0.0
1001
PHOENIX7010
1002
{
1070
    62
1070
     7
1070
    41
1040
1.0
1002
}
  0
LINE
  5
96D
330
1A
100
AcDbEntity
  8
1
  6
Continuous
 62
     7
100
AcDbLine
 10
174.2690048296588
 20
318.2768277114727
 30
0.0
 11
174.2690048296588
 21
316.0768277114727
 31
0.0
1001
PHOENIX7010
1002
{
1070
    62
1070
     7
1070
    41
1040
1.0
1002
}
  0
LINE
  5
96E
330
1A
100
AcDbEntity
  8
1
  6
Continuous
 62
     7
100
AcDbLine
 10
176.9690048296588
 20
314.8768277114728
 30
0.0
 11
174.0812824898273
 21
314.8768277114728
 31
0.0
1001
PHOENIX7010
1002
{
1070
    62
1070
     7
1070
    41
1040
1.0
1002
}
  0
LINE
  5
96F
330
1A
100
AcDbEntity
  8
1
  6
Continuous
 62
     7
100
AcDbLine
 10
320.8690048296589
 20
309.8768277114725
 30
0.0
 11
318.2190048296588
 21
309.8768277114725
 31
0.0
1001
PHOENIX7010
1002
{
1070
    62
1070
     7
1070
    41
1040
1.0
1002
}
  0
LINE
  5
970
330
1A
100
AcDbEntity
  8
1
  6
Continuous
 62
     7
100
AcDbLine
 10
320.8690048296589
 20
312.2768277114726
 30
0.0
 11
320.8690048296589
 21
309.8768277114725
 31
0.0
1001
PHOENIX7010
1002
{
1070
    62
1070
     7
1070
    41
1040
1.0
1002
}
  0
LINE
  5
971
330
1A
100
AcDbEntity
  8
1
  6
Continuous
 62
     7
100
AcDbLine
 10
320.8690048296589
 20
312.2768277114726
 30
0.0
 11
323.0690048296589
 21
312.2768277114726
 31
0.0
1001
PHOENIX7010
1002
{
1070
    62
1070
     7
1070
    41
1040
1.0
1002
}
  0
LINE
  5
972
330
1A
100
AcDbEntity
  8
1
  6
Continuous
 62
     7
100
AcDbLine
 10
321.541654374826
 20
314.4768277114727
 30
0.0
 11
323.0690048296589
 21
314.4768277114727
 31
0.0
1001
PHOENIX7010
1002
{
1070
    62
1070
     7
1070
    41
1040
1.0
1002
}
  0
LINE
  5
973
330
1A
100
AcDbEntity
  8
1
  6
Continuous
 62
     7
100
AcDbLine
 10
312.1690048296589
 20
316.0768277114727
 30
0.0
 11
315.9918990845294
 21
316.0768277114727
 31
0.0
1001
PHOENIX7010
1002
{
1070
    62
1070
     7
1070
    41
1040
1.0
1002
}
  0
LINE
  5
974
330
1A
100
AcDbEntity
  8
1
  6
Continuous
 62
     7
100
AcDbLine
 10
312.1690048296589
 20
316.0768277114727
 30
0.0
 11
312.1690048296589
 21
314.8768277114726
 31
0.0
1001
PHOENIX7010
1002
{
1070
    62
1070
     7
1070
    41
1040
1.0
1002
}
  0
LINE
  5
975
330
1A
100
AcDbEntity
  8
1
  6
Continuous
 62
     7
100
AcDbLine
 10
312.1690048296589
 20
314.8768277114726
 30
0.0
 11
315.0567271694904
 21
314.8768277114726
 31
0.0
1001
PHOENIX7010
1002
{
1070
    62
1070
     7
1070
    41
1040
1.0
1002
}
  0
CIRCLE
  5
976
330
1A
100
AcDbEntity
  8
1
  6
Continuous
 62
     7
100
AcDbCircle
 10
318.2190048296588
 20
313.3768277114726
 30
0.0
 40
2.1
1001
PHOENIX7010
1002
{
1070
    62
1070
     7
1070
    41
1040
1.0
1002
}
  0
LINE
  5
977
330
1A
100
AcDbEntity
  8
1
  6
Continuous
 62
     7
100
AcDbLine
 10
314.8690048296589
 20
318.2768277114726
 30
0.0
 11
314.8690048296589
 21
316.0768277114727
 31
0.0
1001
PHOENIX7010
1002
{
1070
    62
1070
     7
1070
    41
1040
1.0
1002
}
  0
LINE
  5
978
330
1A
100
AcDbEntity
  8
1
  6
Continuous
 62
     7
100
AcDbLine
 10
320.8690048296589
 20
195.876827711473
 30
0.0
 11
318.2190048296588
 21
195.8768277114729
 31
0.0
1001
PHOENIX7010
1002
{
1070
    62
1070
     7
1070
    41
1040
1.0
1002
}
  0
LINE
  5
979
330
1A
100
AcDbEntity
  8
1
  6
Continuous
 62
     7
100
AcDbLine
 10
320.8690048296589
 20
193.4768277114729
 30
0.0
 11
320.8690048296589
 21
195.876827711473
 31
0.0
1001
PHOENIX7010
1002
{
1070
    62
1070
     7
1070
    41
1040
1.0
1002
}
  0
LINE
  5
97A
330
1A
100
AcDbEntity
  8
1
  6
Continuous
 62
     7
100
AcDbLine
 10
320.8690048296589
 20
193.4768277114729
 30
0.0
 11
323.0690048296589
 21
193.4768277114729
 31
0.0
1001
PHOENIX7010
1002
{
1070
    62
1070
     7
1070
    41
1040
1.0
1002
}
  0
LINE
  5
97B
330
1A
100
AcDbEntity
  8
1
  6
Continuous
 62
     7
100
AcDbLine
 10
321.541654374826
 20
191.2768277114729
 30
0.0
 11
323.0690048296589
 21
191.2768277114729
 31
0.0
1001
PHOENIX7010
1002
{
1070
    62
1070
     7
1070
    41
1040
1.0
1002
}
  0
LINE
  5
97C
330
1A
100
AcDbEntity
  8
1
  6
Continuous
 62
     7
100
AcDbLine
 10
312.1690048296589
 20
189.6768277114728
 30
0.0
 11
315.9918990845294
 21
189.6768277114728
 31
0.0
1001
PHOENIX7010
1002
{
1070
    62
1070
     7
1070
    41
1040
1.0
1002
}
  0
LINE
  5
97D
330
1A
100
AcDbEntity
  8
1
  6
Continuous
 62
     7
100
AcDbLine
 10
312.1690048296589
 20
189.6768277114728
 30
0.0
 11
312.1690048296589
 21
190.8768277114728
 31
0.0
1001
PHOENIX7010
1002
{
1070
    62
1070
     7
1070
    41
1040
1.0
1002
}
  0
LINE
  5
97E
330
1A
100
AcDbEntity
  8
1
  6
Continuous
 62
     7
100
AcDbLine
 10
312.1690048296589
 20
190.8768277114728
 30
0.0
 11
315.0567271694904
 21
190.8768277114728
 31
0.0
1001
PHOENIX7010
1002
{
1070
    62
1070
     7
1070
    41
1040
1.0
1002
}
  0
CIRCLE
  5
97F
330
1A
100
AcDbEntity
  8
1
  6
Continuous
 62
     7
100
AcDbCircle
 10
318.2190048296588
 20
192.3768277114728
 30
0.0
 40
2.1
1001
PHOENIX7010
1002
{
1070
    62
1070
     7
1070
    41
1040
1.0
1002
}
  0
LINE
  5
980
330
1A
100
AcDbEntity
  8
1
  6
Continuous
 62
     7
100
AcDbLine
 10
314.8690048296589
 20
187.4768277114728
 30
0.0
 11
314.8690048296589
 21
189.6768277114728
 31
0.0
1001
PHOENIX7010
1002
{
1070
    62
1070
     7
1070
    41
1040
1.0
1002
}
  0
LINE
  5
981
330
1A
100
AcDbEntity
  8
1
  6
Continuous
 62
     7
100
AcDbLine
 10
168.2690048296587
 20
195.8768277114731
 30
0.0
 11
170.9190048296587
 21
195.8768277114731
 31
0.0
1001
PHOENIX7010
1002
{
1070
    62
1070
     7
1070
    41
1040
1.0
1002
}
  0
LINE
  5
982
330
1A
100
AcDbEntity
  8
1
  6
Continuous
 62
     7
100
AcDbLine
 10
168.2690048296587
 20
193.476827711473
 30
0.0
 11
168.2690048296587
 21
195.8768277114731
 31
0.0
1001
PHOENIX7010
1002
{
1070
    62
1070
     7
1070
    41
1040
1.0
1002
}
  0
LINE
  5
983
330
1A
100
AcDbEntity
  8
1
  6
Continuous
 62
     7
100
AcDbLine
 10
168.2690048296587
 20
193.476827711473
 30
0.0
 11
166.0690048296587
 21
193.476827711473
 31
0.0
1001
PHOENIX7010
1002
{
1070
    62
1070
     7
1070
    41
1040
1.0
1002
}
  0
LINE
  5
984
330
1A
100
AcDbEntity
  8
1
  6
Continuous
 62
     7
100
AcDbLine
 10
167.5963552844915
 20
191.276827711473
 30
0.0
 11
166.0690048296587
 21
191.276827711473
 31
0.0
1001
PHOENIX7010
1002
{
1070
    62
1070
     7
1070
    41
1040
1.0
1002
}
  0
LINE
  5
985
330
1A
100
AcDbEntity
  8
1
  6
Continuous
 62
     7
100
AcDbLine
 10
176.9690048296586
 20
189.6768277114729
 30
0.0
 11
173.1461105747881
 21
189.676827711473
 31
0.0
1001
PHOENIX7010
1002
{
1070
    62
1070
     7
1070
    41
1040
1.0
1002
}
  0
LINE
  5
986
330
1A
100
AcDbEntity
  8
1
  6
Continuous
 62
     7
100
AcDbLine
 10
176.9690048296586
 20
189.6768277114729
 30
0.0
 11
176.9690048296586
 21
190.8768277114729
 31
0.0
1001
PHOENIX7010
1002
{
1070
    62
1070
     7
1070
    41
1040
1.0
1002
}
  0
LINE
  5
987
330
1A
100
AcDbEntity
  8
1
  6
Continuous
 62
     7
100
AcDbLine
 10
176.9690048296586
 20
190.8768277114729
 30
0.0
 11
174.0812824898271
 21
190.8768277114729
 31
0.0
1001
PHOENIX7010
1002
{
1070
    62
1070
     7
1070
    41
1040
1.0
1002
}
  0
CIRCLE
  5
988
330
1A
100
AcDbEntity
  8
1
  6
Continuous
 62
     7
100
AcDbCircle
 10
170.9190048296587
 20
192.376827711473
 30
0.0
 40
2.1
1001
PHOENIX7010
1002
{
1070
    62
1070
     7
1070
    41
1040
1.0
1002
}
  0
LINE
  5
989
330
1A
100
AcDbEntity
  8
1
  6
Continuous
 62
     7
100
AcDbLine
 10
174.2690048296586
 20
187.4768277114729
 30
0.0
 11
174.2690048296586
 21
189.6768277114729
 31
0.0
1001
PHOENIX7010
1002
{
1070
    62
1070
     7
1070
    41
1040
1.0
1002
}
  0
LINE
  5
98A
330
1A
100
AcDbEntity
  8
1
  6
ACAD_ISO04W100
 62
     1
100
AcDbLine
 10
312.7190048296589
 20
313.3768277114726
 30
0.0
 11
325.0690048296589
 21
313.3768277114726
 31
0.0
1001
PHOENIX7010
1002
{
1070
    62
1070
     1
1070
    41
1040
1.0
1002
}
  0
LINE
  5
98B
102
{ACAD_REACTORS
330
A5E
102
}
330
1A
100
AcDbEntity
  8
1
  6
ACAD_ISO04W100
 62
     1
100
AcDbLine
 10
318.2190048296588
 20
318.8768277114726
 30
0.0
 11
318.2190048296588
 21
307.8768277114725
 31
0.0
1001
PHOENIX7010
1002
{
1070
    62
1070
     1
1070
    41
1040
1.0
1002
}
  0
LINE
  5
98C
330
1A
100
AcDbEntity
  8
1
  6
ACAD_ISO04W100
 62
     1
100
AcDbLine
 10
312.7190048296589
 20
192.3768277114728
 30
0.0
 11
325.0690048296589
 21
192.3768277114729
 31
0.0
1001
PHOENIX7010
1002
{
1070
    62
1070
     1
1070
    41
1040
1.0
1002
}
  0
LINE
  5
98D
330
1A
100
AcDbEntity
  8
1
  6
ACAD_ISO04W100
 62
     1
100
AcDbLine
 10
318.2190048296588
 20
186.8768277114728
 30
0.0
 11
318.2190048296588
 21
197.8768277114729
 31
0.0
1001
PHOENIX7010
1002
{
1070
    62
1070
     1
1070
    41
1040
1.0
1002
}
  0
LINE
  5
98E
102
{ACAD_REACTORS
330
A4F
102
}
330
1A
100
AcDbEntity
  8
1
  6
ACAD_ISO04W100
 62
     1
100
AcDbLine
 10
176.4190048296587
 20
192.3768277114729
 30
0.0
 11
164.0690048296587
 21
192.376827711473
 31
0.0
1001
PHOENIX7010
1002
{
1070
    62
1070
     1
1070
    41
1040
1.0
1002
}
  0
LINE
  5
98F
330
1A
100
AcDbEntity
  8
1
  6
ACAD_ISO04W100
 62
     1
100
AcDbLine
 10
170.9190048296587
 20
186.876827711473
 30
0.0
 11
170.9190048296587
 21
197.876827711473
 31
0.0
1001
PHOENIX7010
1002
{
1070
    62
1070
     1
1070
    41
1040
1.0
1002
}
  0
LINE
  5
990
330
1A
100
AcDbEntity
  8
1
  6
Continuous
 62
     7
100
AcDbLine
 10
330.8690048296587
 20
218.2768277114727
 30
0.0
 11
329.6690048296588
 21
218.2768277114727
 31
0.0
1001
PHOENIX7010
1002
{
1070
    62
1070
     7
1070
    41
1040
1.0
1002
}
  0
LINE
  5
991
330
1A
100
AcDbEntity
  8
1
  6
Continuous
 62
     7
100
AcDbLine
 10
330.8690048296587
 20
214.8768277114727
 30
0.0
 11
330.8690048296587
 21
218.2768277114727
 31
0.0
1001
PHOENIX7010
1002
{
1070
    62
1070
     7
1070
    41
1040
1.0
1002
}
  0
LINE
  5
992
330
1A
100
AcDbEntity
  8
1
  6
Continuous
 62
     7
100
AcDbLine
 10
329.6690048296588
 20
214.8768277114727
 30
0.0
 11
329.6690048296588
 21
218.2768277114727
 31
0.0
1001
PHOENIX7010
1002
{
1070
    62
1070
     7
1070
    41
1040
1.0
1002
}
  0
LINE
  5
993
330
1A
100
AcDbEntity
  8
1
  6
Continuous
 62
     7
100
AcDbLine
 10
158.2690048296588
 20
214.8768277114728
 30
0.0
 11
158.2690048296588
 21
218.2768277114729
 31
0.0
1001
PHOENIX7010
1002
{
1070
    62
1070
     7
1070
    41
1040
1.0
1002
}
  0
LINE
  5
994
330
1A
100
AcDbEntity
  8
1
  6
Continuous
 62
     7
100
AcDbLine
 10
159.4690048296588
 20
214.8768277114728
 30
0.0
 11
159.4690048296588
 21
218.2768277114729
 31
0.0
1001
PHOENIX7010
1002
{
1070
    62
1070
     7
1070
    41
1040
1.0
1002
}
  0
LINE
  5
995
330
1A
100
AcDbEntity
  8
1
  6
Continuous
 62
     7
100
AcDbLine
 10
158.2690048296588
 20
218.2768277114729
 30
0.0
 11
159.4690048296588
 21
218.2768277114729
 31
0.0
1001
PHOENIX7010
1002
{
1070
    62
1070
     7
1070
    41
1040
1.0
1002
}
  0
LINE
  5
996
330
1A
100
AcDbEntity
  8
1
  6
Continuous
 62
     7
100
AcDbLine
 10
158.2690048296588
 20
290.8768277114726
 30
0.0
 11
158.2690048296588
 21
287.4768277114727
 31
0.0
1001
PHOENIX7010
1002
{
1070
    62
1070
     7
1070
    41
1040
1.0
1002
}
  0
LINE
  5
997
330
1A
100
AcDbEntity
  8
1
  6
Continuous
 62
     7
100
AcDbLine
 10
159.4690048296588
 20
290.8768277114726
 30
0.0
 11
159.4690048296588
 21
287.4768277114727
 31
0.0
1001
PHOENIX7010
1002
{
1070
    62
1070
     7
1070
    41
1040
1.0
1002
}
  0
LINE
  5
998
330
1A
100
AcDbEntity
  8
1
  6
Continuous
 62
     7
100
AcDbLine
 10
158.2690048296588
 20
287.4768277114727
 30
0.0
 11
159.4690048296588
 21
287.4768277114727
 31
0.0
1001
PHOENIX7010
1002
{
1070
    62
1070
     7
1070
    41
1040
1.0
1002
}
  0
LINE
  5
999
330
1A
100
AcDbEntity
  8
1
  6
Continuous
 62
     7
100
AcDbLine
 10
330.8690048296589
 20
290.8768277114725
 30
0.0
 11
330.8690048296589
 21
287.4768277114725
 31
0.0
1001
PHOENIX7010
1002
{
1070
    62
1070
     7
1070
    41
1040
1.0
1002
}
  0
LINE
  5
99A
330
1A
100
AcDbEntity
  8
1
  6
Continuous
 62
     7
100
AcDbLine
 10
329.6690048296589
 20
290.8768277114725
 30
0.0
 11
329.6690048296589
 21
287.4768277114725
 31
0.0
1001
PHOENIX7010
1002
{
1070
    62
1070
     7
1070
    41
1040
1.0
1002
}
  0
LINE
  5
99B
330
1A
100
AcDbEntity
  8
1
  6
Continuous
 62
     7
100
AcDbLine
 10
330.8690048296589
 20
287.4768277114725
 30
0.0
 11
329.6690048296589
 21
287.4768277114725
 31
0.0
1001
PHOENIX7010
1002
{
1070
    62
1070
     7
1070
    41
1040
1.0
1002
}
  0
DIMENSION
  5
99C
102
{ACAD_REACTORS
330
A51
102
}
330
1A
100
AcDbEntity
  8
1
  6
Continuous
 62
     7
100
AcDbDimension
  2
*D11
 10
113.4690048296584
 20
313.3768277114727
 30
0.0
 11
113.4690048296584
 21
252.8768277114729
 31
0.0
 70
   160
 71
     5
 42
-1.0
  3
PHOENIX
100
AcDbAlignedDimension
 13
164.0690048296587
 23
192.376827711473
 33
0.0
 14
164.0690048296588
 24
313.3768277114727
 34
0.0
 50
90.0
100
AcDbRotatedDimension
1001
ACAD
1000
DSTYLE
1002
{
1070
   140
1040
7.0
1070
   271
1070
     9
1070
   147
1040
1.25
1002
}
  0
DIMENSION
  5
9B6
102
{ACAD_REACTORS
330
A5F
102
}
330
1A
100
AcDbEntity
  8
1
  6
Continuous
 62
     7
100
AcDbDimension
  2
*D12
 10
318.2190048296588
 20
348.8768277114732
 30
0.0
 11
244.569004829659
 21
348.8768277114732
 31
0.0
 70
   160
  1
L1
 71
     5
 42
-1.0
  3
PHOENIX
100
AcDbAlignedDimension
 13
170.9190048296589
 23
318.8768277114728
 33
0.0
 14
318.2190048296588
 24
318.8768277114726
 34
0.0
100
AcDbRotatedDimension
1001
ACAD
1000
DSTYLE
1002
{
1070
   140
1040
7.0
1070
   271
1070
     6
1070
   147
1040
1.25
1070
   272
1070
     6
1002
}
  0
LINE
  5
9D0
330
1A
100
AcDbEntity
  8
1
  6
Continuous
 62
     1
100
AcDbLine
 10
318.2190048296588
 20
313.3768277114726
 30
0.0
 11
353.1251023906342
 21
336.8768277114727
 31
0.0
1001
PHOENIX7010
1002
{
1070
    62
1070
     1
1070
    41
1040
1.0
1002
}
  0
LINE
  5
9D1
330
1A
100
AcDbEntity
  8
1
  6
Continuous
 62
     1
100
AcDbLine
 10
382.5251023906342
 20
336.8768277114727
 30
0.0
 11
353.1251023906342
 21
336.8768277114727
 31
0.0
1001
PHOENIX7010
1002
{
1070
    62
1070
     1
1070
    41
1040
1.0
1002
}
  0
TEXT
  5
9D2
330
1A
100
AcDbEntity
  8
1
  6
Continuous
 62
     5
100
AcDbText
 10
354.3501023906342
 20
340.3768277114727
 30
0.0
 40
7.0
  1
%%c4.2
 41
1.574999999999999
100
AcDbText
1001
PHOENIX7010
1002
{
1070
    62
1070
     5
1070
    41
1040
1.0
1002
}
  0
ARC
  5
9D3
330
1A
100
AcDbEntity
  8
1
  6
Continuous
 62
     7
100
AcDbCircle
 10
170.9190048296589
 20
313.3768277114727
 30
0.0
 40
3.499999999998334
100
AcDbArc
 50
50.48234720286144
 51
161.6823015887921
1001
PHOENIX7010
1002
{
1070
    62
1070
     7
1070
    41
1040
1.0
1002
}
  0
ARC
  5
9D4
330
1A
100
AcDbEntity
  8
1
  6
Continuous
 62
     7
100
AcDbCircle
 10
170.9190048296589
 20
313.3768277114727
 30
0.0
 40
3.499999999998328
100
AcDbArc
 50
198.3176984112079
 51
220.787038193231
1001
PHOENIX7010
1002
{
1070
    62
1070
     7
1070
    41
1040
1.0
1002
}
  0
ARC
  5
9D5
330
1A
100
AcDbEntity
  8
1
  6
Continuous
 62
     7
100
AcDbCircle
 10
170.9190048296589
 20
313.3768277114727
 30
0.0
 40
3.499999999998408
100
AcDbArc
 50
269.9999999999991
 51
25.37693352516515
1001
PHOENIX7010
1002
{
1070
    62
1070
     7
1070
    41
1040
1.0
1002
}
  0
ARC
  5
9D6
330
1A
100
AcDbEntity
  8
1
  6
ACAD_ISO02W100
 62
     5
100
AcDbCircle
 10
170.9190048296589
 20
313.3768277114727
 30
0.0
 40
3.499999999998323
100
AcDbArc
 50
25.37693352516532
 51
50.48234720285953
1001
PHOENIX7010
1002
{
1070
    62
1070
     5
1070
    41
1040
1.0
1002
}
  0
ARC
  5
9D7
330
1A
100
AcDbEntity
  8
1
  6
ACAD_ISO02W100
 62
     5
100
AcDbCircle
 10
170.9190048296589
 20
313.3768277114727
 30
0.0
 40
3.499999999998328
100
AcDbArc
 50
161.6823015887921
 51
198.3176984112079
1001
PHOENIX7010
1002
{
1070
    62
1070
     5
1070
    41
1040
1.0
1002
}
  0
ARC
  5
9D8
330
1A
100
AcDbEntity
  8
1
  6
ACAD_ISO02W100
 62
     5
100
AcDbCircle
 10
170.9190048296589
 20
313.3768277114727
 30
0.0
 40
3.499999999998326
100
AcDbArc
 50
220.787038193231
 51
269.9999999999991
1001
PHOENIX7010
1002
{
1070
    62
1070
     5
1070
    41
1040
1.0
1002
}
  0
ARC
  5
9D9
330
1A
100
AcDbEntity
  8
1
  6
ACAD_ISO02W100
 62
     5
100
AcDbCircle
 10
318.2190048296588
 20
313.3768277114726
 30
0.0
 40
3.499999999998323
100
AcDbArc
 50
129.5176527971392
 51
154.6230664748347
1001
PHOENIX7010
1002
{
1070
    62
1070
     5
1070
    41
1040
1.0
1002
}
  0
ARC
  5
9DA
330
1A
100
AcDbEntity
  8
1
  6
Continuous
 62
     7
100
AcDbCircle
 10
318.2190048296588
 20
313.3768277114726
 30
0.0
 40
3.499999999998294
100
AcDbArc
 50
154.6230664748347
 51
270.0000000000009
1001
PHOENIX7010
1002
{
1070
    62
1070
     7
1070
    41
1040
1.0
1002
}
  0
ARC
  5
9DB
330
1A
100
AcDbEntity
  8
1
  6
ACAD_ISO02W100
 62
     5
100
AcDbCircle
 10
318.2190048296588
 20
313.3768277114726
 30
0.0
 40
3.499999999998326
100
AcDbArc
 50
270.0000000000009
 51
319.212961806769
1001
PHOENIX7010
1002
{
1070
    62
1070
     5
1070
    41
1040
1.0
1002
}
  0
ARC
  5
9DC
330
1A
100
AcDbEntity
  8
1
  6
Continuous
 62
     7
100
AcDbCircle
 10
318.2190048296588
 20
313.3768277114726
 30
0.0
 40
3.499999999998328
100
AcDbArc
 50
319.212961806769
 51
341.6823015887921
1001
PHOENIX7010
1002
{
1070
    62
1070
     7
1070
    41
1040
1.0
1002
}
  0
ARC
  5
9DD
330
1A
100
AcDbEntity
  8
1
  6
ACAD_ISO02W100
 62
     5
100
AcDbCircle
 10
318.2190048296588
 20
313.3768277114726
 30
0.0
 40
3.499999999998328
100
AcDbArc
 50
341.6823015887918
 51
18.31769841120792
1001
PHOENIX7010
1002
{
1070
    62
1070
     5
1070
    41
1040
1.0
1002
}
  0
ARC
  5
9DE
330
1A
100
AcDbEntity
  8
1
  6
Continuous
 62
     7
100
AcDbCircle
 10
318.2190048296588
 20
313.3768277114726
 30
0.0
 40
3.499999999998334
100
AcDbArc
 50
18.31769841120792
 51
129.5176527971385
1001
PHOENIX7010
1002
{
1070
    62
1070
     7
1070
    41
1040
1.0
1002
}
  0
ARC
  5
9DF
330
1A
100
AcDbEntity
  8
1
  6
ACAD_ISO02W100
 62
     5
100
AcDbCircle
 10
318.2190048296588
 20
192.3768277114728
 30
0.0
 40
3.499999999998323
100
AcDbArc
 50
205.3769335251653
 51
230.4823472028601
1001
PHOENIX7010
1002
{
1070
    62
1070
     5
1070
    41
1040
1.0
1002
}
  0
ARC
  5
9E0
330
1A
100
AcDbEntity
  8
1
  6
Continuous
 62
     7
100
AcDbCircle
 10
318.2190048296588
 20
192.3768277114728
 30
0.0
 40
3.499999999998351
100
AcDbArc
 50
89.99999999999907
 51
205.3769335251653
1001
PHOENIX7010
1002
{
1070
    62
1070
     7
1070
    41
1040
1.0
1002
}
  0
ARC
  5
9E1
330
1A
100
AcDbEntity
  8
1
  6
ACAD_ISO02W100
 62
     5
100
AcDbCircle
 10
318.2190048296588
 20
192.3768277114728
 30
0.0
 40
3.499999999998363
100
AcDbArc
 50
40.78703819323172
 51
89.99999999999907
1001
PHOENIX7010
1002
{
1070
    62
1070
     5
1070
    41
1040
1.0
1002
}
  0
ARC
  5
9E2
330
1A
100
AcDbEntity
  8
1
  6
Continuous
 62
     7
100
AcDbCircle
 10
318.2190048296588
 20
192.3768277114728
 30
0.0
 40
3.499999999998345
100
AcDbArc
 50
18.3176984112088
 51
40.78703819323172
1001
PHOENIX7010
1002
{
1070
    62
1070
     7
1070
    41
1040
1.0
1002
}
  0
ARC
  5
9E3
330
1A
100
AcDbEntity
  8
1
  6
ACAD_ISO02W100
 62
     5
100
AcDbCircle
 10
318.2190048296588
 20
192.3768277114728
 30
0.0
 40
3.49999999999831
100
AcDbArc
 50
341.682301588793
 51
18.31769841120912
1001
PHOENIX7010
1002
{
1070
    62
1070
     5
1070
    41
1040
1.0
1002
}
  0
ARC
  5
9E4
330
1A
100
AcDbEntity
  8
1
  6
Continuous
 62
     7
100
AcDbCircle
 10
318.2190048296588
 20
192.3768277114728
 30
0.0
 40
3.499999999998334
100
AcDbArc
 50
230.4823472028614
 51
341.682301588793
1001
PHOENIX7010
1002
{
1070
    62
1070
     7
1070
    41
1040
1.0
1002
}
  0
ARC
  5
9E5
330
1A
100
AcDbEntity
  8
1
  6
ACAD_ISO02W100
 62
     5
100
AcDbCircle
 10
170.9190048296587
 20
192.376827711473
 30
0.0
 40
3.499999999998335
100
AcDbArc
 50
309.5176527971399
 51
334.6230664748342
1001
PHOENIX7010
1002
{
1070
    62
1070
     5
1070
    41
1040
1.0
1002
}
  0
ARC
  5
9E6
330
1A
100
AcDbEntity
  8
1
  6
Continuous
 62
     7
100
AcDbCircle
 10
170.9190048296587
 20
192.376827711473
 30
0.0
 40
3.499999999998351
100
AcDbArc
 50
334.6230664748342
 51
90.0000000000009
1001
PHOENIX7010
1002
{
1070
    62
1070
     7
1070
    41
1040
1.0
1002
}
  0
ARC
  5
9E7
330
1A
100
AcDbEntity
  8
1
  6
ACAD_ISO02W100
 62
     5
100
AcDbCircle
 10
170.9190048296587
 20
192.376827711473
 30
0.0
 40
3.499999999998363
100
AcDbArc
 50
90.0000000000009
 51
139.2129618067682
1001
PHOENIX7010
1002
{
1070
    62
1070
     5
1070
    41
1040
1.0
1002
}
  0
ARC
  5
9E8
330
1A
100
AcDbEntity
  8
1
  6
Continuous
 62
     7
100
AcDbCircle
 10
170.9190048296587
 20
192.376827711473
 30
0.0
 40
3.499999999998345
100
AcDbArc
 50
139.2129618067682
 51
161.6823015887911
1001
PHOENIX7010
1002
{
1070
    62
1070
     7
1070
    41
1040
1.0
1002
}
  0
ARC
  5
9E9
330
1A
100
AcDbEntity
  8
1
  6
ACAD_ISO02W100
 62
     5
100
AcDbCircle
 10
170.9190048296587
 20
192.376827711473
 30
0.0
 40
3.49999999999831
100
AcDbArc
 50
161.682301588791
 51
198.317698411207
1001
PHOENIX7010
1002
{
1070
    62
1070
     5
1070
    41
1040
1.0
1002
}
  0
ARC
  5
9EA
330
1A
100
AcDbEntity
  8
1
  6
Continuous
 62
     7
100
AcDbCircle
 10
170.9190048296587
 20
192.376827711473
 30
0.0
 40
3.499999999998334
100
AcDbArc
 50
198.3176984112069
 51
309.5176527971386
1001
PHOENIX7010
1002
{
1070
    62
1070
     7
1070
    41
1040
1.0
1002
}
  0
INSERT
  5
B2E
330
1A
100
AcDbEntity
  8
1
  6
Continuous
 62
     1
100
AcDbBlockReference
  2
*X13
 10
0.0
 20
0.0
 30
0.0
1001
ACAD
1000
HATCH
1002
{
1070
    19
1000
_U
1040
1.5
1040
0.7853981633974483
1070
     0
1000
ASC_BOUNDS
1070
     1
1070
     2
1070
    16
1005
790
1005
791
1005
792
1005
793
1005
794
1005
795
1005
796
1005
797
1005
798
1005
799
1005
79A
1005
79B
1005
79C
1005
79D
1005
79E
1005
79F
1000
ASC_SEEDPOINT
1011
0.0
1021
0.0
1031
0.0
1002
}
1001
PHOENIX7010
1002
{
1070
    41
1040
1.0
1002
}
  0
INSERT
  5
B51
330
1A
100
AcDbEntity
  8
1
  6
Continuous
 62
     1
100
AcDbBlockReference
  2
*X14
 10
0.0
 20
0.0
 30
0.0
1001
ACAD
1000
HATCH
1002
{
1070
    19
1000
_U
1040
1.5
1040
0.7853981633974483
1070
     0
1000
ASC_BOUNDS
1070
     1
1070
     2
1070
    16
1005
7A0
1005
7A1
1005
7A2
1005
7A3
1005
7A4
1005
7A5
1005
7A6
1005
7A7
1005
7A8
1005
7A9
1005
7AA
1005
7AB
1005
7AC
1005
7AD
1005
7AE
1005
7AF
1000
ASC_SEEDPOINT
1011
0.0
1021
0.0
1031
0.0
1002
}
1001
PHOENIX7010
1002
{
1070
    41
1040
1.0
1002
}
  0
TEXT
  5
BB5
330
1A
100
AcDbEntity
  8
1
  6
Continuous
 62
     5
100
AcDbText
 10
256.4699061662199
 20
55.04981574118635
 30
0.0
 40
7.0
  1
   L
 41
1.574999999999999
100
AcDbText
1001
PHOENIX7010
1002
{
1070
    62
1070
     5
1070
    41
1040
1.0
1002
}
  0
TEXT
  5
BB6
330
1A
100
AcDbEntity
  8
1
  6
Continuous
 62
     5
100
AcDbText
 10
256.4699061662199
 20
41.04981574118634
 30
0.0
 40
7.0
  1
133.4
 41
1.574999999999999
100
AcDbText
1001
PHOENIX7010
1002
{
1070
    62
1070
     5
1070
    41
1040
1.0
1002
}
  0
TEXT
  5
BB7
330
1A
100
AcDbEntity
  8
1
  6
Continuous
 62
     5
100
AcDbText
 10
256.4699061662199
 20
27.04981574118635
 30
0.0
 40
7.0
  1
184.2
 41
1.574999999999999
100
AcDbText
1001
PHOENIX7010
1002
{
1070
    62
1070
     5
1070
    41
1040
1.0
1002
}
  0
TEXT
  5
BB8
330
1A
100
AcDbEntity
  8
1
  6
Continuous
 62
     5
100
AcDbText
 10
256.4699061662199
 20
13.04981574118635
 30
0.0
 40
7.0
  1
280.72
 41
1.574999999999999
100
AcDbText
1001
PHOENIX7010
1002
{
1070
    62
1070
     5
1070
    41
1040
1.0
1002
}
  0
TEXT
  5
BBF
330
1A
100
AcDbEntity
  8
1
  6
Continuous
 62
     5
100
AcDbText
 10
315.26990616622
 20
55.04981574118636
 30
0.0
 40
7.0
  1
  L1
 41
1.574999999999999
100
AcDbText
1001
PHOENIX7010
1002
{
1070
    62
1070
     5
1070
    41
1040
1.0
1002
}
  0
TEXT
  5
BC0
330
1A
100
AcDbEntity
  8
1
  6
Continuous
 62
     5
100
AcDbText
 10
315.26990616622
 20
41.04981574118635
 30
0.0
 40
7.0
  1
 96.5
 41
1.574999999999999
100
AcDbText
1001
PHOENIX7010
1002
{
1070
    62
1070
     5
1070
    41
1040
1.0
1002
}
  0
TEXT
  5
BC1
330
1A
100
AcDbEntity
  8
1
  6
Continuous
 62
     5
100
AcDbText
 10
315.26990616622
 20
27.04981574118636
 30
0.0
 40
7.0
  1
147.3
 41
1.574999999999999
100
AcDbText
1001
PHOENIX7010
1002
{
1070
    62
1070
     5
1070
    41
1040
1.0
1002
}
  0
TEXT
  5
BC2
330
1A
100
AcDbEntity
  8
1
  6
Continuous
 62
     5
100
AcDbText
 10
315.26990616622
 20
13.04981574118636
 30
0.0
 40
7.0
  1
243.82
 41
1.574999999999999
100
AcDbText
1001
PHOENIX7010
1002
{
1070
    62
1070
     5
1070
    41
1040
1.0
1002
}
  0
LINE
  5
E0D
102
{ACAD_REACTORS
330
E1F
102
}
330
1A
100
AcDbEntity
  8
0
  6
Continuous
 62
     1
370
    50
100
AcDbLine
 10
403.0
 20
1.0
 30
0.0
 11
403.0
 21
5.0
 31
0.0
1001
PHOENIX7010
1002
{
1070
    62
1070
     1
1070
    41
1040
1.0
1002
}
  0
LINE
  5
E0E
102
{ACAD_REACTORS
330
E1F
102
}
330
1A
100
AcDbEntity
  8
0
  6
Continuous
 62
     3
370
    50
100
AcDbLine
 10
589.0
 20
415.0
 30
0.0
 11
589.0
 21
5.0
 31
0.0
1001
PHOENIX7010
1002
{
1070
    62
1070
     3
1070
    41
1040
1.0
1002
}
  0
LINE
  5
E0F
102
{ACAD_REACTORS
330
E1F
102
}
330
1A
100
AcDbEntity
  8
0
  6
Continuous
 62
     3
370
    50
100
AcDbLine
 10
20.0
 20
415.0
 30
0.0
 11
589.0
 21
415.0
 31
0.0
1001
PHOENIX7010
1002
{
1070
    62
1070
     3
1070
    41
1040
1.0
1002
}
  0
LINE
  5
E10
102
{ACAD_REACTORS
330
E1F
102
}
330
1A
100
AcDbEntity
  8
0
  6
Continuous
 62
     1
370
    50
100
AcDbLine
 10
116.0
 20
5.0
 30
0.0
 11
116.0
 21
1.0
 31
0.0
1001
PHOENIX7010
1002
{
1070
    62
1070
     1
1070
    41
1040
1.0
1002
}
  0
LINE
  5
E11
102
{ACAD_REACTORS
330
E1F
102
}
330
1A
100
AcDbEntity
  8
0
  6
Continuous
 62
     1
370
    50
100
AcDbLine
 10
116.0
 20
419.0
 30
0.0
 11
116.0
 21
415.0
 31
0.0
1001
PHOENIX7010
1002
{
1070
    62
1070
     1
1070
    41
1040
1.0
1002
}
  0
LINE
  5
E12
102
{ACAD_REACTORS
330
E1F
102
}
330
1A
100
AcDbEntity
  8
0
  6
Continuous
 62
     1
370
    50
100
AcDbLine
 10
213.0
 20
5.0
 30
0.0
 11
213.0
 21
1.0
 31
0.0
1001
PHOENIX7010
1002
{
1070
    62
1070
     1
1070
    41
1040
1.0
1002
}
  0
LINE
  5
E13
102
{ACAD_REACTORS
330
E1F
102
}
330
1A
100
AcDbEntity
  8
0
  6
Continuous
 62
     1
370
    50
100
AcDbLine
 10
213.0
 20
419.0
 30
0.0
 11
213.0
 21
415.0
 31
0.0
1001
PHOENIX7010
1002
{
1070
    62
1070
     1
1070
    41
1040
1.0
1002
}
  0
LINE
  5
E14
102
{ACAD_REACTORS
330
E1F
102
}
330
1A
100
AcDbEntity
  8
0
  6
Continuous
 62
     1
370
    50
100
AcDbLine
 10
403.0
 20
419.0
 30
0.0
 11
403.0
 21
415.0
 31
0.0
1001
PHOENIX7010
1002
{
1070
    62
1070
     1
1070
    41
1040
1.0
1002
}
  0
LINE
  5
E15
102
{ACAD_REACTORS
330
E1F
102
}
330
1A
100
AcDbEntity
  8
0
  6
Continuous
 62
     3
370
    50
100
AcDbLine
 10
20.0
 20
5.0
 30
0.0
 11
20.0
 21
415.0
 31
0.0
1001
PHOENIX7010
1002
{
1070
    62
1070
     3
1070
    41
1040
1.0
1002
}
  0
LINE
  5
E16
102
{ACAD_REACTORS
330
E1F
102
}
330
1A
100
AcDbEntity
  8
0
  6
Continuous
 62
     3
370
    50
100
AcDbLine
 10
589.0
 20
5.0
 30
0.0
 11
20.0
 21
5.0
 31
0.0
1001
PHOENIX7010
1002
{
1070
    62
1070
     3
1070
    41
1040
1.0
1002
}
  0
LINE
  5
E17
102
{ACAD_REACTORS
330
E1F
102
}
330
1A
100
AcDbEntity
  8
0
  6
Continuous
 62
     1
370
    50
100
AcDbLine
 10
1.0
 20
1.0
 30
0.0
 11
1.0
 21
419.0
 31
0.0
1001
PHOENIX7010
1002
{
1070
    62
1070
     1
1070
    41
1040
1.0
1002
}
  0
LINE
  5
E18
102
{ACAD_REACTORS
330
E1F
102
}
330
1A
100
AcDbEntity
  8
0
  6
Continuous
 62
     1
370
    50
100
AcDbLine
 10
1.0
 20
419.0
 30
0.0
 11
593.0
 21
419.0
 31
0.0
1001
PHOENIX7010
1002
{
1070
    62
1070
     1
1070
    41
1040
1.0
1002
}
  0
LINE
  5
E19
102
{ACAD_REACTORS
330
E1F
102
}
330
1A
100
AcDbEntity
  8
0
  6
Continuous
 62
     1
370
    50
100
AcDbLine
 10
593.0
 20
419.0
 30
0.0
 11
593.0
 21
1.0
 31
0.0
1001
PHOENIX7010
1002
{
1070
    62
1070
     1
1070
    41
1040
1.0
1002
}
  0
LINE
  5
E1A
102
{ACAD_REACTORS
330
E1F
102
}
330
1A
100
AcDbEntity
  8
0
  6
Continuous
 62
     1
370
    50
100
AcDbLine
 10
593.0
 20
1.0
 30
0.0
 11
1.0
 21
1.0
 31
0.0
1001
PHOENIX7010
1002
{
1070
    62
1070
     1
1070
    41
1040
1.0
1002
}
  0
LINE
  5
E1B
102
{ACAD_REACTORS
330
E1F
102
}
330
1A
100
AcDbEntity
  8
0
  6
Continuous
 62
     1
370
    50
100
AcDbLine
 10
589.0
 20
297.0
 30
0.0
 11
593.0
 21
297.0
 31
0.0
1001
PHOENIX7010
1002
{
1070
    62
1070
     1
1070
    41
1040
1.0
1002
}
  0
MTEXT
  5
E1C
102
{ACAD_REACTORS
330
E1F
102
}
330
1A
100
AcDbEntity
  8
0
  6
Continuous
 62
     7
370
    50
100
AcDbMText
 10
19.70248718641096
 20
55.39351207913341
 30
0.0
 40
2.0
 41
0.0
 71
     7
 72
     5
  1
{\T1.1;\C1;"Schutzvermerk nach DIN ISO 16016 beachten" \Q20;"Please pay attention to copyright note DIN ISO 16016"}
 11
0.0000000000000002
 21
1.0
 31
0.0
 73
     1
 44
1.0
1001
PHOENIX7010
1002
{
1070
    41
1040
1.0
1002
}
1001
ACAD
1000
MTEXTBEGIN
1070
    73
1070
     1
1070
    44
1040
1.0
1070
    74
1070
     0
1000
MTEXTEND
  0
INSERT
  5
E1D
102
{ACAD_REACTORS
330
E1F
102
}
330
1A
100
AcDbEntity
  8
0
  6
Continuous
 62
     1
370
    50
100
AcDbBlockReference
  2
PH_GRPBLK
 10
403.0
 20
1.0
 30
0.0
1001
PHOENIX7010
1002
{
1070
    41
1040
1.0
1002
}
  0
HATCH
  5
E32
102
{ACAD_REACTORS
330
E86
102
}
330
1A
100
AcDbEntity
  8
0
  6
Continuous
 62
     1
370
    25
100
AcDbHatch
 10
0.0
 20
0.0
 30
0.0
210
0.0
220
0.0
230
1.0
  2
_U
 70
     0
 71
     1
 91
        1
 92
        0
 93
        5
 72
     1
 10
581.4334749940256
 20
35.16453811398037
 11
574.7334749940255
 21
27.36453811398031
 72
     1
 10
574.7334749940255
 20
27.36453811398031
 11
586.7334749940255
 21
27.36453811398031
 72
     1
 10
586.7334749940255
 20
27.36453811398031
 11
586.7334749940255
 21
35.16453811398032
 72
     1
 10
586.7334749940255
 20
35.16453811398026
 11
581.4334749940256
 21
28.26453811398037
 72
     1
 10
581.4334749940256
 20
28.26453811398039
 11
581.4334749940256
 21
35.16453811398037
 97
        1
330
E76
 75
     0
 76
     0
 52
45.0
 41
0.1
 77
     0
 78
     1
 53
45.0
 43
174.0
 44
-32.08885297207064
 45
-0.0707106781186548
 46
0.0707106781186548
 79
     0
 98
        1
 10
174.0
 20
-32.08885297207064
1001
PHOENIX7010
1002
{
1070
    41
1040
1.0
1002
}
  0
HATCH
  5
E33
102
{ACAD_REACTORS
330
E86
102
}
330
1A
100
AcDbEntity
  8
0
  6
Continuous
 62
     1
370
    25
100
AcDbHatch
 10
0.0
 20
0.0
 30
0.0
210
0.0
220
0.0
230
1.0
  2
_U
 70
     0
 71
     1
 91
        1
 92
        0
 93
        3
 72
     1
 10
573.8834749940255
 20
27.36453811398031
 11
573.8834749940255
 21
31.51453811398031
 72
     1
 10
573.8834749940255
 20
31.51453811398028
 11
578.0334749940254
 21
31.51453811398028
 72
     2
 10
573.8834749940255
 20
31.51453811398028
 40
4.149999999999977
 50
0.0000000000001962
 51
270.0
 73
     1
 97
        1
330
E77
 75
     0
 76
     0
 52
45.0
 41
0.65
 77
     0
 78
     1
 53
45.0
 43
174.0
 44
-32.08885297207064
 45
-0.4596194077712559
 46
0.459619407771256
 79
     0
 98
        1
 10
174.0
 20
-32.08885297207064
1001
PHOENIX7010
1002
{
1070
    41
1040
1.0
1002
}
  0
LINE
  5
E34
102
{ACAD_REACTORS
330
E86
102
}
330
1A
100
AcDbEntity
  8
0
  6
Continuous
 62
     7
370
    50
100
AcDbLine
 10
574.7334749940255
 20
27.36453811398031
 30
0.0
 11
586.7334749940255
 21
27.36453811398031
 31
0.0
1001
PHOENIX7010
1002
{
1070
    41
1040
1.0
1002
}
  0
LINE
  5
E35
102
{ACAD_REACTORS
330
E86
102
}
330
1A
100
AcDbEntity
  8
0
  6
Continuous
 62
     7
370
    50
100
AcDbLine
 10
586.7334749940255
 20
27.36453811398031
 30
0.0
 11
586.7334749940255
 21
35.16453811398026
 31
0.0
1001
PHOENIX7010
1002
{
1070
    41
1040
1.0
1002
}
  0
LINE
  5
E36
102
{ACAD_REACTORS
330
E86
102
}
330
1A
100
AcDbEntity
  8
0
  6
Continuous
 62
     7
370
    50
100
AcDbLine
 10
581.4334749940256
 20
28.26453811398028
 30
0.0
 11
581.4334749940256
 21
35.16453811398026
 31
0.0
1001
PHOENIX7010
1002
{
1070
    41
1040
1.0
1002
}
  0
LINE
  5
E37
102
{ACAD_REACTORS
330
E86
102
}
330
1A
100
AcDbEntity
  8
0
  6
Continuous
 62
     7
370
    50
100
AcDbLine
 10
581.4334749940256
 20
35.16453811398026
 30
0.0
 11
574.7334749940255
 21
27.36453811398031
 31
0.0
1001
PHOENIX7010
1002
{
1070
    41
1040
1.0
1002
}
  0
LINE
  5
E38
102
{ACAD_REACTORS
330
E86
102
}
330
1A
100
AcDbEntity
  8
0
  6
Continuous
 62
     7
370
    50
100
AcDbLine
 10
586.7334749940255
 20
35.16453811398026
 30
0.0
 11
581.4334749940256
 21
28.26453811398028
 31
0.0
1001
PHOENIX7010
1002
{
1070
    41
1040
1.0
1002
}
  0
INSERT
  5
E39
102
{ACAD_REACTORS
330
E86
102
}
330
1A
100
AcDbEntity
  8
0
  6
Continuous
 62
     1
370
    25
100
AcDbBlockReference
  2
PH_GRPBLK
 10
574.7334749940255
 20
27.36453811398031
 30
0.0
1001
PHOENIX7010
1002
{
1070
    41
1040
1.0
1002
}
  0
MTEXT
  5
E3A
102
{ACAD_REACTORS
330
E87
102
}
330
1A
100
AcDbEntity
  8
0
  6
Continuous
 62
     7
370
    50
100
AcDbMText
 10
555.0842366554657
 20
17.88346060003141
 30
0.0
 40
1.6
 41
0.0
 71
     7
 72
     5
  1
{\fArial|b0|i0|c0|p34;\W1.1;\C1;A Phoenix Mecano Company}
 73
     1
 44
1.0
1001
PHOENIX7010
1002
{
1070
    41
1040
1.0
1002
}
1001
ACAD
1000
MTEXTBEGIN
1070
    73
1070
     1
1070
    44
1040
1.0
1070
    74
1070
     0
1000
MTEXTEND
  0
MTEXT
  5
E3B
102
{ACAD_XDICTIONARY
360
F04
102
}
102
{ACAD_REACTORS
330
E87
102
}
330
1A
100
AcDbEntity
  8
0
  6
Continuous
 62
     7
370
    50
100
AcDbMText
 10
567.5658807175857
 20
21.46517927327727
 30
0.0
 40
3.7
 41
0.0
 71
     7
 72
     5
  1
{\fArial|b1|i0|c0|p34;\W1.1;BOPLA}
 73
     1
 44
1.135135135135135
1001
PHOENIX7010
1002
{
1070
    41
1040
1.0
1002
}
1001
ACAD
1000
MTEXTBEGIN
1070
    73
1070
     1
1070
    44
1040
1.135135135135135
1070
    74
1070
     0
1000
MTEXTEND
  0
INSERT
  5
E3C
102
{ACAD_REACTORS
330
E87
102
}
330
1A
100
AcDbEntity
  8
0
  6
Continuous
 62
     7
370
    50
100
AcDbBlockReference
  2
PH_GRPBLK
 10
574.7334749940255
 20
27.36453811398031
 30
0.0
1001
PHOENIX7010
1002
{
1070
    41
1040
1.0
1002
}
  0
MTEXT
  5
E3D
102
{ACAD_REACTORS
330
E88
102
}
330
1A
100
AcDbEntity
  8
0
  6
Continuous
 62
     5
370
    35
100
AcDbMText
 10
492.9304981780733
 20
52.18090043987115
 30
0.0
 40
4.0
 41
0.0
 71
     7
 72
     5
  1
{\Q20;\C7;Catalogue drawing}
 73
     1
 44
1.0
1001
PHOENIX7010
1002
{
1070
    41
1040
1.0
1002
}
1001
ACAD
1000
MTEXTBEGIN
1070
    73
1070
     1
1070
    44
1040
1.0
1070
    74
1070
     0
1000
MTEXTEND
  0
MTEXT
  5
E3E
102
{ACAD_REACTORS
330
E88
102
}
330
1A
100
AcDbEntity
  8
0
  6
Continuous
 62
     5
370
    35
100
AcDbMText
 10
492.9304981780733
 20
59.18090043987115
 30
0.0
 40
4.0
 41
0.0
 71
     7
 72
     5
  1
{\C7;Katalogzeichnung/}
 73
     1
 44
1.0
1001
PHOENIX7010
1002
{
1070
    41
1040
1.0
1002
}
1001
ACAD
1000
MTEXTBEGIN
1070
    73
1070
     1
1070
    44
1040
1.0
1070
    74
1070
     0
1000
MTEXTEND
  0
MTEXT
  5
E3F
102
{ACAD_REACTORS
330
E88
102
}
330
1A
100
AcDbEntity
  8
0
  6
Continuous
 62
     5
370
    35
100
AcDbMText
 10
492.9304981780733
 20
66.18090043987115
 30
0.0
 40
4.0
 41
0.0
 71
     7
 72
     5
  1
{\C7;BC 1000-3000 N}
 73
     1
 44
1.0
1001
PHOENIX7010
1002
{
1070
    41
1040
1.0
1002
}
1001
ACAD
1000
MTEXTBEGIN
1070
    73
1070
     1
1070
    44
1040
1.0
1070
    74
1070
     0
1000
MTEXTEND
  0
MTEXT
  5
E40
102
{ACAD_REACTORS
330
E88
102
}
330
1A
100
AcDbEntity
  8
0
  6
Continuous
 62
     5
370
    35
100
AcDbMText
 10
514.3074630969179
 20
95.1987580068236
 30
0.0
 40
4.0
 41
0.0
 71
     7
 72
     5
  1
{\C7;1:1}
 73
     1
 44
1.0
1001
PHOENIX7010
1002
{
1070
    41
1040
1.0
1002
}
1001
ACAD
1000
MTEXTBEGIN
1070
    73
1070
     1
1070
    44
1040
1.0
1070
    74
1070
     0
1000
MTEXTEND
  0
MTEXT
  5
E41
102
{ACAD_REACTORS
330
E88
102
}
330
1A
100
AcDbEntity
  8
0
  6
Continuous
 62
     5
370
    35
100
AcDbMText
 10
493.2942762589885
 20
94.24669079255101
 30
0.0
 40
2.5
 41
0.0
 71
     7
 72
     5
  1
{\C1;Maßstab/\P\Q20;Scale:}
 73
     1
 44
1.0
1001
PHOENIX7010
1002
{
1070
    41
1040
1.0
1002
}
1001
ACAD
1000
MTEXTBEGIN
1070
    73
1070
     1
1070
    44
1040
1.0
1070
    74
1070
     0
1000
MTEXTEND
  0
MTEXT
  5
E42
102
{ACAD_REACTORS
330
E88
102
}
330
1A
100
AcDbEntity
  8
0
  6
Continuous
 62
     5
370
    35
100
AcDbMText
 10
493.5702130763932
 20
86.57846179300589
 30
0.0
 40
3.0
 41
0.0
 71
     7
 72
     5
  1
Zeichnungs-Nr. / {\Q20;Drawing-No.:}
 73
     1
 44
1.0
1001
PHOENIX7010
1002
{
1070
    41
1040
1.0
1002
}
1001
ACAD
1000
MTEXTBEGIN
1070
    73
1070
     1
1070
    44
1040
1.0
1070
    74
1070
     0
1000
MTEXTEND
  0
MTEXT
  5
E43
102
{ACAD_REACTORS
330
E88
102
}
330
1A
100
AcDbEntity
  8
0
  6
Continuous
 62
     5
370
    35
100
AcDbMText
 10
514.6810942169351
 20
80.43630467405558
 30
0.0
 40
4.0
 41
0.0
 71
     7
 72
     5
  1
{\C7;2G 1200.180.02}
 73
     1
 44
1.0
1001
PHOENIX7010
1002
{
1070
    41
1040
1.0
1002
}
1001
ACAD
1000
MTEXTBEGIN
1070
    73
1070
     1
1070
    44
1040
1.0
1070
    74
1070
     0
1000
MTEXTEND
  0
MTEXT
  5
E44
102
{ACAD_REACTORS
330
E88
102
}
330
1A
100
AcDbEntity
  8
0
  6
Continuous
 62
     5
370
    35
100
AcDbMText
 10
492.8800602381663
 20
72.42896167163701
 30
0.0
 40
4.0
 41
0.0
 71
     7
 72
     5
  1
{\C7;Artikel / \Q20;Article:}
 73
     1
 44
1.0
1001
PHOENIX7010
1002
{
1070
    41
1040
1.0
1002
}
1001
ACAD
1000
MTEXTBEGIN
1070
    73
1070
     1
1070
    44
1040
1.0
1070
    74
1070
     0
1000
MTEXTEND
  0
MTEXT
  5
E45
102
{ACAD_REACTORS
330
E88
102
}
330
1A
100
AcDbEntity
  8
0
  6
Continuous
 62
     5
370
    35
100
AcDbMText
 10
503.5918340418986
 20
15.32304279191078
 30
0.0
 40
2.0
 41
0.0
 71
     7
 72
     5
  1
{\C1;Datum/\P\Q20;Date:}
 73
     1
 44
1.0
1001
PHOENIX7010
1002
{
1070
    41
1040
1.0
1002
}
1001
ACAD
1000
MTEXTBEGIN
1070
    73
1070
     1
1070
    44
1040
1.0
1070
    74
1070
     0
1000
MTEXTEND
  0
MTEXT
  5
E46
102
{ACAD_REACTORS
330
E88
102
}
330
1A
100
AcDbEntity
  8
0
  6
Continuous
 62
     5
370
    35
100
AcDbMText
 10
490.167758256943
 20
15.32303913053613
 30
0.0
 40
2.0
 41
0.0
 71
     7
 72
     5
  1
{\C1;Ä.Nr/\P\Q20;Alt-No.:}
 73
     1
 44
1.0
1001
PHOENIX7010
1002
{
1070
    41
1040
1.0
1002
}
1001
ACAD
1000
MTEXTBEGIN
1070
    73
1070
     1
1070
    44
1040
1.0
1070
    74
1070
     0
1000
MTEXTEND
  0
MTEXT
  5
E47
102
{ACAD_REACTORS
330
E88
102
}
330
1A
100
AcDbEntity
  8
0
  6
Continuous
 62
     5
370
    35
100
AcDbMText
 10
516.2178658257174
 20
10.60592166613924
 30
0.0
 40
2.5
 41
0.0
 71
     7
 72
     5
  1
2 101 355
 73
     1
 44
1.0
1001
PHOENIX7010
1002
{
1070
    41
1040
1.0
1002
}
1001
ACAD
1000
MTEXTBEGIN
1070
    73
1070
     1
1070
    44
1040
1.0
1070
    74
1070
     0
1000
MTEXTEND
  0
MTEXT
  5
E48
102
{ACAD_REACTORS
330
E88
102
}
330
1A
100
AcDbEntity
  8
0
  6
Continuous
 62
     5
370
    35
100
AcDbMText
 10
490.5289912646938
 20
10.49475527098104
 30
0.0
 40
2.5
 41
0.0
 71
     7
 72
     5
  1
DISK:
 73
     1
 44
1.0
1001
PHOENIX7010
1002
{
1070
    41
1040
1.0
1002
}
1001
ACAD
1000
MTEXTBEGIN
1070
    73
1070
     1
1070
    44
1040
1.0
1070
    74
1070
     0
1000
MTEXTEND
  0
MTEXT
  5
E49
102
{ACAD_REACTORS
330
E88
102
}
330
1A
100
AcDbEntity
  8
0
  6
Continuous
 62
     5
370
    35
100
AcDbMText
 10
516.2178658257174
 20
6.24888752318759
 30
0.0
 40
2.5
 41
0.0
 71
     7
 72
     5
  1
14.08.89
 73
     1
 44
1.0
1001
PHOENIX7010
1002
{
1070
    41
1040
1.0
1002
}
1001
ACAD
1000
MTEXTBEGIN
1070
    73
1070
     1
1070
    44
1040
1.0
1070
    74
1070
     0
1000
MTEXTEND
  0
MTEXT
  5
E4A
102
{ACAD_REACTORS
330
E88
102
}
330
1A
100
AcDbEntity
  8
0
  6
Continuous
 62
     5
370
    35
100
AcDbMText
 10
490.5289912646938
 20
6.24888752318759
 30
0.0
 40
2.5
 41
0.0
 71
     7
 72
     5
  1
Datum/{\Q20;Date:}
 73
     1
 44
1.0
1001
PHOENIX7010
1002
{
1070
    41
1040
1.0
1002
}
1001
ACAD
1000
MTEXTBEGIN
1070
    73
1070
     1
1070
    44
1040
1.0
1070
    74
1070
     0
1000
MTEXTEND
  0
LINE
  5
E4B
102
{ACAD_REACTORS
330
E88
102
}
330
1A
100
AcDbEntity
  8
0
  6
Continuous
 62
     5
370
    35
100
AcDbLine
 10
488.9999999999997
 20
14.50000000000011
 30
0.0
 11
589.0
 21
14.50000000000011
 31
0.0
1001
PHOENIX7010
1002
{
1070
    41
1040
1.0
1002
}
  0
LINE
  5
E4C
102
{ACAD_REACTORS
330
E88
102
}
330
1A
100
AcDbEntity
  8
0
  6
Continuous
 62
     5
100
AcDbLine
 10
579.4999999999998
 20
92.5
 30
0.0
 11
579.4999999999998
 21
99.50000000000001
 31
0.0
1001
PHOENIX7010
1002
{
1070
    62
1070
     5
1070
    41
1040
1.0
1002
}
  0
LINE
  5
E4D
102
{ACAD_REACTORS
330
E88
102
}
330
1A
100
AcDbEntity
  8
0
  6
ACAD_ISO04W100
 62
     1
 48
0.1451612903225806
100
AcDbLine
 10
584.4999999999997
 20
91.5
 30
0.0
 11
584.4999999999997
 21
100.5
 31
0.0
1001
PHOENIX7010
1002
{
1070
    62
1070
     1
1070
    41
1040
1.0
1002
}
  0
CIRCLE
  5
E4E
102
{ACAD_REACTORS
330
E88
102
}
330
1A
100
AcDbEntity
  8
0
  6
Continuous
 62
     5
100
AcDbCircle
 10
584.4999999999997
 20
96.0
 30
0.0
 40
1.75
1001
PHOENIX7010
1002
{
1070
    62
1070
     5
1070
    41
1040
1.0
1002
}
  0
CIRCLE
  5
E4F
102
{ACAD_REACTORS
330
E88
102
}
330
1A
100
AcDbEntity
  8
0
  6
Continuous
 62
     5
100
AcDbCircle
 10
584.4999999999997
 20
96.0
 30
0.0
 40
3.5
1001
PHOENIX7010
1002
{
1070
    62
1070
     5
1070
    41
1040
1.0
1002
}
  0
LINE
  5
E50
102
{ACAD_REACTORS
330
E88
102
}
330
1A
100
AcDbEntity
  8
0
  6
Continuous
 62
     5
100
AcDbLine
 10
572.4999999999997
 20
94.25
 30
0.0
 11
572.4999999999997
 21
97.75
 31
0.0
1001
PHOENIX7010
1002
{
1070
    62
1070
     5
1070
    41
1040
1.0
1002
}
  0
LINE
  5
E51
102
{ACAD_REACTORS
330
E88
102
}
330
1A
100
AcDbEntity
  8
0
  6
ACAD_ISO04W100
 62
     1
 48
0.282258064516129
100
AcDbLine
 10
588.9999999999997
 20
96.0
 30
0.0
 11
571.4999999999998
 21
96.0
 31
0.0
1001
PHOENIX7010
1002
{
1070
    62
1070
     1
1070
    41
1040
1.0
1002
}
  0
LINE
  5
E52
102
{ACAD_REACTORS
330
E88
102
}
330
1A
100
AcDbEntity
  8
0
  6
Continuous
 62
     5
100
AcDbLine
 10
579.4999999999998
 20
92.5
 30
0.0
 11
572.4999999999997
 21
94.25
 31
0.0
1001
PHOENIX7010
1002
{
1070
    62
1070
     5
1070
    41
1040
1.0
1002
}
  0
LINE
  5
E53
102
{ACAD_REACTORS
330
E88
102
}
330
1A
100
AcDbEntity
  8
0
  6
Continuous
 62
     5
100
AcDbLine
 10
579.4999999999998
 20
99.50000000000001
 30
0.0
 11
572.4999999999997
 21
97.75
 31
0.0
1001
PHOENIX7010
1002
{
1070
    62
1070
     5
1070
    41
1040
1.0
1002
}
  0
ARC
  5
E54
102
{ACAD_REACTORS
330
E88
102
}
330
1A
100
AcDbEntity
  8
0
  6
Continuous
 62
     5
100
AcDbCircle
 10
491.4999999999998
 20
89.0
 30
0.0
 40
2.5
100
AcDbArc
 50
90.0
 51
180.0
1001
PHOENIX7010
1002
{
1070
    62
1070
     5
1070
    41
1040
1.0
1002
}
  0
ARC
  5
E55
102
{ACAD_REACTORS
330
E88
102
}
330
1A
100
AcDbEntity
  8
0
  6
Continuous
 62
     5
100
AcDbCircle
 10
491.4999999999998
 20
100.0
 30
0.0
 40
2.5
100
AcDbArc
 50
90.0
 51
180.0
1001
PHOENIX7010
1002
{
1070
    62
1070
     5
1070
    41
1040
1.0
1002
}
  0
LINE
  5
E56
102
{ACAD_REACTORS
330
E88
102
}
330
1A
100
AcDbEntity
  8
0
  6
Continuous
 62
     5
100
AcDbLine
 10
589.0
 20
91.5
 30
0.0
 11
491.4999999999998
 21
91.5
 31
0.0
1001
PHOENIX7010
1002
{
1070
    62
1070
     5
1070
    41
1040
1.0
1002
}
  0
LINE
  5
E57
102
{ACAD_REACTORS
330
E88
102
}
330
1A
100
AcDbEntity
  8
0
  6
Continuous
 62
     5
100
AcDbLine
 10
589.0
 20
102.5
 30
0.0
 11
491.4999999999998
 21
102.5
 31
0.0
1001
PHOENIX7010
1002
{
1070
    62
1070
     5
1070
    41
1040
1.0
1002
}
  0
LINE
  5
E58
102
{ACAD_REACTORS
330
E88
102
}
330
1A
100
AcDbEntity
  8
0
  6
Continuous
 62
     5
100
AcDbLine
 10
524.0
 20
48.00000000000011
 30
0.0
 11
524.0
 21
14.50000000000011
 31
0.0
1001
PHOENIX7010
1002
{
1070
    62
1070
     5
1070
    41
1040
1.0
1002
}
  0
TEXT
  5
E59
102
{ACAD_REACTORS
330
E88
102
}
330
1A
100
AcDbEntity
  8
0
  6
Continuous
 62
     1
100
AcDbText
 10
502.9999996997323
 20
42.74999981501355
 30
0.0
 40
2.0
  1
-
 41
1.5
100
AcDbText
1001
PHOENIX7010
1002
{
1070
    62
1070
     1
1070
    41
1040
1.0
1002
}
  0
TEXT
  5
E5A
102
{ACAD_REACTORS
330
E88
102
}
330
1A
100
AcDbEntity
  8
0
  6
Continuous
 62
     1
100
AcDbText
 10
502.9999996997323
 20
40.24999981501355
 30
0.0
 40
2.0
  1
-
 41
1.5
100
AcDbText
1001
PHOENIX7010
1002
{
1070
    62
1070
     1
1070
    41
1040
1.0
1002
}
  0
TEXT
  5
E5B
102
{ACAD_REACTORS
330
E88
102
}
330
1A
100
AcDbEntity
  8
0
  6
Continuous
 62
     1
100
AcDbText
 10
502.9999996997323
 20
45.24999981501355
 30
0.0
 40
2.0
  1
-
 41
1.5
100
AcDbText
1001
PHOENIX7010
1002
{
1070
    62
1070
     1
1070
    41
1040
1.0
1002
}
  0
TEXT
  5
E5C
102
{ACAD_REACTORS
330
E88
102
}
330
1A
100
AcDbEntity
  8
0
  6
Continuous
 62
     1
100
AcDbText
 10
489.9999996997324
 20
42.74999981501355
 30
0.0
 40
2.0
  1
-
 41
1.5
100
AcDbText
1001
PHOENIX7010
1002
{
1070
    62
1070
     1
1070
    41
1040
1.0
1002
}
  0
TEXT
  5
E5D
102
{ACAD_REACTORS
330
E88
102
}
330
1A
100
AcDbEntity
  8
0
  6
Continuous
 62
     1
100
AcDbText
 10
489.9999996997324
 20
40.24999981501355
 30
0.0
 40
2.0
  1
-
 41
1.5
100
AcDbText
1001
PHOENIX7010
1002
{
1070
    62
1070
     1
1070
    41
1040
1.0
1002
}
  0
TEXT
  5
E5E
102
{ACAD_REACTORS
330
E88
102
}
330
1A
100
AcDbEntity
  8
0
  6
Continuous
 62
     1
100
AcDbText
 10
489.9999996997324
 20
45.24999981501355
 30
0.0
 40
2.0
  1
-
 41
1.5
100
AcDbText
1001
PHOENIX7010
1002
{
1070
    62
1070
     1
1070
    41
1040
1.0
1002
}
  0
ARC
  5
E5F
102
{ACAD_REACTORS
330
E88
102
}
330
1A
100
AcDbEntity
  8
0
  6
Continuous
 62
     5
100
AcDbCircle
 10
491.4999999999998
 20
45.50000000000011
 30
0.0
 40
2.5
100
AcDbArc
 50
90.0
 51
180.0
1001
PHOENIX7010
1002
{
1070
    62
1070
     5
1070
    41
1040
1.0
1002
}
  0
ARC
  5
E60
102
{ACAD_REACTORS
330
E88
102
}
330
1A
100
AcDbEntity
  8
0
  6
Continuous
 62
     5
100
AcDbCircle
 10
491.4999999999998
 20
76.00000000000012
 30
0.0
 40
2.5
100
AcDbArc
 50
90.0
 51
180.0
1001
PHOENIX7010
1002
{
1070
    62
1070
     5
1070
    41
1040
1.0
1002
}
  0
TEXT
  5
E61
102
{ACAD_REACTORS
330
E88
102
}
330
1A
100
AcDbEntity
  8
0
  6
Continuous
 62
     1
100
AcDbText
 10
502.9999996997323
 20
25.24999981501355
 30
0.0
 40
2.0
  1
-
 41
1.5
100
AcDbText
1001
PHOENIX7010
1002
{
1070
    62
1070
     1
1070
    41
1040
1.0
1002
}
  0
TEXT
  5
E62
102
{ACAD_REACTORS
330
E88
102
}
330
1A
100
AcDbEntity
  8
0
  6
Continuous
 62
     1
100
AcDbText
 10
502.9999996997323
 20
22.74999981501355
 30
0.0
 40
2.0
  1
12.01.95
 41
1.5
100
AcDbText
1001
PHOENIX7010
1002
{
1070
    62
1070
     1
1070
    41
1040
1.0
1002
}
  0
TEXT
  5
E63
102
{ACAD_REACTORS
330
E88
102
}
330
1A
100
AcDbEntity
  8
0
  6
Continuous
 62
     1
100
AcDbText
 10
502.9999996997323
 20
30.24999981501355
 30
0.0
 40
2.0
  1
-
 41
1.5
100
AcDbText
1001
PHOENIX7010
1002
{
1070
    62
1070
     1
1070
    41
1040
1.0
1002
}
  0
TEXT
  5
E64
102
{ACAD_REACTORS
330
E88
102
}
330
1A
100
AcDbEntity
  8
0
  6
Continuous
 62
     1
100
AcDbText
 10
502.9999996997323
 20
27.74999981501355
 30
0.0
 40
2.0
  1
-
 41
1.5
100
AcDbText
1001
PHOENIX7010
1002
{
1070
    62
1070
     1
1070
    41
1040
1.0
1002
}
  0
TEXT
  5
E65
102
{ACAD_REACTORS
330
E88
102
}
330
1A
100
AcDbEntity
  8
0
  6
Continuous
 62
     1
100
AcDbText
 10
502.9999996997323
 20
32.74999981501355
 30
0.0
 40
2.0
  1
-
 41
1.5
100
AcDbText
1001
PHOENIX7010
1002
{
1070
    62
1070
     1
1070
    41
1040
1.0
1002
}
  0
TEXT
  5
E66
102
{ACAD_REACTORS
330
E88
102
}
330
1A
100
AcDbEntity
  8
0
  6
Continuous
 62
     1
100
AcDbText
 10
502.9999996997323
 20
35.24999981501355
 30
0.0
 40
2.0
  1
-
 41
1.5
100
AcDbText
1001
PHOENIX7010
1002
{
1070
    62
1070
     1
1070
    41
1040
1.0
1002
}
  0
TEXT
  5
E67
102
{ACAD_REACTORS
330
E88
102
}
330
1A
100
AcDbEntity
  8
0
  6
Continuous
 62
     1
100
AcDbText
 10
502.9999996997323
 20
37.74999981501355
 30
0.0
 40
2.0
  1
-
 41
1.5
100
AcDbText
1001
PHOENIX7010
1002
{
1070
    62
1070
     1
1070
    41
1040
1.0
1002
}
  0
TEXT
  5
E68
102
{ACAD_REACTORS
330
E88
102
}
330
1A
100
AcDbEntity
  8
0
  6
Continuous
 62
     1
100
AcDbText
 10
489.9999996997324
 20
25.24999981501355
 30
0.0
 40
2.0
  1
-
 41
1.5
100
AcDbText
1001
PHOENIX7010
1002
{
1070
    62
1070
     1
1070
    41
1040
1.0
1002
}
  0
TEXT
  5
E69
102
{ACAD_REACTORS
330
E88
102
}
330
1A
100
AcDbEntity
  8
0
  6
Continuous
 62
     1
100
AcDbText
 10
489.9999996997324
 20
22.74999981501355
 30
0.0
 40
2.0
  1
3120
 41
1.5
100
AcDbText
1001
PHOENIX7010
1002
{
1070
    62
1070
     1
1070
    41
1040
1.0
1002
}
  0
TEXT
  5
E6A
102
{ACAD_REACTORS
330
E88
102
}
330
1A
100
AcDbEntity
  8
0
  6
Continuous
 62
     1
100
AcDbText
 10
489.9999996997324
 20
30.24999981501355
 30
0.0
 40
2.0
  1
-
 41
1.5
100
AcDbText
1001
PHOENIX7010
1002
{
1070
    62
1070
     1
1070
    41
1040
1.0
1002
}
  0
TEXT
  5
E6B
102
{ACAD_REACTORS
330
E88
102
}
330
1A
100
AcDbEntity
  8
0
  6
Continuous
 62
     1
100
AcDbText
 10
489.9999996997324
 20
27.74999981501355
 30
0.0
 40
2.0
  1
-
 41
1.5
100
AcDbText
1001
PHOENIX7010
1002
{
1070
    62
1070
     1
1070
    41
1040
1.0
1002
}
  0
TEXT
  5
E6C
102
{ACAD_REACTORS
330
E88
102
}
330
1A
100
AcDbEntity
  8
0
  6
Continuous
 62
     1
100
AcDbText
 10
489.9999996997324
 20
32.74999981501355
 30
0.0
 40
2.0
  1
-
 41
1.5
100
AcDbText
1001
PHOENIX7010
1002
{
1070
    62
1070
     1
1070
    41
1040
1.0
1002
}
  0
TEXT
  5
E6D
102
{ACAD_REACTORS
330
E88
102
}
330
1A
100
AcDbEntity
  8
0
  6
Continuous
 62
     1
100
AcDbText
 10
489.9999996997324
 20
35.24999981501355
 30
0.0
 40
2.0
  1
-
 41
1.5
100
AcDbText
1001
PHOENIX7010
1002
{
1070
    62
1070
     1
1070
    41
1040
1.0
1002
}
  0
TEXT
  5
E6E
102
{ACAD_REACTORS
330
E88
102
}
330
1A
100
AcDbEntity
  8
0
  6
Continuous
 62
     1
100
AcDbText
 10
489.9999996997324
 20
37.74999981501355
 30
0.0
 40
2.0
  1
-
 41
1.5
100
AcDbText
1001
PHOENIX7010
1002
{
1070
    62
1070
     1
1070
    41
1040
1.0
1002
}
  0
LINE
  5
E6F
102
{ACAD_REACTORS
330
E88
102
}
330
1A
100
AcDbEntity
  8
0
  6
Continuous
 62
     1
100
AcDbLine
 10
501.9999999999997
 20
48.00000000000011
 30
0.0
 11
501.9999999999997
 21
14.50000000000011
 31
0.0
1001
PHOENIX7010
1002
{
1070
    62
1070
     1
1070
    41
1040
1.0
1002
}
  0
LINE
  5
E70
102
{ACAD_REACTORS
330
E88
102
}
330
1A
100
AcDbEntity
  8
0
  6
Continuous
 62
     1
100
AcDbLine
 10
488.9999999999997
 20
21.50000000000011
 30
0.0
 11
524.0
 21
21.50000000000011
 31
0.0
1001
PHOENIX7010
1002
{
1070
    62
1070
     1
1070
    41
1040
1.0
1002
}
  0
LINE
  5
E71
102
{ACAD_REACTORS
330
E88
102
}
330
1A
100
AcDbEntity
  8
0
  6
Continuous
 62
     5
100
AcDbLine
 10
589.0
 20
78.50000000000012
 30
0.0
 11
491.4999999999998
 21
78.50000000000012
 31
0.0
1001
PHOENIX7010
1002
{
1070
    62
1070
     5
1070
    41
1040
1.0
1002
}
  0
LINE
  5
E72
102
{ACAD_REACTORS
330
E88
102
}
330
1A
100
AcDbEntity
  8
0
  6
Continuous
 62
     5
100
AcDbLine
 10
589.0
 20
48.00000000000011
 30
0.0
 11
491.4999999999998
 21
48.00000000000011
 31
0.0
1001
PHOENIX7010
1002
{
1070
    62
1070
     5
1070
    41
1040
1.0
1002
}
  0
LINE
  5
E73
102
{ACAD_REACTORS
330
E88
102
}
330
1A
100
AcDbEntity
  8
0
  6
Continuous
 62
     5
100
AcDbLine
 10
488.9999999999997
 20
100.0
 30
0.0
 11
488.9999999999997
 21
5.000000000000113
 31
0.0
1001
PHOENIX7010
1002
{
1070
    62
1070
     5
1070
    41
1040
1.0
1002
}
  0
INSERT
  5
E74
102
{ACAD_REACTORS
330
E88
102
}
330
1A
100
AcDbEntity
  8
0
  6
Continuous
 62
     5
370
    35
100
AcDbBlockReference
  2
PH_GRPBLK
 10
488.9999999999997
 20
14.50000000000011
 30
0.0
1001
PHOENIX7010
1002
{
1070
    41
1040
1.0
1002
}
  0
LWPOLYLINE
  5
E76
102
{ACAD_REACTORS
330
E32
102
}
330
1A
100
AcDbEntity
  8
0
  6
Continuous
 62
     7
 60
     1
370
    50
100
AcDbPolyline
 90
        5
 70
     1
 43
0.0
 10
581.4334749940256
 20
35.16453811398037
 10
574.7334749940255
 20
27.36453811398031
 10
586.7334749940255
 20
27.36453811398031
 10
586.7334749940255
 20
35.16453811398026
 10
581.4334749940256
 20
28.26453811398039
1001
PHOENIX7010
1002
{
1070
    41
1040
1.0
1002
}
  0
LWPOLYLINE
  5
E77
102
{ACAD_REACTORS
330
E33
102
}
330
1A
100
AcDbEntity
  8
0
  6
Continuous
 62
     7
 60
     1
370
    50
100
AcDbPolyline
 90
        3
 70
     1
 43
0.0
 10
573.8834749940255
 20
27.36453811398031
 10
573.8834749940255
 20
31.51453811398028
 10
578.0334749940254
 20
31.51453811398028
 42
2.414213562373094
1001
PHOENIX7010
1002
{
1070
    41
1040
1.0
1002
}
  0
MTEXT
  5
ECA
330
1A
100
AcDbEntity
  8
4
  6
Continuous
 62
     5
370
    35
100
AcDbMText
 10
190.486143935338
 20
54.97199913721124
 30
0.0
 40
7.0
 41
0.0
 71
     7
 72
     5
  1
Modell/\P{\Q20;model}
 73
     1
 44
1.0
1001
PHOENIX7010
1002
{
1070
    41
1040
1.0
1002
}
1001
ACAD
1000
MTEXTBEGIN
1070
    73
1070
     1
1070
    44
1040
1.0
1070
    74
1070
     0
1000
MTEXTEND
  0
ENDSEC
  0
SECTION
  2
OBJECTS
  0
DICTIONARY
  5
C
330
0
100
AcDbDictionary
281
     1
  3
ACAD_COLOR
350
DDC
  3
ACAD_GROUP
350
D
  3
ACAD_LAYOUT
350
E03
  3
ACAD_MATERIAL
350
DAF
  3
ACAD_MLEADERSTYLE
350
E01
  3
ACAD_MLINESTYLE
350
E
  3
ACAD_PLOTSETTINGS
350
E04
  3
ACAD_PLOTSTYLENAME
350
DAD
  3
ACAD_SCALELIST
350
DDF
  3
ACAD_TABLESTYLE
350
DDD
  3
ACAD_VISUALSTYLE
350
DC8
  3
ACASAPPOBJECT
350
D4
  3
ACASGREF_MASTER
350
84
  3
ACCELVIEW
350
DA
  3
ACDB_RECOMPOSE_DATA
350
F06
  3
AcDbVariableDictionary
350
EE7
  3
ACDMSYSVARMGR
350
A0
  3
ACGREF_MASTER
350
82
  3
ACME_COMMAND_HISTORY
350
80
  3
ACME_SCOPE_NAME
350
7F
  3
AD_APPL
350
93
  3
AD_DRAWMGR_NAME
350
B4
  3
AD_GREF_MODULE
350
9B
  3
AD_HOLENOTE_REPOSITORY
350
9A
  3
ADSYSVARMGR
350
89
  3
AEC_PROPERTY_SET_DEFS
350
E20
  3
AMI_MASTER
350
83
  3
AUTOCAD_ASSEMBLIES_PROJECT
350
C0
  3
DESIGNER_ASSEMBLIES_SYSVARS
350
BB
  3
DWGPROPS
350
F07
  3
PH_OBJREACTOR_DICT
350
3C
  3
PH_ROOTGROUP_DICT
350
3B
  3
PH_VARS
350
31
  0
DICTIONARY
  5
E22
330
2
100
AcDbDictionary
280
     1
281
     1
  3
ACAD_LAYERSTATES
360
E23
  0
DICTIONARY
  5
E90
330
F
100
AcDbDictionary
280
     1
281
     1
  3
ADSK_XREC_LAYER_RECONCILED
360
E91
  0
DICTIONARY
  5
E92
330
44
100
AcDbDictionary
280
     1
281
     1
  3
ADSK_XREC_LAYER_RECONCILED
360
E93
  0
DICTIONARY
  5
E94
330
48
100
AcDbDictionary
280
     1
281
     1
  3
ADSK_XREC_LAYER_RECONCILED
360
E95
  0
DICTIONARY
  5
E96
330
4A
100
AcDbDictionary
280
     1
281
     1
  3
ADSK_XREC_LAYER_RECONCILED
360
E97
  0
DICTIONARY
  5
E98
330
B6
100
AcDbDictionary
280
     1
281
     1
  3
ADSK_XREC_LAYER_RECONCILED
360
E99
  0
DICTIONARY
  5
E9A
330
B7
100
AcDbDictionary
280
     1
281
     1
  3
ADSK_XREC_LAYER_RECONCILED
360
E9B
  0
DICTIONARY
  5
E9C
330
B8
100
AcDbDictionary
280
     1
281
     1
  3
ADSK_XREC_LAYER_RECONCILED
360
E9D
  0
DICTIONARY
  5
E9E
330
B9
100
AcDbDictionary
280
     1
281
     1
  3
ADSK_XREC_LAYER_RECONCILED
360
E9F
  0
DICTIONARY
  5
EA0
330
BA
100
AcDbDictionary
280
     1
281
     1
  3
ADSK_XREC_LAYER_RECONCILED
360
EA1
  0
DICTIONARY
  5
EA2
330
CB
100
AcDbDictionary
280
     1
281
     1
  3
ADSK_XREC_LAYER_RECONCILED
360
EA3
  0
DICTIONARY
  5
EA4
330
CC
100
AcDbDictionary
280
     1
281
     1
  3
ADSK_XREC_LAYER_RECONCILED
360
EA5
  0
DICTIONARY
  5
EA6
330
CD
100
AcDbDictionary
280
     1
281
     1
  3
ADSK_XREC_LAYER_RECONCILED
360
EA7
  0
DICTIONARY
  5
EA8
330
68A
100
AcDbDictionary
280
     1
281
     1
  3
ADSK_XREC_LAYER_RECONCILED
360
EA9
  0
DICTIONARY
  5
EAA
330
E21
100
AcDbDictionary
280
     1
281
     1
  3
ADSK_XREC_LAYER_RECONCILED
360
EAB
  0
DICTIONARY
  5
F04
330
E3B
100
AcDbDictionary
280
     1
281
     1
  3
ACAD_MTEXT_2008_RT
360
F05
  0
DICTIONARY
  5
DDC
102
{ACAD_REACTORS
330
C
102
}
330
C
100
AcDbDictionary
281
     1
  0
DICTIONARY
  5
D
102
{ACAD_REACTORS
330
C
102
}
330
C
100
AcDbDictionary
281
     1
  3
PH_BOUNDARYLIST
350
3D
  0
DICTIONARY
  5
E03
102
{ACAD_REACTORS
330
C
102
}
330
C
100
AcDbDictionary
281
     1
  3
Layout1
350
E06
  3
Model
350
E05
  0
DICTIONARY
  5
DAF
102
{ACAD_REACTORS
330
C
102
}
330
C
100
AcDbDictionary
281
     1
  3
ByBlock
350
DB8
  3
ByLayer
350
DB0
  3
Global
350
DC0
  0
DICTIONARY
  5
E01
102
{ACAD_REACTORS
330
C
102
}
330
C
100
AcDbDictionary
281
     1
  3
Standard
350
E02
  0
DICTIONARY
  5
E
102
{ACAD_REACTORS
330
C
102
}
330
C
100
AcDbDictionary
281
     1
  3
STANDARD
350
13
  0
DICTIONARY
  5
E04
102
{ACAD_REACTORS
330
C
102
}
330
C
100
AcDbDictionary
281
     1
  0
ACDBDICTIONARYWDFLT
  5
DAD
102
{ACAD_REACTORS
330
C
102
}
330
C
100
AcDbDictionary
281
     1
  3
Normal
350
DAE
100
AcDbDictionaryWithDefault
340
DAE
  0
DICTIONARY
  5
DDF
102
{ACAD_REACTORS
330
C
102
}
330
C
100
AcDbDictionary
281
     1
  3
A0
350
DE0
  3
A1
350
DE1
  3
A2
350
DE2
  3
A3
350
DE3
  3
A4
350
DE4
  3
A5
350
DE5
  3
A6
350
DE6
  3
A7
350
DE7
  3
A8
350
DE8
  3
A9
350
DE9
  3
B0
350
DEA
  3
B1
350
DEB
  3
B2
350
DEC
  3
B3
350
DED
  3
B4
350
DEE
  3
B5
350
DEF
  3
B6
350
DF0
  3
B7
350
DF1
  3
B8
350
DF2
  3
B9
350
DF3
  3
C0
350
DF4
  3
C1
350
DF5
  3
C2
350
DF6
  3
C3
350
DF7
  3
C4
350
DF8
  3
C5
350
DF9
  3
C6
350
DFA
  3
C7
350
DFB
  3
C8
350
DFC
  3
C9
350
DFD
  3
D0
350
DFE
  3
D1
350
DFF
  3
D2
350
E00
  0
DICTIONARY
  5
DDD
102
{ACAD_REACTORS
330
C
102
}
330
C
100
AcDbDictionary
281
     1
  3
Standard
350
DDE
  0
DICTIONARY
  5
DC8
102
{ACAD_REACTORS
330
C
102
}
330
C
100
AcDbDictionary
281
     1
  3
2dWireframe
350
DCE
  3
3D Hidden
350
DD0
  3
3dWireframe
350
DCF
  3
Basic
350
DCD
  3
Brighten
350
DD4
  3
ColorChange
350
DD8
  3
Conceptual
350
DD1
  3
Dim
350
DD3
  3
EdgeColorOff
350
DDB
  3
Facepattern
350
DD7
  3
Flat
350
DC9
  3
FlatWithEdges
350
DCA
  3
Gouraud
350
DCB
  3
GouraudWithEdges
350
DCC
  3
JitterOff
350
DD9
  3
Linepattern
350
DD6
  3
OverhangOff
350
DDA
  3
Realistic
350
DD2
  3
Thicken
350
DD5
  0
ACAD_PROXY_OBJECT
  5
D4
102
{ACAD_REACTORS
330
C
102
}
330
C
100
AcDbProxyObject
 90
      499
 91
      540
 95
   589845
 70
     0
 93
        2
310
BF
360
D2
 94
        0
1001
ACAD
1000
AcRTDxfName
1000
ASAPP
  0
ACAD_PROXY_OBJECT
  5
84
102
{ACAD_REACTORS
330
C
102
}
330
C
100
AcDbProxyObject
 90
      499
 91
      506
 95
   589845
 70
     0
 93
       34
310
010000407F
 94
        0
1001
ACAD
1000
AcRTDxfName
1000
ACASGREFMASTER
  0
ACAD_PROXY_OBJECT
  5
DA
102
{ACAD_REACTORS
330
C
102
}
330
C
100
AcDbProxyObject
 90
      499
 91
      541
 95
   589845
 70
     0
 93
       12
310
901F
330
0
 94
        0
1001
ACAD
1000
AcRTDxfName
1000
AGDICTIONARY
  0
XRECORD
  5
F06
102
{ACAD_REACTORS
330
C
102
}
330
C
100
AcDbXrecord
280
     1
 90
        1
330
DDE
330
E3B
  0
DICTIONARY
  5
EE7
102
{ACAD_REACTORS
330
C
102
}
330
C
100
AcDbDictionary
281
     1
  3
CANNOSCALE
350
EEB
  3
CMLEADERSTYLE
350
EE9
  3
CTABLESTYLE
350
EE8
  3
DIMASSOC
350
F00
  3
INDEXCTL
350
EFF
  3
LAYEREVAL
350
EED
  3
LAYERNOTIFY
350
EEE
  3
LIGHTINGUNITS
350
EEC
  3
MSLTSCALE
350
EEA
  3
SORTENTS
350
EFE
  3
XCLIPFRAME
350
F01
  0
ACAD_PROXY_OBJECT
  5
A0
102
{ACAD_REACTORS
330
C
102
}
330
C
100
AcDbProxyObject
 90
      499
 91
      511
 95
   589845
 70
     0
 93
      184
310
4C5124810100000000000000000000000000000000000000
330
A1
330
A2
330
A3
330
A4
330
A5
330
A6
330
A7
330
A9
330
AA
330
AB
330
AC
330
AD
330
AE
330
AF
330
B0
330
B1
330
B2
330
B3
 94
        0
1001
ACAD
1000
AcRTDxfName
1000
"IM_SYSVAR_MAN"
  0
ACAD_PROXY_OBJECT
  5
82
102
{ACAD_REACTORS
330
C
102
}
330
C
100
AcDbProxyObject
 90
      499
 91
      504
 95
   589845
 70
     0
 93
      114
310
01010041000000000000000000003F
 94
        0
1001
ACAD
1000
AcRTDxfName
1000
ACGREFMASTER
  0
ACAD_PROXY_OBJECT
  5
80
102
{ACAD_REACTORS
330
C
102
}
330
C
100
AcDbProxyObject
 90
      499
 91
      502
 95
   589845
 70
     0
 93
     1726
310
4280508554E444546494E4580508554E444546494E458050C41445F434F4E56455254523140805084E202D20554E444F014213880B4815539113C050C414D4C54595045434845434B41405084E202D20554E444F014313880B481312539155165411405094E202D204C41594552014313880B481312539155165411405084E
310
202D20554E444F01431053531516541150D21150D2D03014213880B4815539113C05094E202D204C41594552014213880B4815539113C0504554E444F80504554E444F80504554E444F80504554E444F80506534156454153B
 94
        0
1001
ACAD
1000
AcRTDxfName
1000
ACMECOMMANDHISTORY
  0
ACAD_PROXY_OBJECT
  5
7F
102
{ACAD_REACTORS
330
C
102
}
330
C
100
AcDbProxyObject
 90
      499
 91
      501
 95
   589845
 70
     0
 93
      464
310
0101004093200000000000000000000000000000000000000000000000000000000000000000000000000000000000000000000000000009010000
360
85
360
86
360
87
360
88
360
8A
360
8B
360
8C
360
8D
360
8E
360
8F
360
90
360
91
360
92
360
95
360
96
360
97
360
98
360
99
360
9C
360
9D
360
9E
360
9F
360
A1
360
A2
360
A3
360
A4
360
A5
360
A6
360
A7
360
A9
360
AA
360
AB
360
AC
360
AD
360
AE
360
AF
360
B0
360
B1
360
B2
360
B3
360
BC
360
BD
360
BE
360
BF
360
C6
360
C7
360
C8
360
C9
360
CA
360
CE
330
0
 94
        0
1001
ACAD
1000
AcRTDxfName
1000
ACMESCOPE
  0
ACAD_PROXY_OBJECT
  5
93
102
{ACAD_REACTORS
330
C
102
}
330
C
100
AcDbProxyObject
 90
      499
 91
      515
 95
   589845
 70
     0
 93
       42
310
00010200453F
330
85
 94
        0
1001
ACAD
1000
AcRTDxfName
1000
NAMEDAPPL
  0
ACAD_PROXY_OBJECT
  5
B4
102
{ACAD_REACTORS
330
C
102
}
330
C
100
AcDbProxyObject
 90
      499
 91
      527
 95
   589845
 70
     0
 93
       42
310
00010000453F
330
9C
 94
        0
1001
ACAD
1000
AcRTDxfName
1000
AM_DWGMGR_NAME
  0
ACAD_PROXY_OBJECT
  5
9B
102
{ACAD_REACTORS
330
C
102
}
330
C
100
AcDbProxyObject
 90
      499
 91
      522
 95
   589845
 70
     0
 93
      114
310
00000042800000000000000000003F
 94
        0
1001
ACAD
1000
AcRTDxfName
1000
AcAdGrefModule
  0
ACAD_PROXY_OBJECT
  5
9A
102
{ACAD_REACTORS
330
C
102
}
330
C
100
AcDbProxyObject
 90
      499
 91
      521
 95
   589845
 70
     0
 93
        8
310
0027
330
99
 94
        0
1001
ACAD
1000
AcRTDxfName
1000
AM_HNTEMPLATE_MGR_NAME
  0
ACAD_PROXY_OBJECT
  5
89
102
{ACAD_REACTORS
330
C
102
}
330
C
100
AcDbProxyObject
 90
      499
 91
      511
 95
   589845
 70
     0
 93
      104
310
9094410100000000000000000000
330
8A
330
8B
330
8C
330
8D
330
8E
330
8F
330
90
330
91
330
92
 94
        0
1001
ACAD
1000
AcRTDxfName
1000
"IM_SYSVAR_MAN"
  0
DICTIONARY
  5
E20
102
{ACAD_REACTORS
330
C
102
}
330
C
100
AcDbDictionary
281
     1
  0
ACAD_PROXY_OBJECT
  5
83
102
{ACAD_REACTORS
330
C
102
}
330
C
100
AcDbProxyObject
 90
      499
 91
      505
 95
   589845
 70
     0
 93
       34
310
010000407F
 94
        0
1001
ACAD
1000
AcRTDxfName
1000
AmiMaster
  0
ACAD_PROXY_OBJECT
  5
C0
102
{ACAD_REACTORS
330
C
102
}
330
C
100
AcDbProxyObject
 90
      499
 91
      528
 95
   589845
 70
     0
 93
       58
310
010200420000003F
330
C8
330
CE
330
C9
 94
        0
1001
ACAD
1000
AcRTDxfName
1000
ACAMPROJECT
  0
ACAD_PROXY_OBJECT
  5
BB
102
{ACAD_REACTORS
330
C
102
}
330
C
100
AcDbProxyObject
 90
      499
 91
      511
 95
   589845
 70
     0
 93
       64
310
904441010000000000
330
BC
330
BD
330
BE
330
BF
 94
        0
1001
ACAD
1000
AcRTDxfName
1000
"IM_SYSVAR_MAN"
  0
XRECORD
  5
F07
102
{ACAD_REACTORS
330
C
102
}
330
C
100
AcDbXrecord
280
     1
  1
DWGPROPS COOKIE
  2

  3

  4

  6

  7

  8
kleemann
  9

300
=
301
=
302
=
303
=
304
=
305
=
306
=
307
=
308
=
309
=
 40
0.0092291319444444
 41
2450973.369189259
 42
2456897.564312361
  1

 90
        0
  0
DICTIONARY
  5
3C
102
{ACAD_REACTORS
330
C
102
}
330
C
100
AcDbDictionary
281
     1
  3
*A1
350
9EB
  3
*A10
350
A25
  3
*A11
350
A31
  3
*A12
350
A5D
  3
*A13
350
A32
  3
*A14
350
A3F
  3
*A15
350
9EC
  3
*A16
350
A40
  3
*A17
350
A41
  3
*A18
350
A4F
  3
*A19
350
A50
  3
*A2
350
A07
  3
*A20
350
A51
  3
*A23
350
A5E
  3
*A3
350
A08
  3
*A30
350
A15
  3
*A31
350
A5F
  3
*A32
350
9ED
  3
*A33
350
9F9
  3
*A34
350
9FA
  3
*A35
350
9FB
  3
*A4
350
A33
  3
*A5
350
A09
  3
*A6
350
A16
  3
*A7
350
A17
  3
*A8
350
A23
  3
*A9
350
A24
  0
DICTIONARY
  5
3B
102
{ACAD_REACTORS
330
C
102
}
330
C
100
AcDbDictionary
281
     1
  3
$PH$AAAC
350
80C
  3
$PH$AAAD
350
810
  3
$PH$AAAE
350
888
  3
$PH$AAAF
350
88C
  3
$PH$AAAG
350
890
  3
$PH$AAAH
350
8E1
  3
$PH$AAAK2H
350
E1E
  3
$PH$AAAN
350
E83
  3
PH_GRPMEMBERS
350
E8D
  0
PH_VARS
  5
31
102
{ACAD_REACTORS
330
C
102
}
330
C
  0
DICTIONARY
  5
E23
102
{ACAD_REACTORS
330
E22
102
}
330
E22
100
AcDbDictionary
281
     1
  0
XRECORD
  5
E91
102
{ACAD_REACTORS
330
E90
102
}
330
E90
100
AcDbXrecord
280
     1
290
     1
  0
XRECORD
  5
E93
102
{ACAD_REACTORS
330
E92
102
}
330
E92
100
AcDbXrecord
280
     1
290
     1
  0
XRECORD
  5
E95
102
{ACAD_REACTORS
330
E94
102
}
330
E94
100
AcDbXrecord
280
     1
290
     1
  0
XRECORD
  5
E97
102
{ACAD_REACTORS
330
E96
102
}
330
E96
100
AcDbXrecord
280
     1
290
     1
  0
XRECORD
  5
E99
102
{ACAD_REACTORS
330
E98
102
}
330
E98
100
AcDbXrecord
280
     1
290
     1
  0
XRECORD
  5
E9B
102
{ACAD_REACTORS
330
E9A
102
}
330
E9A
100
AcDbXrecord
280
     1
290
     1
  0
XRECORD
  5
E9D
102
{ACAD_REACTORS
330
E9C
102
}
330
E9C
100
AcDbXrecord
280
     1
290
     1
  0
XRECORD
  5
E9F
102
{ACAD_REACTORS
330
E9E
102
}
330
E9E
100
AcDbXrecord
280
     1
290
     1
  0
XRECORD
  5
EA1
102
{ACAD_REACTORS
330
EA0
102
}
330
EA0
100
AcDbXrecord
280
     1
290
     1
  0
XRECORD
  5
EA3
102
{ACAD_REACTORS
330
EA2
102
}
330
EA2
100
AcDbXrecord
280
     1
290
     1
  0
XRECORD
  5
EA5
102
{ACAD_REACTORS
330
EA4
102
}
330
EA4
100
AcDbXrecord
280
     1
290
     1
  0
XRECORD
  5
EA7
102
{ACAD_REACTORS
330
EA6
102
}
330
EA6
100
AcDbXrecord
280
     1
290
     1
  0
XRECORD
  5
EA9
102
{ACAD_REACTORS
330
EA8
102
}
330
EA8
100
AcDbXrecord
280
     1
290
     1
  0
XRECORD
  5
EAB
102
{ACAD_REACTORS
330
EAA
102
}
330
EAA
100
AcDbXrecord
280
     1
290
     1
  0
XRECORD
  5
F05
102
{ACAD_REACTORS
330
F04
102
}
330
F04
100
AcDbXrecord
280
     1
 40
46997.0
  1
\pxql;{\fArial|b1|i0|c0|p34;\W1.1;BOPLA}
  0
GROUP
  5
3D
102
{ACAD_REACTORS
330
D
102
}
330
D
100
AcDbGroup
300

 70
     0
 71
     0
  0
LAYOUT
  5
E06
102
{ACAD_XDICTIONARY
360
F34
102
}
102
{ACAD_REACTORS
330
E03
102
}
330
E03
100
AcDbPlotSettings
  1

  2
\\boplaprint3\dev_konstuktion
  4

  6

 40
0.0
 41
0.0
 42
0.0
 43
0.0
 44
0.0
 45
0.0
 46
0.0
 47
0.0
 48
0.0
 49
0.0
140
0.0
141
0.0
142
1.0
143
1.0
 70
   688
 72
     0
 73
     0
 74
     5
  7

 75
    16
147
1.0
148
0.0
149
0.0
100
AcDbLayout
  1
Layout1
 70
     1
 71
     1
 10
0.0
 20
0.0
 11
420.0
 21
297.0
 12
0.0
 22
0.0
 32
0.0
 14
1.000000000000000E+20
 24
1.000000000000000E+20
 34
1.000000000000000E+20
 15
-1.000000000000000E+20
 25
-1.000000000000000E+20
 35
-1.000000000000000E+20
146
0.0
 13
0.0
 23
0.0
 33
0.0
 16
1.0
 26
0.0
 36
0.0
 17
0.0
 27
1.0
 37
0.0
 76
     0
330
17
  0
LAYOUT
  5
E05
102
{ACAD_XDICTIONARY
360
EB3
102
}
102
{ACAD_REACTORS
330
E03
102
}
330
E03
100
AcDbPlotSettings
  1

  2
\\boplaprint3\dev_konstuktion
  4
A4
  6

 40
5.027082920074462
 41
5.027099609375
 42
5.027069091796875
 43
5.027069091796875
 44
209.8886566162109
 45
297.0530090332031
 46
0.0
 47
0.0
 48
0.0
 49
0.0
140
0.0
141
0.0
142
1.0
143
71.14787623443902
 70
 11952
 72
     0
 73
     1
 74
     0
  7

 75
     0
147
0.0140552333101962
148
2665.878950556888
149
13.01662247129208
100
AcDbLayout
  1
Model
 70
     1
 71
     0
 10
0.0
 20
0.0
 11
12.0
 21
9.0
 12
0.0
 22
0.0
 32
0.0
 14
0.0
 24
0.0
 34
0.0
 15
0.0
 25
0.0
 35
0.0
146
0.0
 13
0.0
 23
0.0
 33
0.0
 16
1.0
 26
0.0
 36
0.0
 17
0.0
 27
1.0
 37
0.0
 76
     0
330
1A
331
DAB
1001
ACAD_PSEXT
1000
\\boplaprint3\dev_konstuktion
1000
Generic 35C-4 Series PS
1000
Flur Konstruktion
1000
F-Ineo
1070
     0
  0
MATERIAL
  5
DB8
102
{ACAD_XDICTIONARY
360
DB9
102
}
102
{ACAD_REACTORS
330
DAF
102
}
330
DAF
100
AcDbMaterial
  1
ByBlock
 72
     0
 43
0.0208333333333333
 43
0.0
 43
0.0
 43
0.0
 43
0.0
 43
0.0208333333333333
 43
0.0
 43
0.0
 43
0.0
 43
0.0
 43
1.0
 43
0.0
 43
0.0
 43
0.0
 43
0.0
 43
1.0
 77
     0
 47
0.0208333333333333
 47
0.0
 47
0.0
 47
0.0
 47
0.0
 47
0.0208333333333333
 47
0.0
 47
0.0
 47
0.0
 47
0.0
 47
1.0
 47
0.0
 47
0.0
 47
0.0
 47
0.0
 47
1.0
171
     0
 49
0.0208333333333333
 49
0.0
 49
0.0
 49
0.0
 49
0.0
 49
0.0208333333333333
 49
0.0
 49
0.0
 49
0.0
 49
0.0
 49
1.0
 49
0.0
 49
0.0
 49
0.0
 49
0.0
 49
1.0
175
     0
142
0.0208333333333333
142
0.0
142
0.0
142
0.0
142
0.0
142
0.0208333333333333
142
0.0
142
0.0
142
0.0
142
0.0
142
1.0
142
0.0
142
0.0
142
0.0
142
0.0
142
1.0
179
     0
144
0.0208333333333333
144
0.0
144
0.0
144
0.0
144
0.0
144
0.0208333333333333
144
0.0
144
0.0
144
0.0
144
0.0
144
1.0
144
0.0
144
0.0
144
0.0
144
0.0
144
1.0
147
0.0208333333333333
147
0.0
147
0.0
147
0.0
147
0.0
147
0.0208333333333333
147
0.0
147
0.0
147
0.0
147
0.0
147
1.0
147
0.0
147
0.0
147
0.0
147
0.0
147
1.0
  0
MATERIAL
  5
DB0
102
{ACAD_XDICTIONARY
360
DB1
102
}
102
{ACAD_REACTORS
330
DAF
102
}
330
DAF
100
AcDbMaterial
  1
ByLayer
 72
     0
 43
0.0208333333333333
 43
0.0
 43
0.0
 43
0.0
 43
0.0
 43
0.0208333333333333
 43
0.0
 43
0.0
 43
0.0
 43
0.0
 43
1.0
 43
0.0
 43
0.0
 43
0.0
 43
0.0
 43
1.0
 77
     0
 47
0.0208333333333333
 47
0.0
 47
0.0
 47
0.0
 47
0.0
 47
0.0208333333333333
 47
0.0
 47
0.0
 47
0.0
 47
0.0
 47
1.0
 47
0.0
 47
0.0
 47
0.0
 47
0.0
 47
1.0
171
     0
 49
0.0208333333333333
 49
0.0
 49
0.0
 49
0.0
 49
0.0
 49
0.0208333333333333
 49
0.0
 49
0.0
 49
0.0
 49
0.0
 49
1.0
 49
0.0
 49
0.0
 49
0.0
 49
0.0
 49
1.0
175
     0
142
0.0208333333333333
142
0.0
142
0.0
142
0.0
142
0.0
142
0.0208333333333333
142
0.0
142
0.0
142
0.0
142
0.0
142
1.0
142
0.0
142
0.0
142
0.0
142
0.0
142
1.0
179
     0
144
0.0208333333333333
144
0.0
144
0.0
144
0.0
144
0.0
144
0.0208333333333333
144
0.0
144
0.0
144
0.0
144
0.0
144
1.0
144
0.0
144
0.0
144
0.0
144
0.0
144
1.0
147
0.0208333333333333
147
0.0
147
0.0
147
0.0
147
0.0
147
0.0208333333333333
147
0.0
147
0.0
147
0.0
147
0.0
147
1.0
147
0.0
147
0.0
147
0.0
147
0.0
147
1.0
  0
MATERIAL
  5
DC0
102
{ACAD_XDICTIONARY
360
DC1
102
}
102
{ACAD_REACTORS
330
DAF
102
}
330
DAF
100
AcDbMaterial
  1
Global
 72
     0
 43
0.0208333333333333
 43
0.0
 43
0.0
 43
0.0
 43
0.0
 43
0.0208333333333333
 43
0.0
 43
0.0
 43
0.0
 43
0.0
 43
1.0
 43
0.0
 43
0.0
 43
0.0
 43
0.0
 43
1.0
 77
     0
 47
0.0208333333333333
 47
0.0
 47
0.0
 47
0.0
 47
0.0
 47
0.0208333333333333
 47
0.0
 47
0.0
 47
0.0
 47
0.0
 47
1.0
 47
0.0
 47
0.0
 47
0.0
 47
0.0
 47
1.0
171
     0
 49
0.0208333333333333
 49
0.0
 49
0.0
 49
0.0
 49
0.0
 49
0.0208333333333333
 49
0.0
 49
0.0
 49
0.0
 49
0.0
 49
1.0
 49
0.0
 49
0.0
 49
0.0
 49
0.0
 49
1.0
175
     0
142
0.0208333333333333
142
0.0
142
0.0
142
0.0
142
0.0
142
0.0208333333333333
142
0.0
142
0.0
142
0.0
142
0.0
142
1.0
142
0.0
142
0.0
142
0.0
142
0.0
142
1.0
179
     0
144
0.0208333333333333
144
0.0
144
0.0
144
0.0
144
0.0
144
0.0208333333333333
144
0.0
144
0.0
144
0.0
144
0.0
144
1.0
144
0.0
144
0.0
144
0.0
144
0.0
144
1.0
147
0.0208333333333333
147
0.0
147
0.0
147
0.0
147
0.0
147
0.0208333333333333
147
0.0
147
0.0
147
0.0
147
0.0
147
1.0
147
0.0
147
0.0
147
0.0
147
0.0
147
1.0
  0
MLEADERSTYLE
  5
E02
102
{ACAD_REACTORS
330
E01
102
}
330
E01
100
AcDbMLeaderStyle
170
     2
171
     1
172
     0
 90
        2
 40
0.0
 41
0.0
173
     1
 91
-1056964608
340
14
 92
       -2
290
     1
 42
0.09
291
     1
 43
0.36
  3
Standard
 44
0.18
300

342
10
174
     1
178
     6
175
     1
176
     0
 93
-1056964608
 45
0.18
292
     0
297
     0
 46
0.18
 94
-1056964608
 47
1.0
 49
1.0
140
1.0
293
     1
141
0.0
294
     1
177
     0
142
1.0
295
     0
296
     0
143
0.125
1001
ACAD_MLEADERVER
1070
     2
  0
MLINESTYLE
  5
13
102
{ACAD_REACTORS
330
E
102
}
330
E
100
AcDbMlineStyle
  2
STANDARD
 70
     0
  3

 62
     0
 51
90.0
 52
90.0
 71
     2
 49
0.5
 62
   256
  6
BYLAYER
 49
-0.5
 62
   256
  6
BYLAYER
  0
ACDBPLACEHOLDER
  5
DAE
102
{ACAD_REACTORS
330
DAD
102
}
330
DAD
  0
SCALE
  5
DE0
102
{ACAD_REACTORS
330
DDF
102
}
330
DDF
100
AcDbScale
 70
     0
300
1:1
140
1.0
141
1.0
290
     1
  0
SCALE
  5
DE1
102
{ACAD_REACTORS
330
DDF
102
}
330
DDF
100
AcDbScale
 70
     0
300
1:2
140
1.0
141
2.0
290
     0
  0
SCALE
  5
DE2
102
{ACAD_REACTORS
330
DDF
102
}
330
DDF
100
AcDbScale
 70
     0
300
1:4
140
1.0
141
4.0
290
     0
  0
SCALE
  5
DE3
102
{ACAD_REACTORS
330
DDF
102
}
330
DDF
100
AcDbScale
 70
     0
300
1:5
140
1.0
141
5.0
290
     0
  0
SCALE
  5
DE4
102
{ACAD_REACTORS
330
DDF
102
}
330
DDF
100
AcDbScale
 70
     0
300
1:8
140
1.0
141
8.0
290
     0
  0
SCALE
  5
DE5
102
{ACAD_REACTORS
330
DDF
102
}
330
DDF
100
AcDbScale
 70
     0
300
1:10
140
1.0
141
10.0
290
     0
  0
SCALE
  5
DE6
102
{ACAD_REACTORS
330
DDF
102
}
330
DDF
100
AcDbScale
 70
     0
300
1:16
140
1.0
141
16.0
290
     0
  0
SCALE
  5
DE7
102
{ACAD_REACTORS
330
DDF
102
}
330
DDF
100
AcDbScale
 70
     0
300
1:20
140
1.0
141
20.0
290
     0
  0
SCALE
  5
DE8
102
{ACAD_REACTORS
330
DDF
102
}
330
DDF
100
AcDbScale
 70
     0
300
1:30
140
1.0
141
30.0
290
     0
  0
SCALE
  5
DE9
102
{ACAD_REACTORS
330
DDF
102
}
330
DDF
100
AcDbScale
 70
     0
300
1:40
140
1.0
141
40.0
290
     0
  0
SCALE
  5
DEA
102
{ACAD_REACTORS
330
DDF
102
}
330
DDF
100
AcDbScale
 70
     0
300
1:50
140
1.0
141
50.0
290
     0
  0
SCALE
  5
DEB
102
{ACAD_REACTORS
330
DDF
102
}
330
DDF
100
AcDbScale
 70
     0
300
1:100
140
1.0
141
100.0
290
     0
  0
SCALE
  5
DEC
102
{ACAD_REACTORS
330
DDF
102
}
330
DDF
100
AcDbScale
 70
     0
300
2:1
140
2.0
141
1.0
290
     0
  0
SCALE
  5
DED
102
{ACAD_REACTORS
330
DDF
102
}
330
DDF
100
AcDbScale
 70
     0
300
4:1
140
4.0
141
1.0
290
     0
  0
SCALE
  5
DEE
102
{ACAD_REACTORS
330
DDF
102
}
330
DDF
100
AcDbScale
 70
     0
300
8:1
140
8.0
141
1.0
290
     0
  0
SCALE
  5
DEF
102
{ACAD_REACTORS
330
DDF
102
}
330
DDF
100
AcDbScale
 70
     0
300
10:1
140
10.0
141
1.0
290
     0
  0
SCALE
  5
DF0
102
{ACAD_REACTORS
330
DDF
102
}
330
DDF
100
AcDbScale
 70
     0
300
100:1
140
100.0
141
1.0
290
     0
  0
SCALE
  5
DF1
102
{ACAD_REACTORS
330
DDF
102
}
330
DDF
100
AcDbScale
 70
     0
300
1/128" = 1'-0"
140
0.0078125
141
12.0
290
     0
  0
SCALE
  5
DF2
102
{ACAD_REACTORS
330
DDF
102
}
330
DDF
100
AcDbScale
 70
     0
300
1/64" = 1'-0"
140
0.015625
141
12.0
290
     0
  0
SCALE
  5
DF3
102
{ACAD_REACTORS
330
DDF
102
}
330
DDF
100
AcDbScale
 70
     0
300
1/32" = 1'-0"
140
0.03125
141
12.0
290
     0
  0
SCALE
  5
DF4
102
{ACAD_REACTORS
330
DDF
102
}
330
DDF
100
AcDbScale
 70
     0
300
1/16" = 1'-0"
140
0.0625
141
12.0
290
     0
  0
SCALE
  5
DF5
102
{ACAD_REACTORS
330
DDF
102
}
330
DDF
100
AcDbScale
 70
     0
300
3/32" = 1'-0"
140
0.09375
141
12.0
290
     0
  0
SCALE
  5
DF6
102
{ACAD_REACTORS
330
DDF
102
}
330
DDF
100
AcDbScale
 70
     0
300
1/8" = 1'-0"
140
0.125
141
12.0
290
     0
  0
SCALE
  5
DF7
102
{ACAD_REACTORS
330
DDF
102
}
330
DDF
100
AcDbScale
 70
     0
300
3/16" = 1'-0"
140
0.1875
141
12.0
290
     0
  0
SCALE
  5
DF8
102
{ACAD_REACTORS
330
DDF
102
}
330
DDF
100
AcDbScale
 70
     0
300
1/4" = 1'-0"
140
0.25
141
12.0
290
     0
  0
SCALE
  5
DF9
102
{ACAD_REACTORS
330
DDF
102
}
330
DDF
100
AcDbScale
 70
     0
300
3/8" = 1'-0"
140
0.375
141
12.0
290
     0
  0
SCALE
  5
DFA
102
{ACAD_REACTORS
330
DDF
102
}
330
DDF
100
AcDbScale
 70
     0
300
1/2" = 1'-0"
140
0.5
141
12.0
290
     0
  0
SCALE
  5
DFB
102
{ACAD_REACTORS
330
DDF
102
}
330
DDF
100
AcDbScale
 70
     0
300
3/4" = 1'-0"
140
0.75
141
12.0
290
     0
  0
SCALE
  5
DFC
102
{ACAD_REACTORS
330
DDF
102
}
330
DDF
100
AcDbScale
 70
     0
300
1" = 1'-0"
140
1.0
141
12.0
290
     0
  0
SCALE
  5
DFD
102
{ACAD_REACTORS
330
DDF
102
}
330
DDF
100
AcDbScale
 70
     0
300
1-1/2" = 1'-0"
140
1.5
141
12.0
290
     0
  0
SCALE
  5
DFE
102
{ACAD_REACTORS
330
DDF
102
}
330
DDF
100
AcDbScale
 70
     0
300
3" = 1'-0"
140
3.0
141
12.0
290
     0
  0
SCALE
  5
DFF
102
{ACAD_REACTORS
330
DDF
102
}
330
DDF
100
AcDbScale
 70
     0
300
6" = 1'-0"
140
6.0
141
12.0
290
     0
  0
SCALE
  5
E00
102
{ACAD_REACTORS
330
DDF
102
}
330
DDF
100
AcDbScale
 70
     0
300
1'-0" = 1'-0"
140
12.0
141
12.0
290
     0
  0
TABLESTYLE
  5
DDE
102
{ACAD_XDICTIONARY
360
F02
102
}
102
{ACAD_REACTORS
330
DDD
102
}
330
DDD
100
AcDbTableStyle
  3
Standard
 70
     0
 71
     0
 40
0.06
 41
0.06
280
     0
281
     0
  7
STANDARD
140
0.18
170
     2
 62
     0
 63
     7
283
     0
274
    -2
284
     1
 64
     0
275
    -2
285
     1
 65
     0
276
    -2
286
     1
 66
     0
277
    -2
287
     1
 67
     0
278
    -2
288
     1
 68
     0
279
    -2
289
     1
 69
     0
  7
STANDARD
140
0.25
170
     5
 62
     0
 63
     7
283
     0
274
    -2
284
     1
 64
     0
275
    -2
285
     1
 65
     0
276
    -2
286
     1
 66
     0
277
    -2
287
     1
 67
     0
278
    -2
288
     1
 68
     0
279
    -2
289
     1
 69
     0
  7
STANDARD
140
0.18
170
     5
 62
     0
 63
     7
283
     0
274
    -2
284
     1
 64
     0
275
    -2
285
     1
 65
     0
276
    -2
286
     1
 66
     0
277
    -2
287
     1
 67
     0
278
    -2
288
     1
 68
     0
279
    -2
289
     1
 69
     0
  0
VISUALSTYLE
  5
DCE
102
{ACAD_XDICTIONARY
360
F15
102
}
102
{ACAD_REACTORS
330
DC8
102
}
330
DC8
100
AcDbVisualStyle
  2
2dWireframe
 70
     4
 71
     0
 72
     2
 73
     0
 90
        0
 40
-0.6
 41
-30.0
 62
     5
 63
     7
 74
     1
 91
        4
 64
     7
 65
   257
 75
     1
175
     1
 42
1.0
 92
        0
 66
   257
 43
1.0
 76
     1
 77
     6
 78
     2
 67
     7
 79
     5
170
     0
171
     0
290
     0
174
     0
 93
        1
 44
0.0
173
     0
291
     0
 45
0.0
1001
ACAD
1000
AcDbSavedByObjectVersion
1070
     0
  0
VISUALSTYLE
  5
DD0
102
{ACAD_XDICTIONARY
360
F19
102
}
102
{ACAD_REACTORS
330
DC8
102
}
330
DC8
100
AcDbVisualStyle
  2
3D Hidden
 70
     6
 71
     1
 72
     2
 73
     2
 90
        0
 40
-0.6
 41
-30.0
 62
     5
 63
     7
 74
     2
 91
        2
 64
     7
 65
   257
 75
     2
175
     1
 42
179.0
 92
        0
 66
   257
 43
1.0
 76
     1
 77
     6
 78
     2
 67
     7
 79
     3
170
     0
171
     0
290
     0
174
     0
 93
        1
 44
0.0
173
     0
291
     0
 45
0.0
1001
ACAD
1000
AcDbSavedByObjectVersion
1070
     0
  0
VISUALSTYLE
  5
DCF
102
{ACAD_XDICTIONARY
360
F17
102
}
102
{ACAD_REACTORS
330
DC8
102
}
330
DC8
100
AcDbVisualStyle
  2
3dWireframe
 70
     5
 71
     0
 72
     2
 73
     0
 90
        0
 40
-0.6
 41
-30.0
 62
     5
 63
     7
 74
     1
 91
        4
 64
     7
 65
   257
 75
     1
175
     1
 42
1.0
 92
        0
 66
   257
 43
1.0
 76
     1
 77
     6
 78
     2
 67
     7
 79
     5
170
     0
171
     0
290
     0
174
     0
 93
        1
 44
0.0
173
     0
291
     0
 45
0.0
1001
ACAD
1000
AcDbSavedByObjectVersion
1070
     0
  0
VISUALSTYLE
  5
DCD
102
{ACAD_XDICTIONARY
360
F13
102
}
102
{ACAD_REACTORS
330
DC8
102
}
330
DC8
100
AcDbVisualStyle
  2
Basic
 70
     7
 71
     1
 72
     0
 73
     1
 90
        0
 40
-0.6
 41
-30.0
 62
     5
 63
     7
 74
     0
 91
        4
 64
     7
 65
   257
 75
     1
175
     1
 42
1.0
 92
        8
 66
     7
 43
1.0
 76
     1
 77
     6
 78
     2
 67
     7
 79
     5
170
     0
171
     0
290
     0
174
     0
 93
        1
 44
0.0
173
     0
291
     1
 45
0.0
1001
ACAD
1000
AcDbSavedByObjectVersion
1070
     0
  0
VISUALSTYLE
  5
DD4
102
{ACAD_XDICTIONARY
360
F21
102
}
102
{ACAD_REACTORS
330
DC8
102
}
330
DC8
100
AcDbVisualStyle
  2
Brighten
 70
    12
 71
     2
 72
     2
 73
     0
 90
        0
 40
-0.6
 41
-30.0
 62
     5
 63
     7
 74
     1
 91
        4
 64
     7
 65
   257
 75
     1
175
     1
 42
1.0
 92
        8
 66
     7
 43
1.0
 76
     1
 77
     6
 78
     2
 67
     7
 79
     5
170
     0
171
     0
290
     0
174
     0
 93
        1
 44
50.0
173
     0
291
     1
 45
0.0
1001
ACAD
1000
AcDbSavedByObjectVersion
1070
     0
  0
VISUALSTYLE
  5
DD8
102
{ACAD_XDICTIONARY
360
F29
102
}
102
{ACAD_REACTORS
330
DC8
102
}
330
DC8
100
AcDbVisualStyle
  2
ColorChange
 70
    16
 71
     2
 72
     2
 73
     3
 90
        0
 40
-0.6
 41
-30.0
 62
     5
 63
     8
 74
     1
 91
        4
 64
     7
 65
   257
 75
     1
175
     1
 42
1.0
 92
        8
 66
     8
 43
1.0
 76
     1
 77
     6
 78
     2
 67
     7
 79
     5
170
     0
171
     0
290
     0
174
     0
 93
        1
 44
0.0
173
     0
291
     1
 45
0.0
1001
ACAD
1000
AcDbSavedByObjectVersion
1070
     0
  0
VISUALSTYLE
  5
DD1
102
{ACAD_XDICTIONARY
360
F1B
102
}
102
{ACAD_REACTORS
330
DC8
102
}
330
DC8
100
AcDbVisualStyle
  2
Conceptual
 70
     9
 71
     3
 72
     2
 73
     0
 90
        0
 40
-0.6
 41
-30.0
 62
     5
 63
     7
 74
     2
 91
        2
 64
     7
 65
   257
 75
     1
175
     1
 42
179.0
 92
        8
 66
     7
 43
1.0
 76
     1
 77
     6
 78
     2
 67
     7
 79
     3
170
     0
171
     0
290
     0
174
     0
 93
        1
 44
0.0
173
     0
291
     0
 45
0.0
1001
ACAD
1000
AcDbSavedByObjectVersion
1070
     0
  0
VISUALSTYLE
  5
DD3
102
{ACAD_XDICTIONARY
360
F1F
102
}
102
{ACAD_REACTORS
330
DC8
102
}
330
DC8
100
AcDbVisualStyle
  2
Dim
 70
    11
 71
     2
 72
     2
 73
     0
 90
        0
 40
-0.6
 41
-30.0
 62
     5
 63
     7
 74
     1
 91
        4
 64
     7
 65
   257
 75
     1
175
     1
 42
1.0
 92
        8
 66
     7
 43
1.0
 76
     1
 77
     6
 78
     2
 67
     7
 79
     5
170
     0
171
     0
290
     0
174
     0
 93
        1
 44
-50.0
173
     0
291
     1
 45
0.0
1001
ACAD
1000
AcDbSavedByObjectVersion
1070
     0
  0
VISUALSTYLE
  5
DDB
102
{ACAD_XDICTIONARY
360
F2F
102
}
102
{ACAD_REACTORS
330
DC8
102
}
330
DC8
100
AcDbVisualStyle
  2
EdgeColorOff
 70
    22
 71
     2
 72
     2
 73
     0
 90
        0
 40
-0.6
 41
-30.0
 62
     5
 63
     7
 74
     1
 91
        4
 64
     7
 65
   257
 75
     1
175
     1
 42
1.0
 92
        8
 66
     7
 43
1.0
 76
     1
 77
     6
 78
     2
 67
     7
 79
     5
170
     0
171
     0
290
     0
174
     0
 93
        1
 44
0.0
173
     0
291
     1
 45
0.0
1001
ACAD
1000
AcDbSavedByObjectVersion
1070
     0
  0
VISUALSTYLE
  5
DD7
102
{ACAD_XDICTIONARY
360
F27
102
}
102
{ACAD_REACTORS
330
DC8
102
}
330
DC8
100
AcDbVisualStyle
  2
Facepattern
 70
    15
 71
     2
 72
     2
 73
     0
 90
        0
 40
-0.6
 41
-30.0
 62
     5
 63
     7
 74
     1
 91
        4
 64
     7
 65
   257
 75
     1
175
     1
 42
1.0
 92
        8
 66
     7
 43
1.0
 76
     1
 77
     6
 78
     2
 67
     7
 79
     5
170
     0
171
     0
290
     0
174
     0
 93
        1
 44
0.0
173
     0
291
     1
 45
0.0
1001
ACAD
1000
AcDbSavedByObjectVersion
1070
     0
  0
VISUALSTYLE
  5
DC9
102
{ACAD_XDICTIONARY
360
F0B
102
}
102
{ACAD_REACTORS
330
DC8
102
}
330
DC8
100
AcDbVisualStyle
  2
Flat
 70
     0
 71
     2
 72
     1
 73
     1
 90
        2
 40
-0.6
 41
30.0
 62
     5
 63
     7
 74
     0
 91
        4
 64
     7
 65
   257
 75
     1
175
     1
 42
1.0
 92
        8
 66
     7
 43
1.0
 76
     1
 77
     6
 78
     2
 67
     7
 79
     5
170
     0
171
     0
290
     0
174
     0
 93
       13
 44
0.0
173
     0
291
     1
 45
0.0
1001
ACAD
1000
AcDbSavedByObjectVersion
1070
     0
  0
VISUALSTYLE
  5
DCA
102
{ACAD_XDICTIONARY
360
F0D
102
}
102
{ACAD_REACTORS
330
DC8
102
}
330
DC8
100
AcDbVisualStyle
  2
FlatWithEdges
 70
     1
 71
     2
 72
     1
 73
     1
 90
        2
 40
-0.6
 41
30.0
 62
     5
 63
     7
 74
     1
 91
        4
 64
     7
 65
   257
 75
     1
175
     1
 42
1.0
 92
        0
 66
   257
 43
1.0
 76
     1
 77
     6
 78
     2
 67
     7
 79
     5
170
     0
171
     0
290
     0
174
     0
 93
       13
 44
0.0
173
     0
291
     1
 45
0.0
1001
ACAD
1000
AcDbSavedByObjectVersion
1070
     0
  0
VISUALSTYLE
  5
DCB
102
{ACAD_XDICTIONARY
360
F0F
102
}
102
{ACAD_REACTORS
330
DC8
102
}
330
DC8
100
AcDbVisualStyle
  2
Gouraud
 70
     2
 71
     2
 72
     2
 73
     1
 90
        2
 40
-0.6
 41
30.0
 62
     5
 63
     7
 74
     0
 91
        4
 64
     7
 65
   257
 75
     1
175
     1
 42
1.0
 92
        0
 66
     7
 43
1.0
 76
     1
 77
     6
 78
     2
 67
     7
 79
     5
170
     0
171
     0
290
     0
174
     0
 93
       13
 44
0.0
173
     0
291
     1
 45
0.0
1001
ACAD
1000
AcDbSavedByObjectVersion
1070
     0
  0
VISUALSTYLE
  5
DCC
102
{ACAD_XDICTIONARY
360
F11
102
}
102
{ACAD_REACTORS
330
DC8
102
}
330
DC8
100
AcDbVisualStyle
  2
GouraudWithEdges
 70
     3
 71
     2
 72
     2
 73
     1
 90
        2
 40
-0.6
 41
30.0
 62
     5
 63
     7
 74
     1
 91
        4
 64
     7
 65
   257
 75
     1
175
     1
 42
1.0
 92
        0
 66
   257
 43
1.0
 76
     1
 77
     6
 78
     2
 67
     7
 79
     5
170
     0
171
     0
290
     0
174
     0
 93
       13
 44
0.0
173
     0
291
     1
 45
0.0
1001
ACAD
1000
AcDbSavedByObjectVersion
1070
     0
  0
VISUALSTYLE
  5
DD9
102
{ACAD_XDICTIONARY
360
F2B
102
}
102
{ACAD_REACTORS
330
DC8
102
}
330
DC8
100
AcDbVisualStyle
  2
JitterOff
 70
    20
 71
     2
 72
     2
 73
     0
 90
        0
 40
-0.6
 41
-30.0
 62
     5
 63
     7
 74
     1
 91
        4
 64
     7
 65
   257
 75
     1
175
     1
 42
1.0
 92
       10
 66
     7
 43
1.0
 76
     1
 77
     6
 78
     2
 67
     7
 79
     5
170
     0
171
     0
290
     0
174
     0
 93
        1
 44
0.0
173
     0
291
     1
 45
0.0
1001
ACAD
1000
AcDbSavedByObjectVersion
1070
     0
  0
VISUALSTYLE
  5
DD6
102
{ACAD_XDICTIONARY
360
F25
102
}
102
{ACAD_REACTORS
330
DC8
102
}
330
DC8
100
AcDbVisualStyle
  2
Linepattern
 70
    14
 71
     2
 72
     2
 73
     0
 90
        0
 40
-0.6
 41
-30.0
 62
     5
 63
     7
 74
     1
 91
        4
 64
     7
 65
   257
 75
     7
175
     7
 42
1.0
 92
        8
 66
     7
 43
1.0
 76
     1
 77
     6
 78
     2
 67
     7
 79
     5
170
     0
171
     0
290
     0
174
     0
 93
        1
 44
0.0
173
     0
291
     1
 45
0.0
1001
ACAD
1000
AcDbSavedByObjectVersion
1070
     0
  0
VISUALSTYLE
  5
DDA
102
{ACAD_XDICTIONARY
360
F2D
102
}
102
{ACAD_REACTORS
330
DC8
102
}
330
DC8
100
AcDbVisualStyle
  2
OverhangOff
 70
    21
 71
     2
 72
     2
 73
     0
 90
        0
 40
-0.6
 41
-30.0
 62
     5
 63
     7
 74
     1
 91
        4
 64
     7
 65
   257
 75
     1
175
     1
 42
1.0
 92
        9
 66
     7
 43
1.0
 76
     1
 77
     6
 78
     2
 67
     7
 79
     5
170
     0
171
     0
290
     0
174
     0
 93
        1
 44
0.0
173
     0
291
     1
 45
0.0
1001
ACAD
1000
AcDbSavedByObjectVersion
1070
     0
  0
VISUALSTYLE
  5
DD2
102
{ACAD_XDICTIONARY
360
F1D
102
}
102
{ACAD_REACTORS
330
DC8
102
}
330
DC8
100
AcDbVisualStyle
  2
Realistic
 70
     8
 71
     2
 72
     2
 73
     0
 90
        0
 40
-0.6
 41
-30.0
 62
     5
 63
     7
 74
     1
 91
        0
 64
     7
 65
   257
 75
     1
175
     1
 42
1.0
 92
        8
 66
     8
 43
1.0
 76
     1
 77
     6
 78
     2
 67
     7
 79
     5
170
     0
171
     0
290
     0
174
     0
 93
       13
 44
0.0
173
     0
291
     0
 45
0.0
1001
ACAD
1000
AcDbSavedByObjectVersion
1070
     0
  0
VISUALSTYLE
  5
DD5
102
{ACAD_XDICTIONARY
360
F23
102
}
102
{ACAD_REACTORS
330
DC8
102
}
330
DC8
100
AcDbVisualStyle
  2
Thicken
 70
    13
 71
     2
 72
     2
 73
     0
 90
        0
 40
-0.6
 41
-30.0
 62
     5
 63
     7
 74
     1
 91
        4
 64
     7
 65
   257
 75
     1
175
     1
 42
1.0
 92
       12
 66
     7
 43
1.0
 76
     1
 77
     6
 78
     2
 67
     7
 79
     5
170
     0
171
     0
290
     0
174
     0
 93
        1
 44
0.0
173
     0
291
     1
 45
0.0
1001
ACAD
1000
AcDbSavedByObjectVersion
1070
     0
  0
ACAD_PROXY_OBJECT
  5
D2
330
0
100
AcDbProxyObject
 90
      499
 91
      538
 95
   589845
 70
     0
 93
      736
310
9084D2E312E3232336407014B7269BC41100000000000000E03F1EC52B91F85EA10FE1EC52B91F85EA10FD034153471EC52B91F85EA10FC000000FC83D797414650540C000000000000E03F3F2A7C749358940FC000000FC83D7974100
 94
        0
1001
ACAD
1000
AcRTDxfName
1000
ASSYSVARS
  0
DICTIONARYVAR
  5
EEB
102
{ACAD_REACTORS
330
EE7
102
}
330
EE7
100
DictionaryVariables
280
     0
  1
1:1
  0
DICTIONARYVAR
  5
EE9
102
{ACAD_REACTORS
330
EE7
102
}
330
EE7
100
DictionaryVariables
280
     0
  1
STANDARD
  0
DICTIONARYVAR
  5
EE8
102
{ACAD_REACTORS
330
EE7
102
}
330
EE7
100
DictionaryVariables
280
     0
  1
STANDARD
  0
DICTIONARYVAR
  5
F00
102
{ACAD_REACTORS
330
EE7
102
}
330
EE7
100
DictionaryVariables
280
     0
  1
1
  0
DICTIONARYVAR
  5
EFF
102
{ACAD_REACTORS
330
EE7
102
}
330
EE7
100
DictionaryVariables
280
     0
  1
0
  0
DICTIONARYVAR
  5
EED
102
{ACAD_REACTORS
330
EE7
102
}
330
EE7
100
DictionaryVariables
280
     0
  1
1
  0
DICTIONARYVAR
  5
EEE
102
{ACAD_REACTORS
330
EE7
102
}
330
EE7
100
DictionaryVariables
280
     0
  1
15
  0
DICTIONARYVAR
  5
EEC
102
{ACAD_REACTORS
330
EE7
102
}
330
EE7
100
DictionaryVariables
280
     0
  1
0
  0
DICTIONARYVAR
  5
EEA
102
{ACAD_REACTORS
330
EE7
102
}
330
EE7
100
DictionaryVariables
280
     0
  1
0
  0
DICTIONARYVAR
  5
EFE
102
{ACAD_REACTORS
330
EE7
102
}
330
EE7
100
DictionaryVariables
280
     0
  1
127
  0
DICTIONARYVAR
  5
F01
102
{ACAD_REACTORS
330
EE7
102
}
330
EE7
100
DictionaryVariables
280
     0
  1
2
  0
ACAD_PROXY_OBJECT
  5
85
330
0
100
AcDbProxyObject
 90
      499
 91
      507
 95
   589845
 70
     0
 93
      354
310
000000000000405AA6A9AA40504646174650142118B8C4B8C8C8CD9C0504646174650142118B8C4B8C8C8CD9FF
330
7F
330
86
330
87
330
89
330
0
330
0
 94
        0
1001
ACAD
1000
AcRTDxfName
1000
ADAPPL
  0
ACAD_PROXY_OBJECT
  5
86
330
0
100
AcDbProxyObject
 90
      499
 91
      508
 95
   589845
 70
     0
 93
      120
310
00009024410100000092080002A6A600
330
7F
330
96
330
95
330
0
 94
        0
1001
ACAD
1000
AcRTDxfName
1000
DEPMGR
  0
ACAD_PROXY_OBJECT
  5
87
330
0
100
AcDbProxyObject
 90
      499
 91
      509
 95
   589845
 70
     0
 93
       46
310
00000000920B
330
7F
330
0
330
88
 94
        0
1001
ACAD
1000
AcRTDxfName
1000
PARAMMGR
  0
ACAD_PROXY_OBJECT
  5
88
330
0
100
AcDbProxyObject
 90
      499
 91
      510
 95
   589845
 70
     0
 93
       22
310
0000AB
330
7F
 94
        0
1001
ACAD
1000
AcRTDxfName
1000
PARAMSCOPE
  0
ACAD_PROXY_OBJECT
  5
8A
330
0
100
AcDbProxyObject
 90
      499
 91
      512
 95
   589845
 70
     0
 93
      124
310
00000142905350D3D39114D414D6905F
330
7F
 94
        0
1001
ACAD
1000
AcRTDxfName
1000
SYSTEM_VAR_INT
  0
ACAD_PROXY_OBJECT
  5
8B
330
0
100
AcDbProxyObject
 90
      499
 91
      512
 95
   589845
 70
     0
 93
      124
310
000001429053549553115353D111501F
330
7F
 94
        0
1001
ACAD
1000
AcRTDxfName
1000
SYSTEM_VAR_INT
  0
ACAD_PROXY_OBJECT
  5
8C
330
0
100
AcDbProxyObject
 90
      499
 91
      512
 95
   589845
 70
     0
 93
      108
310
00000142105354D2D353D111501F
330
7F
 94
        0
1001
ACAD
1000
AcRTDxfName
1000
SYSTEM_VAR_INT
  0
ACAD_PROXY_OBJECT
  5
8D
330
0
100
AcDbProxyObject
 90
      499
 91
      512
 95
   589845
 70
     0
 93
      140
310
000001435053511253511254D41353D1116F
330
7F
 94
        0
1001
ACAD
1000
AcRTDxfName
1000
SYSTEM_VAR_INT
  0
ACAD_PROXY_OBJECT
  5
8E
330
0
100
AcDbProxyObject
 90
      499
 91
      513
 95
   589845
 70
     0
 93
      180
310
00000142905354D2D05391D513D300000000000001040F
330
7F
 94
        0
1001
ACAD
1000
AcRTDxfName
1000
SYSTEM_VAR_REAL
  0
ACAD_PROXY_OBJECT
  5
8F
330
0
100
AcDbProxyObject
 90
      499
 91
      514
 95
   589845
 70
     0
 93
      164
310
00000142505354D2D4D516531140505434F4E542AF
330
7F
 94
        0
1001
ACAD
1000
AcRTDxfName
1000
SYSTEM_VAR_STR
  0
ACAD_PROXY_OBJECT
  5
90
330
0
100
AcDbProxyObject
 90
      499
 91
      512
 95
   589845
 70
     0
 93
      108
310
00000142105350D351111253501F
330
7F
 94
        0
1001
ACAD
1000
AcRTDxfName
1000
SYSTEM_VAR_INT
  0
ACAD_PROXY_OBJECT
  5
91
330
0
100
AcDbProxyObject
 90
      499
 91
      514
 95
   589845
 70
     0
 93
      116
310
00000142505354105491925311406F
330
7F
 94
        0
1001
ACAD
1000
AcRTDxfName
1000
SYSTEM_VAR_STR
  0
ACAD_PROXY_OBJECT
  5
92
330
0
100
AcDbProxyObject
 90
      499
 91
      512
 95
   589845
 70
     0
 93
      100
310
00000142105350D3D35414D5AF
330
7F
 94
        0
1001
ACAD
1000
AcRTDxfName
1000
SYSTEM_VAR_INT
  0
ACAD_PROXY_OBJECT
  5
95
330
0
100
AcDbProxyObject
 90
      499
 91
      517
 95
   589845
 70
     0
 93
      164
310
000092090148200A00000440000FFFFFFFF000000F
330
7F
330
96
330
86
330
0
 94
        0
1001
ACAD
1000
AcRTDxfName
1000
ADBASE
  0
ACAD_PROXY_OBJECT
  5
96
330
0
100
AcDbProxyObject
 90
      499
 91
      518
 95
   589845
 70
     0
 93
       82
310
000040520802482A80003F
330
7F
330
95
330
86
330
0
 94
        0
1001
ACAD
1000
AcRTDxfName
1000
BODYID
  0
ACAD_PROXY_OBJECT
  5
97
330
0
100
AcDbProxyObject
 90
      499
 91
      510
 95
   589845
 70
     0
 93
       22
310
0000AB
330
7F
 94
        0
1001
ACAD
1000
AcRTDxfName
1000
PARAMSCOPE
  0
ACAD_PROXY_OBJECT
  5
98
330
0
100
AcDbProxyObject
 90
      499
 91
      519
 95
   589845
 70
     0
 93
       38
310
000000920B
330
7F
330
0
 94
        0
1001
ACAD
1000
AcRTDxfName
1000
WORKPLANEDISPLAYMGR
  0
ACAD_PROXY_OBJECT
  5
99
330
0
100
AcDbProxyObject
 90
      499
 91
      520
 95
   589845
 70
     0
 93
     3204
310
0000419208050A44555243485F424F4852014254D050D2D7D093D2148050C44555243485F5A594C494E440142D4D050D2D7D696531253910050B44555243485F4B4547454C014294D050D2D7D2D151D15310648201451EC94958C8094950535112504811155490D20B9F4051D7B252563202525414D4449412058202525414
310
D4445502054494546457D014F5EC94958C8094950535112504811155490D20B9F57141ED6965312539108094958C80949505350D112504816080949505350D09111540815125151915F405467B252563202525414D4449412058202525414D4445502054494546457D5C507B5A594C494E4420252563202525414D43444941
310
2058202525414D43424445502054494546457D014E5EC94958C8094950535112504811155490D20B9F57141ED2D151D15308094958C80949505350D112504816080949505350D4D05391C949591F405427B252563202525414D4449412058202525414D4445502054494546457D5C507B4B4547454C20252563202525414D4
310
34449412058202525414D4353414E472525647DF
330
7F
 94
        0
1001
ACAD
1000
AcRTDxfName
1000
ADHNTMPLT
  0
ACAD_PROXY_OBJECT
  5
9C
330
0
100
AcDbProxyObject
 90
      499
 91
      523
 95
   589845
 70
     0
 93
      332
310
0000014119185D1940508442E312E32323362014119185D1940508442E312E323233624050100000000F
330
7F
330
9D
330
9F
330
A0
330
0
 94
        0
1001
ACAD
1000
AcRTDxfName
1000
AM_DRAWING_MGR
  0
ACAD_PROXY_OBJECT
  5
9D
330
0
100
AcDbProxyObject
 90
      499
 91
      524
 95
   589845
 70
     0
 93
       56
310
0000901441010000
330
7F
330
9E
 94
        0
1001
ACAD
1000
AcRTDxfName
1000
AM_DWG_DOCUMENT
  0
ACAD_PROXY_OBJECT
  5
9E
330
0
100
AcDbProxyObject
 90
      499
 91
      525
 95
   589845
 70
     0
 93
       40
310
0000A4410100
330
7F
 94
        0
1001
ACAD
1000
AcRTDxfName
1000
AM_DWG_SHEET
  0
ACAD_PROXY_OBJECT
  5
9F
330
0
100
AcDbProxyObject
 90
      499
 91
      526
 95
   589845
 70
     0
 93
       68
310
0000A44101920A482F
330
7F
 94
        0
1001
ACAD
1000
AcRTDxfName
1000
AM_VIEWDIMPARMAP
  0
ACAD_PROXY_OBJECT
  5
A1
330
0
100
AcDbProxyObject
 90
      499
 91
      512
 95
   589845
 70
     0
 93
      108
310
000001421053521310D05310D01F
330
7F
 94
        0
1001
ACAD
1000
AcRTDxfName
1000
SYSTEM_VAR_INT
  0
ACAD_PROXY_OBJECT
  5
A2
330
0
100
AcDbProxyObject
 90
      499
 91
      512
 95
   589845
 70
     0
 93
      124
310
000001429053541493D295165411501F
330
7F
 94
        0
1001
ACAD
1000
AcRTDxfName
1000
SYSTEM_VAR_INT
  0
ACAD_PROXY_OBJECT
  5
A3
330
0
100
AcDbProxyObject
 90
      499
 91
      512
 95
   589845
 70
     0
 93
      124
310
00000142905354915554D1511253501F
330
7F
 94
        0
1001
ACAD
1000
AcRTDxfName
1000
SYSTEM_VAR_INT
  0
ACAD_PROXY_OBJECT
  5
A4
330
0
100
AcDbProxyObject
 90
      499
 91
      512
 95
   589845
 70
     0
 93
      132
310
00000143105354D150D51253D39112536F
330
7F
 94
        0
1001
ACAD
1000
AcRTDxfName
1000
SYSTEM_VAR_INT
  0
ACAD_PROXY_OBJECT
  5
A5
330
0
100
AcDbProxyObject
 90
      499
 91
      512
 95
   589845
 70
     0
 93
      124
310
00000142905355941093D4911154901F
330
7F
 94
        0
1001
ACAD
1000
AcRTDxfName
1000
SYSTEM_VAR_INT
  0
ACAD_PROXY_OBJECT
  5
A6
330
0
100
AcDbProxyObject
 90
      499
 91
      512
 95
   589845
 70
     0
 93
      116
310
0000014290535115D1D0D3D313D4AF
330
7F
 94
        0
1001
ACAD
1000
AcRTDxfName
1000
SYSTEM_VAR_INT
  0
ACAD_PROXY_OBJECT
  5
A7
330
0
100
AcDbProxyObject
 90
      499
 91
      514
 95
   589845
 70
     0
 93
      196
310
0000014290535212511315165411405085645524445434B54F
330
7F
 94
        0
1001
ACAD
1000
AcRTDxfName
1000
SYSTEM_VAR_STR
  0
ACAD_PROXY_OBJECT
  5
A9
330
0
100
AcDbProxyObject
 90
      499
 91
      514
 95
   589845
 70
     0
 93
      196
310
00000142905354D150D315165411405085048414E544F4D32F
330
7F
 94
        0
1001
ACAD
1000
AcRTDxfName
1000
SYSTEM_VAR_STR
  0
ACAD_PROXY_OBJECT
  5
AA
330
0
100
AcDbProxyObject
 90
      499
 91
      512
 95
   589845
 70
     0
 93
      108
310
00000142105354D51114D0D5102F
330
7F
 94
        0
1001
ACAD
1000
AcRTDxfName
1000
SYSTEM_VAR_INT
  0
ACAD_PROXY_OBJECT
  5
AB
330
0
100
AcDbProxyObject
 90
      499
 91
      512
 95
   589845
 70
     0
 93
      108
310
00000142105354D511151054102F
330
7F
 94
        0
1001
ACAD
1000
AcRTDxfName
1000
SYSTEM_VAR_INT
  0
ACAD_PROXY_OBJECT
  5
AC
330
0
100
AcDbProxyObject
 90
      499
 91
      512
 95
   589845
 70
     0
 93
      108
310
00000142105354D511111513102F
330
7F
 94
        0
1001
ACAD
1000
AcRTDxfName
1000
SYSTEM_VAR_INT
  0
ACAD_PROXY_OBJECT
  5
AD
330
0
100
AcDbProxyObject
 90
      499
 91
      513
 95
   589845
 70
     0
 93
      148
310
00000141905350D310D34295C8FC2F528BC3FF
330
7F
 94
        0
1001
ACAD
1000
AcRTDxfName
1000
SYSTEM_VAR_REAL
  0
ACAD_PROXY_OBJECT
  5
AE
330
0
100
AcDbProxyObject
 90
      499
 91
      513
 95
   589845
 70
     0
 93
      156
310
00000141D05350D311D05402B8716D9CEF7C33FF
330
7F
 94
        0
1001
ACAD
1000
AcRTDxfName
1000
SYSTEM_VAR_REAL
  0
ACAD_PROXY_OBJECT
  5
AF
330
0
100
AcDbProxyObject
 90
      499
 91
      513
 95
   589845
 70
     0
 93
      164
310
00000142105350D313D4D2150295C8FC2F528BC3FF
330
7F
 94
        0
1001
ACAD
1000
AcRTDxfName
1000
SYSTEM_VAR_REAL
  0
ACAD_PROXY_OBJECT
  5
B0
330
0
100
AcDbProxyObject
 90
      499
 91
      512
 95
   589845
 70
     0
 93
      100
310
00000141D05350D3141054901F
330
7F
 94
        0
1001
ACAD
1000
AcRTDxfName
1000
SYSTEM_VAR_INT
  0
ACAD_PROXY_OBJECT
  5
B1
330
0
100
AcDbProxyObject
 90
      499
 91
      512
 95
   589845
 70
     0
 93
      100
310
0000014210535590539254D22F
330
7F
 94
        0
1001
ACAD
1000
AcRTDxfName
1000
SYSTEM_VAR_INT
  0
ACAD_PROXY_OBJECT
  5
B2
330
0
100
AcDbProxyObject
 90
      499
 91
      513
 95
   589845
 70
     0
 93
      188
310
00000142D0535312539155121250D2C295C8FC2F5289C3FF
330
7F
 94
        0
1001
ACAD
1000
AcRTDxfName
1000
SYSTEM_VAR_REAL
  0
ACAD_PROXY_OBJECT
  5
B3
330
0
100
AcDbProxyObject
 90
      499
 91
      514
 95
   589845
 70
     0
 93
      156
310
00000142105350D315165411405054D49545445F
330
7F
 94
        0
1001
ACAD
1000
AcRTDxfName
1000
SYSTEM_VAR_STR
  0
ACAD_PROXY_OBJECT
  5
BC
330
0
100
AcDbProxyObject
 90
      499
 91
      512
 95
   589845
 70
     0
 93
      132
310
00000142D05050555513D4D3D31591501F
330
7F
 94
        0
1001
ACAD
1000
AcRTDxfName
1000
SYSTEM_VAR_INT
  0
ACAD_PROXY_OBJECT
  5
BD
330
0
100
AcDbProxyObject
 90
      499
 91
      512
 95
   589845
 70
     0
 93
      156
310
00000143905050555513D054D4D153509311501F
330
7F
 94
        0
1001
ACAD
1000
AcRTDxfName
1000
SYSTEM_VAR_INT
  0
ACAD_PROXY_OBJECT
  5
BE
330
0
100
AcDbProxyObject
 90
      499
 91
      512
 95
   589845
 70
     0
 93
      148
310
00000143505055925155D49154D513D491501F
330
7F
 94
        0
1001
ACAD
1000
AcRTDxfName
1000
SYSTEM_VAR_INT
  0
ACAD_PROXY_OBJECT
  5
BF
330
0
100
AcDbProxyObject
 90
      499
 91
      512
 95
   589845
 70
     0
 93
      124
310
00000142D050525394D15495105094EF
330
7F
 94
        0
1001
ACAD
1000
AcRTDxfName
1000
SYSTEM_VAR_INT
  0
ACAD_PROXY_OBJECT
  5
C6
330
0
100
AcDbProxyObject
 90
      499
 91
      531
 95
   589845
 70
     0
 93
       32
310
0000000000
330
7F
340
C3
330
C7
330
C3
 94
        0
1001
ACAD
1000
AcRTDxfName
1000
ACAMGRCOMPDEF
  0
ACAD_PROXY_OBJECT
  5
C7
330
0
100
AcDbProxyObject
 90
      499
 91
      532
 95
   589845
 70
     0
 93
      143
310
0000014213905351539313D4D0400522080D
330
7F
330
C6
 94
        0
1001
ACAD
1000
AcRTDxfName
1000
ACAMCOMPDEF
  0
ACAD_PROXY_OBJECT
  5
C8
330
0
100
AcDbProxyObject
 90
      499
 91
      533
 95
   589845
 70
     0
 93
       72
310
000000A44101A4410100
330
7F
330
C7
 94
        0
1001
ACAD
1000
AcRTDxfName
1000
ACAMCOMPDEFMGR
  0
ACAD_PROXY_OBJECT
  5
C9
330
0
100
AcDbProxyObject
 90
      499
 91
      534
 95
   589845
 70
     0
 93
       80
310
0000901441010000000000
330
7F
330
CA
330
CA
330
CA
330
CA
 94
        0
1001
ACAD
1000
AcRTDxfName
1000
AMCONTEXTMGR
  0
ACAD_PROXY_OBJECT
  5
CA
330
0
100
AcDbProxyObject
 90
      499
 91
      535
 95
   589845
 70
     0
 93
      173
310
00000000406AAAAAAAAAAAAAAAAA806A44101A441017
330
7F
330
C9
330
C7
 94
        0
1001
ACAD
1000
AcRTDxfName
1000
ACAMCONTEXTMODELER
  0
ACAD_PROXY_OBJECT
  5
CE
330
0
100
AcDbProxyObject
 90
      499
 91
      536
 95
   589845
 70
     0
 93
       26
310
0000803F
330
7F
330
0
 94
        0
1001
ACAD
1000
AcRTDxfName
1000
ACAMDRAWINGMAN
  0
PH_ENTDIMREACTOR
  5
9EB
102
{ACAD_REACTORS
330
3C
102
}
330
3C
  0
PH_DIMENTREACTOR
  5
A25
102
{ACAD_REACTORS
330
3C
102
}
330
3C
  0
PH_ENTDIMREACTOR
  5
A31
102
{ACAD_REACTORS
330
3C
102
}
330
3C
  0
PH_ENTDIMREACTOR
  5
A5D
102
{ACAD_REACTORS
330
3C
102
}
330
3C
  0
PH_ENTDIMREACTOR
  5
A32
102
{ACAD_REACTORS
330
3C
102
}
330
3C
  0
PH_ENTDIMREACTOR
  5
A3F
102
{ACAD_REACTORS
330
3C
102
}
330
3C
  0
PH_ENTDIMREACTOR
  5
9EC
102
{ACAD_REACTORS
330
3C
102
}
330
3C
  0
PH_ENTDIMREACTOR
  5
A40
102
{ACAD_REACTORS
330
3C
102
}
330
3C
  0
PH_DIMENTREACTOR
  5
A41
102
{ACAD_REACTORS
330
3C
102
}
330
3C
  0
PH_ENTDIMREACTOR
  5
A4F
102
{ACAD_REACTORS
330
3C
102
}
330
3C
  0
PH_ENTDIMREACTOR
  5
A50
102
{ACAD_REACTORS
330
3C
102
}
330
3C
  0
PH_ENTDIMREACTOR
  5
A07
102
{ACAD_REACTORS
330
3C
102
}
330
3C
  0
PH_DIMENTREACTOR
  5
A51
102
{ACAD_REACTORS
330
3C
102
}
330
3C
  0
PH_ENTDIMREACTOR
  5
A5E
102
{ACAD_REACTORS
330
3C
102
}
330
3C
  0
PH_ENTDIMREACTOR
  5
A08
102
{ACAD_REACTORS
330
3C
102
}
330
3C
  0
PH_ENTDIMREACTOR
  5
A15
102
{ACAD_REACTORS
330
3C
102
}
330
3C
  0
PH_DIMENTREACTOR
  5
A5F
102
{ACAD_REACTORS
330
3C
102
}
330
3C
  0
PH_DIMENTREACTOR
  5
9ED
102
{ACAD_REACTORS
330
3C
102
}
330
3C
  0
PH_ENTDIMREACTOR
  5
9F9
102
{ACAD_REACTORS
330
3C
102
}
330
3C
  0
PH_ENTDIMREACTOR
  5
9FA
102
{ACAD_REACTORS
330
3C
102
}
330
3C
  0
PH_DIMENTREACTOR
  5
9FB
102
{ACAD_REACTORS
330
3C
102
}
330
3C
  0
PH_DIMENTREACTOR
  5
A33
102
{ACAD_REACTORS
330
3C
102
}
330
3C
  0
PH_DIMENTREACTOR
  5
A09
102
{ACAD_REACTORS
330
3C
102
}
330
3C
  0
PH_ENTDIMREACTOR
  5
A16
102
{ACAD_REACTORS
330
3C
102
}
330
3C
  0
PH_DIMENTREACTOR
  5
A17
102
{ACAD_REACTORS
330
3C
102
}
330
3C
  0
PH_ENTDIMREACTOR
  5
A23
102
{ACAD_REACTORS
330
3C
102
}
330
3C
  0
PH_ENTDIMREACTOR
  5
A24
102
{ACAD_REACTORS
330
3C
102
}
330
3C
  0
DICTIONARY
  5
80C
102
{ACAD_REACTORS
330
3B
102
}
330
3B
100
AcDbDictionary
281
     1
  3
PH_GRPMEMBERS
350
DA0
  0
DICTIONARY
  5
810
102
{ACAD_REACTORS
330
3B
102
}
330
3B
100
AcDbDictionary
281
     1
  3
PH_GRPMEMBERS
350
DA1
  0
DICTIONARY
  5
888
102
{ACAD_REACTORS
330
3B
102
}
330
3B
100
AcDbDictionary
281
     1
  3
PH_GRPMEMBERS
350
DA2
  0
DICTIONARY
  5
88C
102
{ACAD_REACTORS
330
3B
102
}
330
3B
100
AcDbDictionary
281
     1
  3
PH_GRPMEMBERS
350
DA3
  0
DICTIONARY
  5
890
102
{ACAD_REACTORS
330
3B
102
}
330
3B
100
AcDbDictionary
281
     1
  3
PH_GRPMEMBERS
350
DA4
  0
DICTIONARY
  5
8E1
102
{ACAD_REACTORS
330
3B
102
}
330
3B
100
AcDbDictionary
281
     1
  3
PH_GRPMEMBERS
350
DA5
  0
DICTIONARY
  5
E1E
102
{ACAD_REACTORS
330
3B
102
}
330
3B
100
AcDbDictionary
280
     1
281
     1
  3
PH_GRPMEMBERS
360
E1F
  0
DICTIONARY
  5
E83
102
{ACAD_REACTORS
330
3B
102
}
330
3B
100
AcDbDictionary
280
     1
281
     1
  3
$PH$AAAA
360
E84
  3
PH_GRPMEMBERS
360
E88
  0
PH_GROUP
  5
E8D
102
{ACAD_REACTORS
330
3B
102
}
330
3B
  0
DICTIONARY
  5
F34
330
E06
100
AcDbDictionary
280
     1
281
     1
  3
ACAD_XREC_ROUNDTRIP
360
F35
  0
DICTIONARY
  5
EB3
330
E05
100
AcDbDictionary
280
     1
281
     1
  3
ACAD_XREC_ROUNDTRIP
360
F33
  3
ADSK_XREC_LAYOUTTHUMBNAIL
360
EB4
  0
DICTIONARY
  5
DB9
330
DB8
100
AcDbDictionary
280
     1
281
     1
  3
ACAD_XREC_ROUNDTRIP
360
F09
  3
BUMPTILE
360
DBB
  3
DIFFUSETILE
360
DBA
  3
OPACITYTILE
360
DBE
  3
REFLECTIONTILE
360
DBD
  3
REFRACTIONTILE
360
DBF
  3
SPECULARTILE
360
DBC
  0
DICTIONARY
  5
DB1
330
DB0
100
AcDbDictionary
280
     1
281
     1
  3
ACAD_XREC_ROUNDTRIP
360
F08
  3
BUMPTILE
360
DB3
  3
DIFFUSETILE
360
DB2
  3
OPACITYTILE
360
DB6
  3
REFLECTIONTILE
360
DB5
  3
REFRACTIONTILE
360
DB7
  3
SPECULARTILE
360
DB4
  0
DICTIONARY
  5
DC1
330
DC0
100
AcDbDictionary
280
     1
281
     1
  3
ACAD_XREC_ROUNDTRIP
360
F0A
  3
BUMPTILE
360
DC3
  3
DIFFUSETILE
360
DC2
  3
OPACITYTILE
360
DC6
  3
REFLECTIONTILE
360
DC5
  3
REFRACTIONTILE
360
DC7
  3
SPECULARTILE
360
DC4
  0
DICTIONARY
  5
F02
330
DDE
100
AcDbDictionary
280
     1
281
     1
  3
ACAD_ROUNDTRIP_2008_TABLESTYLE_CELLSTYLEMAP
360
F03
  3
ACAD_XREC_ROUNDTRIP
360
F31
  0
DICTIONARY
  5
F15
330
DCE
100
AcDbDictionary
280
     1
281
     1
  3
ACAD_XREC_ROUNDTRIP
360
F16
  0
DICTIONARY
  5
F19
330
DD0
100
AcDbDictionary
280
     1
281
     1
  3
ACAD_XREC_ROUNDTRIP
360
F1A
  0
DICTIONARY
  5
F17
330
DCF
100
AcDbDictionary
280
     1
281
     1
  3
ACAD_XREC_ROUNDTRIP
360
F18
  0
DICTIONARY
  5
F13
330
DCD
100
AcDbDictionary
280
     1
281
     1
  3
ACAD_XREC_ROUNDTRIP
360
F14
  0
DICTIONARY
  5
F21
330
DD4
100
AcDbDictionary
280
     1
281
     1
  3
ACAD_XREC_ROUNDTRIP
360
F22
  0
DICTIONARY
  5
F29
330
DD8
100
AcDbDictionary
280
     1
281
     1
  3
ACAD_XREC_ROUNDTRIP
360
F2A
  0
DICTIONARY
  5
F1B
330
DD1
100
AcDbDictionary
280
     1
281
     1
  3
ACAD_XREC_ROUNDTRIP
360
F1C
  0
DICTIONARY
  5
F1F
330
DD3
100
AcDbDictionary
280
     1
281
     1
  3
ACAD_XREC_ROUNDTRIP
360
F20
  0
DICTIONARY
  5
F2F
330
DDB
100
AcDbDictionary
280
     1
281
     1
  3
ACAD_XREC_ROUNDTRIP
360
F30
  0
DICTIONARY
  5
F27
330
DD7
100
AcDbDictionary
280
     1
281
     1
  3
ACAD_XREC_ROUNDTRIP
360
F28
  0
DICTIONARY
  5
F0B
330
DC9
100
AcDbDictionary
280
     1
281
     1
  3
ACAD_XREC_ROUNDTRIP
360
F0C
  0
DICTIONARY
  5
F0D
330
DCA
100
AcDbDictionary
280
     1
281
     1
  3
ACAD_XREC_ROUNDTRIP
360
F0E
  0
DICTIONARY
  5
F0F
330
DCB
100
AcDbDictionary
280
     1
281
     1
  3
ACAD_XREC_ROUNDTRIP
360
F10
  0
DICTIONARY
  5
F11
330
DCC
100
AcDbDictionary
280
     1
281
     1
  3
ACAD_XREC_ROUNDTRIP
360
F12
  0
DICTIONARY
  5
F2B
330
DD9
100
AcDbDictionary
280
     1
281
     1
  3
ACAD_XREC_ROUNDTRIP
360
F2C
  0
DICTIONARY
  5
F25
330
DD6
100
AcDbDictionary
280
     1
281
     1
  3
ACAD_XREC_ROUNDTRIP
360
F26
  0
DICTIONARY
  5
F2D
330
DDA
100
AcDbDictionary
280
     1
281
     1
  3
ACAD_XREC_ROUNDTRIP
360
F2E
  0
DICTIONARY
  5
F1D
330
DD2
100
AcDbDictionary
280
     1
281
     1
  3
ACAD_XREC_ROUNDTRIP
360
F1E
  0
DICTIONARY
  5
F23
330
DD5
100
AcDbDictionary
280
     1
281
     1
  3
ACAD_XREC_ROUNDTRIP
360
F24
  0
PH_GROUP
  5
DA0
102
{ACAD_REACTORS
330
80C
102
}
330
80C
  0
PH_GROUP
  5
DA1
102
{ACAD_REACTORS
330
810
102
}
330
810
  0
PH_GROUP
  5
DA2
102
{ACAD_REACTORS
330
888
102
}
330
888
  0
PH_GROUP
  5
DA3
102
{ACAD_REACTORS
330
88C
102
}
330
88C
  0
PH_GROUP
  5
DA4
102
{ACAD_REACTORS
330
890
102
}
330
890
  0
PH_GROUP
  5
DA5
102
{ACAD_REACTORS
330
8E1
102
}
330
8E1
  0
PH_GROUP
  5
E1F
102
{ACAD_REACTORS
330
E1E
102
}
330
E1E
  0
DICTIONARY
  5
E84
102
{ACAD_REACTORS
330
E83
102
}
330
E83
100
AcDbDictionary
280
     1
281
     1
  3
$PH$AAAA
360
E85
  3
PH_GRPMEMBERS
360
E87
  0
PH_GROUP
  5
E88
102
{ACAD_REACTORS
330
E83
102
}
330
E83
  0
XRECORD
  5
F35
102
{ACAD_REACTORS
330
F34
102
}
330
F34
100
AcDbXrecord
280
     1
102
SHADEPLOT
 70
     0
102
SHADEPLOTRESLEVEL
 70
     2
102
SHADEPLOTCUSTOMDPI
 70
   300
  0
XRECORD
  5
F33
102
{ACAD_REACTORS
330
EB3
102
}
330
EB3
100
AcDbXrecord
280
     1
102
SHADEPLOT
 70
     0
102
SHADEPLOTRESLEVEL
 70
     2
102
SHADEPLOTCUSTOMDPI
 70
   300
  0
XRECORD
  5
EB4
102
{ACAD_REACTORS
330
EB3
102
}
330
EB3
100
AcDbXrecord
280
     1
310
28000000000100008800000001000800000000000088000000000000000000000001000000000000F0FCFE0000000000FFFFFF000000000000000000000000000000000000000000000000000000000000000000330000006600000099000000CC000000FF00000000330000333300006633000099330000CC330000FF3300
310
0000660000336600006666000099660000CC660000FF66000000990000339900006699000099990000CC990000FF99000000CC000033CC000066CC000099CC0000CCCC0000FFCC000000FF000033FF000066FF000099FF0000CCFF0000FFFF000000003300330033006600330099003300CC003300FF003300003333003333
310
33006633330099333300CC333300FF33330000663300336633006666330099663300CC663300FF66330000993300339933006699330099993300CC993300FF99330000CC330033CC330066CC330099CC3300CCCC3300FFCC330000FF330033FF330066FF330099FF3300CCFF3300FFFF330000006600330066006600660099
310
006600CC006600FF00660000336600333366006633660099336600CC336600FF33660000666600336666006666660099666600CC666600FF66660000996600339966006699660099996600CC996600FF99660000CC660033CC660066CC660099CC6600CCCC6600FFCC660000FF660033FF660066FF660099FF6600CCFF6600
310
FFFF660000009900330099006600990099009900CC009900FF00990000339900333399006633990099339900CC339900FF33990000669900336699006666990099669900CC669900FF66990000999900339999006699990099999900CC999900FF99990000CC990033CC990066CC990099CC9900CCCC9900FFCC990000FF99
310
0033FF990066FF990099FF9900CCFF9900FFFF99000000CC003300CC006600CC009900CC00CC00CC00FF00CC000033CC003333CC006633CC009933CC00CC33CC00FF33CC000066CC003366CC006666CC009966CC00CC66CC00FF66CC000099CC003399CC006699CC009999CC00CC99CC00FF99CC0000CCCC0033CCCC0066CC
310
CC0099CCCC00CCCCCC00FFCCCC0000FFCC0033FFCC0066FFCC0099FFCC00CCFFCC00FFFFCC000000FF003300FF006600FF009900FF00CC00FF00FF00FF000033FF003333FF006633FF009933FF00CC33FF00FF33FF000066FF003366FF006666FF009966FF00CC66FF00FF66FF000099FF003399FF006699FF009999FF00CC
310
99FF00FF99FF0000CCFF0033CCFF0066CCFF0099CCFF00CCCCFF00FFCCFF0000FFFF0033FFFF0066FFFF0099FFFF00CCFFFF00FFFFFF00000000000D0D0D001A1A1A00282828003535350043434300505050005D5D5D006B6B6B00787878008686860093939300A1A1A100AEAEAE00BBBBBB00C9C9C900D6D6D600E4E4E400
310
F1F1F100FFFFFF0000000000000000000000000000000000000000000000000000000000000000000000000000000000E1E1E1E1E1E1E1E1E1E1E1E1E1E1E1E1E1E1E1E1E1E1E1E1E1E1E1E1E1E1E1E1BEBEBEBEBEBEBEBEBEBEBEBEBEBEBEBEBEBEBEBEBEBEBEBEBEBEBEBEBEBEBEBEBEBEBEBEBEBEBEBEBEBEBEBEBEBEBE
310
BEBEBEBEBEBEBEBEBEBEBEBEBEBEBEBEBEBEBEBEBEBEBEBEBEBEBEBEBEBEBEBEBEBEBEBEBEBEBEBEBEBEBEBEBEBEBEBEBEBEBEBEBEBEBEBEBEBEBEBEBEBEBEBEBEBEBEBEBEBEBEBEBEBEBEBEBEBEBEBEBEBEBEBEBEBEBEBEBEBEBEBEBEBEBEBEBEBEBEBEBEBEBEBEBEBEBEBEBEBEBEBEBEBEBEBEBEBEBEBEBEBEBEBEBEBEBE
310
BEBEBEBEBEBEBEBEBEBEBEBEBEBEBEBEBEBEE1E1E1E1E1E1E1E1E1E1E1E1E1E1E1E1E1E1E1E1E1E1E1E1E1E1E1E1E1E1E1E1E1E1E1E1E1E1E1E1E1E1E1E1E1E1E1E1E1E1E1E1E1E1E1E1E1E1E1E1E1E1E1E1BEE1E1E1E1E1E1E1E1E1E1E1E1E1E1E1E1E1E1E1E1E1E1E1E1E1E1E1E1E1E1E1E1E1E1E1E1BEE1E1E1E1E1E1E1
310
E1E1E1E1E1E1E1E1E1E1E1E1E1E1E1E1E1E1E1E1E1E1E1BEE1E1E1E1E1E1E1E1E1E1E1E1E1E1E1E1E1E1E1E1E1E1E1E1E1E1E1E1E1E1E1E1E1E1E1E1E1E1E1E1E1E1E1E1E1E1E1E1E1E1E1E1E1E1E1E1E1E1E1E1E1BEE1E1E1E1E1E1E1E1E1E1E1E1E1E1E1E1E1E1E1E1E1E1E1E1E1E1E1E1E1E1E1E1E1E1E1E1E1E1E1E1E1
310
E1E1E1E1E1E1E1E1E1E1E1E1E1E1E1E1E1E1E1BEE1E1E1E1E1E1E1E1E1E1E1E1E1E1E1E1E1E1E1E1E1E1E1E1E1E1E1E1E1E1E1E1E1E1E1E1E1E1E1E1E1E1E1E1E1E1E1E1E1E1E1E1E1E1E1E1E1E1E1E1E1E1E1E1BEE1E1E1E1E128282828282828282828282828282828282828282828282828282828282828282828282828
310
2828282828282828282828282828282828282828282828282828282828282828282828282828282828282828282828282828282828282828282828282828282828282828282828282828282828282828282828282828282828282828282828282828282828282828282828282828282828280F0F0F0F0F0F0F0F0F0F0F0F0F
310
0F28282828282828282828282828282828282828E1BEE1E1E1E1E1E1E1E1E1E1E1E1E1E1E1E1E1E1E1E1E1E1E1E1E1E1E1E1E1E1E1E1E1E1E1E1E1E1E1E1E1E1E1E1E1E1E1E1E1E1E1E1E1E1E1E1E1E1E1E1E1E1E1E1BEE1E1E1E1E128E1E1E1E1E1E1E1E1E1E1E1E1E1E1E1E1E1E1E1E1E1E1E1E1E1E1E1E1E1E1E1E1E1E1
310
E1E1E1E1E1E1E1E1E1E1E1E1E1E1E1E1E1E1E1E1E1E1E1E1E1E1E1E1E1E1E1E1E1E1E1E1E1E1E1BEE1E1E1E1E1E1E1E1E1E1E1E1E1E1E1E1E1E1BEE1E1E1E1E1E1E1E1E1E1E1E1E1E1E1E1E1E1E1E1E1E1E1E1E1E1E1E1E1E1E1E1E1E1E1E1E1E1E1E1E1E1E1E1E1E1E1E1E1E1E1E1E1E1E1E1E10F0F0F0F0F0F0F0F0F0F0F
310
0F0F0FE1E1E1E1E1E1E1E1E1E1E1E1E1E1E1E1E1E128E1BEE1E1E1E1E1E1E1E1E1E1E1E1E1E1E1E1E1E1E1E1E1E1E1E1E1E1E1E1E1E1E1E1E1E1E1E1E1E1E1E1E1E1E1E1E1E1E1E1E1E1E1E1E1E1E1E1E1E1E1E1E1E1E1E1BEE1E1E1E1E128E1E1E1E1E1E1E1E1E1E1E1E1E1E1E1E1E1E1E1E1E1E1E1E1E1E1E1E1E1E1E1E1
310
E1E1E1E1E1E1E1E1E1E1E1E1E1E1E1E1E1E10F0FE10F0FE1E10F0FE10FE10F0FE10FE1E10FE10FE1E1BEE1E10F0FE10FE10F0F0FE10FE10F0FE1E1E1BEE1E10F0FE1E10F0F0FE10F0F0F0F0F0FE1E1E1E1E1E1E1E1E1E1E1E1E1E1E1E1E1E1E1E1E1E1E1E1E1E1E1E1E1E1E1E1E1E1E1E1E1E1E1E1E10F0F0F0FE1E1E1E1E1
310
0F0F0F0F0F0FE1E1E1E1E1E1E1E1E1E1E1E1E1E1E1E1E128E1BEE1E1E1E1E1E1E1E1E1E1E1E1E1E1E1E1E1E1E1E1E1E1E1E1E1E1E1E1E1E1E1E1E1E1E1E1E1E1E1E1E1E1E1E1E1E1E1E1E1E1E1E1E1E1E1E1E1E1E1E1E1E1E1E1BEE1E1E1E1E128E1E1E1E1E1E1E1E1E1E1E1E1E1E1E1E1E1E1E1E1E1E1E1E1E1E1E1E1E1E1
310
E1E1E1E1E1E1E1E1E1E1E1E1E1E1E1E1E1E1E1E10F0F0F0FE1E1E1E10F0F0F0F0F0F0F0F0FE10F0F0FE1E1BEE1E1E10F0F0F0F0F0F0FE1E10FE10FE1E1E1BEE1E1E10F0F0F0FE10F0F0F0F0FE10FE1E1E1E1E1E1E1E1E1E1E1E1E1E1E1E1E1E1E1E1E1E1E1E1E1E1E1E1E1E1E1E1E1E1E1E1E1E1E1E1E1E10F0F0F0FBE0F0F
310
0F0F0F0F0F0F0F0F0F0F0F0F0F0F0F0F0F0F0F0F0F0F0F0F0F0FE1BEE1E1E1E1E1E1E1E1E1E1E1E1E1E1E1E1E1E1E1E1E1E1E1E1E1E1E1E1E1E1E1E1E1E1E1E1E1E1E1E1E1E1E1E1E1E1E1E1E1E1E1E1E1E1E1E1E1E1E1E1E1E1E1E1BEE1E1E1E1E128E1E1E1E1E1E1E1E1E1E1E1E1E1E1E1E1E1E1E1E1E1E1E1E1E1E1E1E1
310
E1E1E1E1E1E1E1E1E1E1E1E1E1E1E1E1E1E1E1E1E1E10F0F0F0F0FE1E10F0F0F0F0F0F0F0F0F0FE10FE10FE1E1BEE1E10F0F0F0F0F0F0FE1E10F0F0F0FE1E1E1BEE1E10F0FE10FE10F0F0FE10F0F0F0F0FE1E1E1E1E1E1E1E1E1E1E1E1E1E1E1E1E1E1E1E1E1E1E1E1E1E1E1E1E1E1E1E1E1E1E1E1E1E1E1E1E10FBEBEBEBE
310
BEBEBEBEE1E1E10FE1E1E1E1E1E1E1E1E1BEBEBEBEBEBEBEBEBEBE28E1BEE1E1E1E1E1E1E1E1E1E1E1E1E1E1E1E1E1E1E1E1E1E1E1E1E1E1E1E1E1E1E1E1E1E1E1E1E1E1E1E1E1E1E1E1E1E1E1E1E1E1E1E1E1E1E1E1E1E1E1E1E1E1E1E1BEE1E1E1E1E128E1E1E1E1E1E1E1E1E1E1E1E1E1E1E1E1E1E1E1E1E1E1E1E1E1E1
310
E1E1E1E1E1E1E1E1E1E1E1E1E1E1E1E1E1E1E1E1E1E1E1E1E1E1E1E1E1E1E1E1E1E1E1E1E1E1E1E1E1E1E1E1E1E1E1BEE1E1E1E1E1E1E1E1E1E1E1E1E1E1E1E1E1E1BEE1E1E1E1E1E1E1E1E1E1E1E1E1E1E1E1E1E1E1E1E1E1E1E1E1E1E1E1E1E1E1E1E1E1E1E1E1E1E1E1E1E1E1E1E1E1E1E1E1E1E1E1E1E1E1E1E10FBEBE
310
BEBEBEBEBEBEBEBEBEBEE1E1E1E1E1E1E1E1E1E1E1E1E2E2E2E2E2E2E228E1BEE1E1E1E1E1E1E1E1E1E1E1E1E1E1E1E1E1E1E1E1E1E1E1E1E1E1E1E1E1E1E1E1E1E1E1E1E1E1E1E1E1E1E1E1E1E1E1E1E1E1E1E1E1E1E1E1E1E1E1E1E1E1E1E1BEE1E1E1E1E128E1E1E1E1E1E1E1E1E1E1E1E1E1E1E1E1E1E1E1E1E1E1E1E1
310
E1E1E1E1E1E1E1E1E1E1E1E1E1E1E1E1E1E1E1E1E1E1E1E1E1BEBEBEBEBEBEBEBEBEBEBEBEBEBEBEBEBEBEBEBEBEBEBEBEBEBEBEBEBEBEBEBEBEBEBEBEBEBEBEBEBEBEBEBEBEBEBEBEBEBEBEBEBEBEBEBEBEBEBEBEBEE1E1E1E1E1E1E1E1E1E1E1E1E1E1E1E1E1E1E1E1E1E1E1E1E1E1E1E1E1E1E1E1E1E1E1E1E1E1E1E10F
310
BEBEBEBEBEBEBEBEBEE1E10FE1E1E1E1E1E1E1E1E1E1E1E1E2E2E2E2E2E2E228E1BEE1E1E1E1E1E1E1E1E1E1E1E1E1E1E1E1E1E1E1E1E1E1E1E1E1E1E1E1E1E1E1E1E1E1E1E1E1E1E1E1E1E1E1E1E1E1E1E1E1E1E1E1E1E1E1E1E1E1E1E1E1E1E1E1BEE1E1E1E1E128E1E1E1E1E1E1E1E1E1E1E1E1E1E1E1E1E1E1E1E1E1E1
310
E1E1E1E1E1E1E1E1E1E1E1E1E1E1E1E1E1E1E1E1E1E1E1E1E1E1E1E10F0F0F0F0FE1E10F0F0F0FE10F0F0F0FE1E10FE10FE1E1BEE1E1E10F0F0F0F0F0F0F0F0F0FE1E1E1E1E1BEE1E1E10F0F0FE10FE10F0F0FE1E1E1E1E1E1E1E1E1E1E1E1E1E1E1E1E1E1E1E1E1E1E1E1E1E1E1E1E1E1E1E1E1E1E1E1E1E1E1E1E1E1E1E1
310
E10FBEE1E1BEBEE1E1E1E1E1E10FE1E1E1E1E1E1E1E1E1E1E1E1E1E1BEE2E2E2E2E2E1BEE1E1E1E1E1E1E1E1E1E1E1E1E1E1E1E1E1E1E1E1E1E1E1E1E1E1E1E1E1E1E1E1E1E1E1E1E1E1E1E1E1E1E1E1E1E1E1E1E1E1E1E1E1E1E1E1E1E1E1E1E1E1E1E1BEE1E1E1E1E128E1E1E1E1E1E1E1E1E1E1E1E1E1E1E1E1E1E1E1E1
310
E1E1E1E1E1E1E1E1E1E1E1E1E1E1E1E1E1E1E1E1E1E1E1E1E1E1E1E1E1E10F0F0F0FE1E1E1E10F0FE10F0F0F0FE10FE10F0F0FE1E1BEE1E1E10F0F0FE10FE1E1E10F0FE1E1E1E1E1BEE1E1E10F0F0FE1E10FE10F0FE1E1E1E1E1E1E1E1E1E1E1E1E1E1E1E1E1E1E1E1E1E1E1E1E1E1E1E1E1E1E1E1E1E1E1E1E1E1E1E1E1E1
310
E1E1E10FBEE1E1BEBEE1E1E1E1E1E10FE1E1E1E1E1E1E1E1E1E1E1E1E1BEE1BEE2E2E2E2E1BEE1E1E1E1E1E1E1E1E1E1E1E1E1E1E1E1E1E1E1E1E1E1E1E1E1E1E1E1E1E1E1E1E1E1E1E1E1E1E1E1E1E1E1E1E1E1E1E1E1E1E1E1E1E1E1E1E1E1E1E1E1E1E1E1BEE1E1E1E1E128E1E1E1E1E1E1E1E1E1E1E1E1E1E1E1E1E1E1
310
E1E1E1E1E1E1E1E1E1E1E1E1E1E1E1E1E1E1E1E1E1E1E1E1E1E1E1E1E1E1E1E10F0F0F0F0FE1E10F0F0F0FE10F0F0F0FE1E10FE10FE1E1BEE1E10F0F0F0FE10FE1E10F0F0FE1E1E1E1E1BEE1E10F0F0FE1E10F0FE10F0FE1E1E1E1E1E1E1E1E1E1E1E1E1E1E1E1E1E1E1E1E1E1E1E1E1E1E1E1E1E1E1E1E1E1E1E1E1E1E1E1
310
E1E1E1E1E10FBEE1E1BEBEE1E1E1E1E1E10FE1E1E1E1E1E1E1E1E1E1E1E1E1BEBEBEBEE2BEE2E1BEE1E1E1E1E1E1E1E1E1E1E1E1E1E1E1E1E1E1E1E1E1E1E1E1E1E1E1E1E1E1E1E1E1E1E1E1E1E1E1E1E1E1E1E1E1E1E1E1E1E1E1E1E1E1E1E1E1E1E1E1E1E1E1E1BEE1E1E1E1E128E1E1E1E1E1E1E1E1E1E1E1E1E1E1E1E1
310
E1E1E1E1E1E1E1E1E1E1E1E1E1E1E1E1E1E1E1E1E1E1E1E1E1E1E1E1E1E1E1E1E1BEBEBEBEBEBEBEBEBEBEBEBEBEBEBEBEBEBEBEBEBEBEBEBEBEBEBEBEBEBEBEBEBEBEBEBEBEBEBEBEBEBEBEBEBEBEBEBEBEBEBEBEBEBEBEBEBEBEBEBEBEE1E1E1E1E1E1E1E1E1E1E1E1E1E1E1E1E1E1E1E1E1E1E1E1E1E1E1E1E1E1E1E1E1
310
E1E1E1E1E1E1E10FBEE1E1BEBEE1E1E1E1E1E10FE1E1E1E1E1E1E1E1E1E1E1E1E1E1BEBEE1E1E128E1BEE1E1E1E1E1E1E1E1E1E1E1E1E1E1E1E1E1E1E1E1E1E1E1E1E1E1E1E1E1E1E1E1E1E1E1E1E1E1E1E1E1E1E1E1E1E1E1E1E1E1E1E1E1E1E1E1E1E1E1E1E1E1E1E1BEE1E1E1E1E128E1E1E1E1E1E1E1E1E1E1E1E1E1E1
310
E1E1E1E1E1E1E1E1E1E1E1E1E1E1E1E1E1E1E1E1E1E1E1E1E1E1E1E1E1E1E1E1E1E1E1E10F0FE10F0FE1E10FE10FE10F0FE10FE1E10FE10FE1E1E1BEE1E1E10F0F0F0F0FE10FE10FE1E1E1E1E1E1BEE1E1E1E10FE10F0F0F0F0FE1E1E1E1E1E1E1E1E1E1E1E1E1E1E1E1E1E1E1E1E1E1E1E1E1E1E1E1E1E1E1E1E1E1E1E1E1
310
E1E1E1E1E1E1E1E1E10FBEE1E1BEBEE1E1E1E1E1E10FE1E1E1E1E1E1E1E1E1E1E1E1E1E1E1E1E1E1E128E1BEE1E1E1E1E1E1E1E1E1E1E1E1E1E1E1E1E1E1E1E1E1E1E1E1E1E1E1E1E1E1E1E1E1E1E1E1E1E1E1E1E1E1E1E1E1E1E1E1E1E1E1E1E1E1E1E1E1E1E1E1E1E1E1E1BEE1E1E1E1E128E1E1E1E1E1E1E1E1E1E1E1E1
310
E1E1E1E1E1E1E1E1E1E1E1E1E1E1E1E1E1E1E1E1E1E1E1E1E1E1E1E1E1E1E1E1E1E1E1E1E1E10F0F0F0FE1E1E10F0F0F0F0F0F0F0F0FE10F0F0FE1E1E1BEE1E1E10FE10FE10F0F0F0F0F0FE1E1E1E1E1BEE1E1E1E10F0F0F0F0FE10F0FE1E1E1E1E1E1E1E1E1E1E1E1E1E1E1E1E1E1E1E1E1E1E1E1E1E1E1E1E1E1E1E1E1E1
310
E1E1E1E1E1E1E1E1E1E1E10FBEE1E1BEBEE1E1E1E1E1E10FE1E1E1E1E1E1E1E1E1E1E1E1E1E1E1E1E1E1E128E1BEE1E1E1E1E1E1E1E1E1E1E1E1E1E1E1E1E1E1E1E1E1E1E1E1E1E1E1E1E1E1E1E1E1E1E1E1E1E1E1E1E1E1E1E1E1E1E1E1E1E1E1E1E1E1E1E1E1E1E1E1E1E1E1E1BEE1E1E1E1E128E1E1E1E1E1E1E1E1E1E1
310
E1E1E1E1E1E1E1E1E1E1E1E1E1E1E1E1E1E1E1E1E1E1E1E1E1E1E1E1E1E1E1E1E1E1E1E1E1E1E1E10F0F0F0F0FE1E10F0F0F0F0F0F0F0F0FE10FE10FE1E1E1BEE1E10F0F0F0F0F0F0FE1E10FE1E1E1E1E1E1BEE1E1E10F0F0F0F0FE10F0F0FE1E1E1E1E1E1E1E1E1E1E1E1E1E1E1E1E1E1E1E1E1E1E1E1E1E1E1E1E1E1E1E1
310
E1E1E1E1E1E1E1E1E1E1E1E1E10F0FE1E1BEBEE1E1E1E1E1E10FE1E1E1E1E1E1E1E1E1E1E1E1E1E1E1E1E1E1E128E1BEE1E1E1E1E1E1E1E1E1E1E1E1E1E1E1E1E1E1E1E1E1E1E1E1E1E1E1E1E1E1E1E1E1E1E1E1E1E1E1E1E1E1E1E1E1E1E1E1E1E1E1E1E1E1E1E1E1E1E1E1E1E1E1E1BEE1E1E1E1E128E1E1E1E1E1E1E1E1
310
E1E1E1E1E1E1E1E1E1E1E1E1E1E1E1E1E1E1E1E1E1E1E1E1E1E1E1E1E1E1E1E1E1E1E1E1E1E1E1E1E1E1E1E1E1E1E1E1E1E1E1E1E1E1E1E1E1E1E1E1E1E1E1E1E1BEE1E1E1E1E1E1E1E1E1E1E1E1E1E1E1E1E1E1BEE1E1E1E1E1E1E1E1E1E1E1E1E1E1E1E1E1E1E1E1E1E1E1E1E1E1E1E1E1E1E1E1E1E1E1E1E1E1E1E1E1E1
310
E1E1E1E1E1E1E1E1E1E1E1E1E1E1E10F0F0F0F0F0F0F0F0F0F0F0F0F0F0F0F0F0F0F0F0F0F0F0F0F0F0F0F0F0F0F0F0FE1BEE1E1E1E1E1E1E1E1E1E1E1E1E1E1E1E1E1E1E1E1E1E1E1E1E1E1E1E1E1E1E1E1E1E1E1E1E1E1E1E1E1E1E1E1E1E1E1E1E1E1E1E1E1E1E1E1E1E1E1E1E1E1E1E1BEE1E1E1E1E128E1E1E1E1E1E1
310
E1E1E1E1E1E1E1E1E1E1E1E1E1E1E1E1E1E1E1E1E1E1E1E1E1E1E1E1E1E1E1E1E1E1E1E1E1E1E1E1E1E1E1BEBEBEBEBEBEBEBEBEBEBEBEBEBEBEBEBEBEBEBEBEBEBEBEBEBEBEBEBEBEBEBEBEBEBEBEBEBEBEBEBEBEBEBEBEBEBEBEBEBEBEBEBEBEBEBEBEBEBEBEBEE1E1E1E1E1E1E1E1E1E1E1E1E1E1E1E1E1E1E1E1E1E1E1
310
E1E1E1E1E1E1E1E1E1E1E1E1E1E1E1E1E10FE1E2E2E2E2E2E2E2E2E2E2E2E2E2E2E2E2E2E1E1E1E1E1E1E1E1E1E1E1E1E128E1BEE1E1E1E1E1E1E1E1E1E1E1E1E1E1E1E1E1E1E1E1E1E1E1E1E1E1E1E1E1E1E1E1E1E1E1E1E1E1E1E1E1E1E1E1E1E1E1E1E1E1E1E1E1E1E1E1E1E1E1E1E1E1E1E1BEE1E1E1E1BEBEE1E1E1E1
310
E1E1E1E1E1E1E1E1E1E1E1E1E1E1E1E1E1E1E1E1E1E1E1E1E1E1E1E1E1E1E1E1E1E1E1E1E1E1E1E1E1E1E1E1E1E1E1E1E1E10F0F0F0F0F0F0F0F0F0FE1E1E1E1E1E1E1E1E1BEE1E1E1E1E1E10F0F0FE1E1E1E1E1E1E1E1E1BEE1E1E1E1E10F0FE10FE1E1E1E1E1E1E1E1E1E1E1E1E1E1E1E1E1E1E1E1E1E1E1E1E1E1E1E1E1
310
E1E1E1E1E1E1E1E1E1E1E1E1E1E1E1E1E1E1E10FE1E2E2E2E2E2E2E2E2E2E2E2E2E2E2E2E2E2E1E1E1E1E1E1E1E1E1E1E1E1E128E1BEE1E1E1E1E1E1E1E1E1E1E1E1E1E1E1E1E1E1E1E1E1E1E1E1E1E1E1E1E1E1E1E1E1E1E1E1E1E1E1E1E1E1E1E1E1E1E1E1E1E1E1E1E1E1E1E1E1E1E1E1E1E1E1E1BEE1E1E1E1BEBEE1E1
310
E1E1E1E1E1E1E1E1E1E1E1E1E1E1E1E1E1E1E1E1E1E1E1E1E1E1E1E1E1E1E1E1E1E1E1E1E1E1E1E1E1E1E1E1E1E1E1E1E1E1E1E1E10F0F0F0F0F0F0F0F0FE1E1E1E1E1E1E1E1E1BEE1E1E1E1E1E10FE1E1E1E1E1E1E1E1E1E1E1BEE1E1E1E1E10FE10F0FE1E1E1E1E1E1E1E1E1E1E1E1E1E1E1E1E1E1E1E1E1E1E1E1E1E1E1
310
E1E1E1E1E1E1E1E1E1E1E1E1E1E1E1E1E1E1E1E1E10FE1E1E1E1E1E1E1E2E1E1E1E1E1E1E1E1E2E1E1E1E1E1E1E1E1E1E1E1E1E1E128E1BEE1E1E1E1E1E1E1E1E1E1E1E1E1E1E1E1E1E1E1E1E1E1E1E1E1E1E1E1E1E1E1E1E1E1E1E1E1E1E1E1E1E1E1E1E1E1E1E1E1E1E1E1E1E1E1E1E1E1E1E1E1E1E1E1BEE1E1E1E1BEBE
310
E1E1E1E1E1E1E1E1E1E1E1E1E1E1E1E1E1E1E1E1E1E1E1E1E1E1E1E1E1E1E1E1E1E1E1E1E1E1E1E1E1E1E1E1E1E1E1E1E1E1E1E1E1E1E1E1E1E1E1E10FE1E10FE1E1E1E1E1E1E1E1E1BEE1E1E1E1E1E10FE1E1E1E1E1E1E1E1E1E1E1BEE1E1E1E1E10FE1E10FE1E1E1E1E1E1E1E1E1E1E1E1E1E1E1E1E1E1E1E1E1E1E1E1E1
310
E1E1E1E1E1E1E1E1E1E1E1E1E1E1E1E1E1E1E1E1E1E1E10FE1E2E2E2E2E2E2E2E2E2E2E2E2E2E2E2E2E2E1E1E1E1E1E1E1E1E1E1E1E1E128E1BEE1E1E1E1E1E1E1E1E1E1E1E1E1E1E1E1E1E1E1E1E1E1E1E1E1E1E1E1E1E1E1E1E1E1E1E1E1E1E1E1E1E1E1E1E1E1E1E1E1E1E1E1E1E1E1E1E1E1E1E1E1E1E1E1BEE1E1E1E1
310
BEBEE1E1E1E1E1E1E1E1E1E1E1E1E1E1E1E1E1E1E1E1E1E1E1E1E1E1E1E1E1E1E1E1E1E1E1E1E1E1E1E1E1E1E1E1E1E1E1E1E1E1E1E1E1E1E1E1E1E1E1E1E1E1E1E1E1E1E1E1E1E1E1E1E1BEE1E1E1E1E1E1E1E1E1E1E1E1E1E1E1E1E1E1BEE1E1E1E1E1E1E1E1E1E1E1E1E1E1E1E1E1E1E1E1E1E1E1E1E1E1E1E1E1E1E1E1
310
E1E1E1E1E1E1E1E1E1E1E1E1E1E1E1E1E1E1E1E1E1E1E1E1E10FE1E2E2E2E2E2E2E2E1E2E2E2E2E1E2E1E1E2E1E1E1E1E1E1E1E1E1E1E1E1E128E1BEE1E1E1E1E1E1E1E1E1E1E1E1E1E1E1E1E1E1E1E1E1E1E1E1E1E1E1E1E1E1E1E1E1E1E1E1E1E1E1E1E1E1E1E1E1E1E1E1E1E1E1E1E1E1E1E1E1E1E1E1E1E1E1E1BEE1E1
310
E1E1E1BEE1E1E1E1E1E1E1E1E1E1E1E1E1E1E1E1E1E1E1E1E1E1E1E1E1E1E1E1E1E1E1E1E1E1E1E1E1E1E1E1E1E1E1E1E1E1E1E1E1E1E1E1E1E10FE10F0F0F0F0F0F0F0F0FE1E1E1E1E1E1E1E1BEE1E1E1E1E1E1E1E1E1E1E1E1E1E1E1E1E1E1E1E1E1E1E1E1E1E1E1E1E1E1E1E1E1E1E1E1E1E1E1E1E1E1E1E1E1E1E1E1E1
310
E1E1E1E1E1E1E1E1E1E1E1E1E1E1E1E1E1E1E1E1E1E1E1E1E1E1E10FE1E2E2E2E2E2E2E2E2E2E2E2E2E1E2E1E1E1E1E1E1E1E1E1E1E1E1E1E1E1E128E1BEE1E1E1E1E1E1E1E1E1E1E1E1E1E1E1E1E1E1E1E1E1E1E1E1E1E1E1E1E1E1E1E1E1E1E1E1E1E1E1E1E1E1E1E1E1E1E1E1E1E1E1E1E1E1E1E1E1E1E1E1E1E1E1E1BE
310
E1E1E1E1E1BEE1E1E1E1E1E1E1E1E1E1E1E1E1E1E1E1E1E1E1E1E1E1E1E1E1E1E1E1E1E1E1E1E1E1E1E1E1E1E1E1E1E1E1E1E1E1E1E1E1E1E1E1E1E10F0F0F0F0F0F0F0F0F0FE10FE1E1E1E1E1E1E1BEE1E1E1E1E1E1E1E1E1E1E1E1E1E1E1E1E1E1E1E1E1E1E1E1E1E1E1E1E1E1E1E1E1E1E1E1E1E1E1E1E1E1E1E1E1E1E1
310
E1E1E1E1E1E1E1E1E1E1E1E1E1E1E1E1E1E1E1E1E1E1E1E1E1E1E1E1E10FE1E2E2E2E2E2E2E2E2E2E2E2E2E2E2E2E1E1E1E1E1E1E1E1E1E1E1E1E1E1E128E1BEE1E1E1E1E1E1E1E1E1E1E1E1E1E1E1E1E1E1E1E1E1E1E1E1E1E1E1E1E1E1E1E1E1E1E1E1E1E1E1E1E1E1E1E1E1E1E1E1E1E1E1E1E1E1E1E1E1E1E1E1E1E1E1
310
E1BEE1E1E1E1E1BEE1E1E1E1E1E1E1E1E1E1E1E1E1E1E1E1E1E1E1E1E1E1E1E1E1E1E1E1E1E1E1E1E1E1E1E1E1E1E1E1E1E1E1E1E1E1E1E1E1E1E1E1E1E10FE10FE1E1E10FE10F0FE1E10FE1E1E1E1E1E1BEE1E1E1E1E1E1E1E1E1E1E1E1E1E1E1E1E1E1E1E1E1E1E1E1E1E1E1E1E1E1E1E1E1E1E1E1E1E1E1E1E1E1E1E1E1
310
E1E1E1E1E1E1E1E1E1E1E1E1E1E1E1E1E1E1E1E1E1E1E1E1E1E1E1E1E1E1E10FE1E2E2E2E2E2E2E1E2E1E2E2E2E2E2E2E2E1E1E1E1E1E1E1E1E1E1E1E1E1E128E1BEE1E1E1E1E1E1E1E1E1E1E1E1E1E1E1E1E1E1E1E1E1E1E1E1E1E1E1E1E1E1E1E1E1E1E1E1E1E1E1E1E1E1E1E1E1E1E1E1E1E1E1E1E1E1E1E1E1E1E1E1E1
310
E1E1E1BEE1E1E1E1BEBEE1E1E1E1E1E1E1E1E1E1E1E1E1E1E1E1E1E1E1E1E1E1E1E1E1E1E1E1E1E1E1E1E1E1E1E1E1E1E1E1E1E1E1E1E1E1E1E1E1E1E1E1E1E1E1E1E1E1E1E1E1E1E1E1E1E1E1E1E1E1E1E1E1BEE1E1E1E1E1E1E1E1E1E1E1E1E1E1E1E1E1E1E1E1E1E1E1E1E1E1E1E1E1E1E1E1E1E1E1E1E1E1E1E1E1E1E1
310
E1E1E1E1E1E1E1E1E1E1E1E1E1E1E1E1E1E1E1E1E1E1E1E1E1E1E1E1E1E1E1E1E10F0F0F0F0F0F0F0F0F0F0F0F0F0F0F0F0F0F0F0F0F0F0F0F0F0F0F0F0F0F0F0F0FE1BEE1E1E1E1E1E1E1E1E1E1E1E1E1E1E1E1E1E1E1E1E1E1E1E1E1E1E1E1E1E1E1E1E1E1E1E1E1E1E1E1E1E1E1E1E1E1E1E1E1E1E1E1E1E1E1E1E1E1E1
310
E1E1E1E1E1BEE1E1E1E1E1BEE1E1E1E1E1E1E1E1E1E1E1E1E1E1E1E1E1E1E1E1E1E1E1E1E1E1E1E1E1E1E1E1E1E1E1E1E1E1E1E1E1E1E1E1E1E1E1E1E1E1E1E1E1E1E1E1E1E1E1E1E1E1E1E1E1E1E1E1E1E1E1E1E1E1E1E1E1E1E1E1E1E1E1E1E1E1E1E1E1E1E1E1E1E1E1E1E1E1E1E1E1E1E1E1E1E1E1E1E1E1E1E1E1E1E1
310
E1E1E1E1E1E1E1E1E1E1E1E1E1E1E1E1E1E1E1E1E1E1E1E1E1E1E1E1E1E1E1E1E1E1E10FE1E1E1E1E1E1E1E1E2E2E1E2E2E2E2E2E2E2E2E2E2E1E1E1E1E1E1E1E1E1E128E1BEE1E1E1E1E1E1E1E1E1E1E1E1E1E1E1E1E1E1E1E1E1E1E1E1E1E1E1E1E1E1E1E1E1E1E1E1E1E1E1E1E1E1E1E1E1E1E1E1E1E1E1E1E1E1E1E1E1
310
E1E1E1E1E1E1E1BEE1E1E1E1E1BEE1E1E1E1E1E1E1E1E1E1E1E1E1E1E1E1E1E1E1E1E1E1E1E1E1E1E1E1E1E1E1E1E1E1E1E1E1E1E1E1E1E1E1E1E1E1E1E1E1E1E1E1E1E1E1E1E1E1E1E1E1E1E1E1E1E1E1E1E1E1E1E1E1E1E1E1E1E1E1E1E1E1E1E1E1E1E1E1E1E1E1E1E1E1E1E1E1E1E1E1E1E1E1E1E1E1E1E1E1E1E1E1E1
310
E1E1E1E1E1E1E1E1E1E1E1E1E1E1E1E1E1E1E1E1E1E1E1E1E1E1E1E1E1E1E1E1E1E1E1E1E10FE1E1E1E1E1E1E1E1E2E2E1E2E2E2E2E2E2E2E2E2E2E1E1E1E1E1E1E1E1E1E128E1BEE1E1E1E1E1E1E1E1E1E1E1E1E1E1E1E1E1E1E1E1E1E1E1E1E1E1E1E1E1E1E1E1E1E1E1E1E1E1E1E1E1E1E1E1E1E1E1E1E1E1E1E1E1E1E1
310
E1E1E1E1E1E1E1E1E1BEE1E1E1E1BEBEE1E1E1E1E1E1E1E1E1E1E1E1E1E1E1E1E1E1E1E1E1E1E1E1E1E1E1E1E1E1E1E1E1E1E1E1E1E1E1E1E1E1E1E1E1E1E1E1E1E1E1E1E1E1E1E1E1E1E1E1E1E1E1E1E1E1E1E1E1E1E1E1E1E1E1E1E1E1E1E1E1E1E1E1E1E1E1E1E1E1E1E1E1E1E1E1E1E1E1E1E1E1E1E1E1E1E1E1E1E1E1
310
E1E1E1E1E1E1E1E1E1E1E1E1E1E1E1E1E1E1E1E1E1E1E1E1E1E1E1E1E1E1E1E1E1E1E1E1E1E1E10FE10F0F0F0F0F0F0F0F0F0F0F0F0F0F0F0F0F0F0F0F0FE1E1E1E1E1E1E1E1E128E1BEE1E1E1E1E1E1E1E1E1E1E1E1E1E1E1E1E1E1E1E1E1E1E1E1E1E1E1E1E1E1E1E1E1E1E1E1E1E1E1E1E1E1E1E1E1E1E1E1E1E1E1E1E1
310
E1E1E1E1E1E1E1E1E1E1E1BEE1E1E1E1BEBEE1E1E1E1E1E1E1E1E1E1E1E1E1E1E1E1E1E1E1E1E1E1E1E1E1E1E1E1E1E1E1E1E1E1E1E1E1E1E1E1E1E1E1E1E1E1E1E1E1E1E1E1E1E1E1E1E1E1E1E1E1E1E1E1E1E1E1E1E1E1E1E1E1E1E1E1E1E1E1E1E1E1E1E1E1E1E1E1E1E1E1E1E1E1E1E1E1E1E1E1E1E1E1E1E1E1E1E1E1
310
E1E1E1E1E1E1E1E1E1E1E1E1E1E1E1E1E1E1E1E1E1E1E1E1E1E1E1E1E1E1E1E1E1E1E1E1E1E1E1E1E10F0F0F0F0F0F0F0F0F0F0F0F0F0F0F0F0F0F0F0F0F0F0F0F0F0F0F0F0F0F0F0F0FE1BEE1E1E1E1E1E1E1E1E1E1E1E1E1E1E1E1E1E1E1E1E1E1E1E1E1E1E1E1E1E1E1E1E1E1E1E1E1E1E1E1E1E1E1E1E1E1E1E1E1E1E1
310
E1E1E1E1E1E1E1E1E1E1E1E1E1BEE1E1E1E1BEBEE1E1E1E1E1E1E1E1E1E1E1E1E1E1E1E1E1E1E1E1E1E1E1E1E1E1E1E1E1E1E1E1E1E1E1E1E1E1E1E1E1E1E1E1E1E1E1E1E1E1E1E1E1E1E1E1E1E1E1E1E1E1E1E1E1E1E1E1E1E1E1E1E1E1E1E1E1E1E1E1E1E1E1E1E1E1E1E1E1E1E1E1E1E1E1E1E1E1E1E1E1E1E1E1E1E1E1
310
E1E1E1E1E1E1E1E1E1E1E1E1E1E1E1E1E1E1E1E1E1E1E1E1E1E1E1E1E1E1E1E1E1E1E1E1E1E1E1E1E1E1E10FE1BEBEBEE1E1E1E1E1E1E1E1E1E1E1E1E1E1E1E1E1E1E1E1E1E10F0F0F0F0F0FE1BEE1E1E1E1E1E1E1E1E1E1E1E1E1E1E1E1E1E1E1E1E1E1E1E1E1E1E1E1E1E1E1E1E1E1E1E1E1E1E1E1E1E1E1E1E1E1E1E1E1
310
E1E1E1E1E1E1E1E1E1E1E1E1E1E1E1BEE1E1E1E1BEBEE1E1E1E1E1E1E1E1E1E1E1E1E1E1E1E1E1E1E1E1E1E1E1E1E1E1E1E1E1E1E1E1E1E1E1E1E1E1E1E1E1E1E1E1E1E1E1E1E1E1E1E1E1E1E1E1E1E1E1E1E1E1E1E1E1E1E1E1E1E1E1E1E1E1E1E1E1E1E1E1E1E1E1E1E1E1E1E1E1E1E1E1E1E1E1E1E1E1E1E1E1E1E1E1E1
310
E1E1E1E1E1E1E1E1E1E1E1E1E1E1E1E1E1E1E1E1E1E1E1E1E1E1E1E1E1E1E1E1E1E1E1E1E1E1E1E1E1E1E1E1E10FE1BEBEBEBEE1E1E1E2E2E1E1E1E1E1E1E1E1E1E1E1E1E1E1E1E1BEBEBEBEBEBEE1BEE1E1E1E1E1E1E1E1E1E1E1E1E1E1E1E1E1E1E1E1E1E1E1E1E1E1E1E1E1E1E1E1E1E1E1E1E1E1E1E1E1E1E1E1E1E1E1
310
E1E1E1E1E1E1E1E1E1E1E1E1E1E1E1E1E1BEE1E1E1E1BEBEE1E1E1E1E1E1E1E1E1E1E1E1E1E1E1E1E1E1E1E1E1E1E1E1E1E1E1E1E1E1E1E1E1E1E1E1E1E1E1E1E1E1E1E1E1E1E1E1E1E1E1E1E1E1E1E1E1E1E1E1E1E1E1E1E1E1E1E1E1E1E1E1E1E1E1E1E1E1E1E1E1E1E1E1E1E1E1E1E1E1E1E1E1E1E1E1E1E1E1E1E1E1E1
310
E1E1E1E1E1E1E1E1E1E1E1E1E1E1E1E1E1E1E1E1E1E1E1E1E1E1E1E1E1E1E1E1E1E1E1E1E1E1E1E1E1E1E1E1E1E1E10FE1BEBEBEBEBEBEE2E2E2E1E1E1E1E1E1E1E1E1E1E1E1E1E1E1E10F0F0F0F0F0FE1BEE1E1E1E1E1E1E1E1E1E1E1E1E1E1E1E1E1E1E1E1E1E1E1E1E1E1E1E1E1E1E1E1E1E1E1E1E1E1E1E1E1E1E1E1E1
310
E1E1E1E1E1E1E1E1E1E1E1E1E1E1E1E1E1E1E1BEE1E1E1E1BEBEE1E1E1E1E1E1E1E1E1E1E1E1E1E1E1E1E1E1E1E1E1E1E1E1E1E1E1E1E1E1E1E1E1E1E1E1E1E1E1E1E1E1E1E1E1E1E1E1E1E1E1E1E1E1E1E1E1E1E1E1E1E1E1E1E1E1E1E1E1E1E1E1E1E1E1E1E1E1E1E1E1E1E1E1E1E1E1E1E1E1E1E1E1E1E1E1E1E1E1E1E1
310
E1E1E1E1E1E1E1E1E1E1E1E1E1E1E1E1E1E1E1E1E1E1E1E1E1E1E1E1E1E1E1E1E1E1E1E1E1E1E1E1E1E1E1E1E1E1E1E1E10F0F0F0F0F0F0F0F0F0F0F0F0F0F0F0F0F0F0F0F0F0F0F0F0F0F0F0F0F0F0F0F0FE1BEE1E1E1E1E1E1E1E1E1E1E1E1E1E1E1E1E1E1E1E1E1E1E1E1E1E1E1E1E1E1E1E1E1E1E1E1E1E1E1E1E1E1E1
310
E1E1E1E1E1E1E1E1E1E1E1E1E1E1E1E1E1E1E1E1E1BEE1E1E1E1BEBEE1E1E1E1E1E1E1E1E1E1E1E1E1E1E1E1E1E1E1E1E1E1E1E1E1E1E1E1E1E1E1E1E1E1E1E1E1E1E1E1E1E1E1E1E1E1E1E1E1E1E1E1E1E1E1E1E1E1E1E1E1E1E1E1E1E1E1E1E1E1E1E1E1E1E1E1E1E1E1E1E1E1E1E1E1E1E1E1E1E1E1E1E1E1E1E1E1E1E1
310
E1E1E1E1E1E1E1E1E1E1E1E1E1E1E1E1E1E1E1E1E1E1E1E1E1E1E1E1E1E1E1E1E1E1E1E1E1E1E1E1E1E1E1E1E1E1E1E1E1E1E1E1E1E1E1E1E1E1E1E1E1E1E1E1E1E1E1E1E1E1E1E1E1E1E1E1E1E1E1E1E1E1E128E1BEE1E1E1E1E1E1E1E1E1E1E1E1E1E1E1E1E1E1E1E1E1E1E1E1E1E1E1E1E1E1E1E1E1E1E1E1E1E1E1E1E1
310
E1E1E1E1E1E1E1E1E1E1E1E1E1E1E1E1E1E1E1E1E1E1E1BEE1E1E1E1BEBEE1E1E1E1E1E1E1E1E1E1E1E1E1E1E1E1E1E1E1E1E1E1E1E1E1E1E1E1E1E1E1E1E1E1E1E1E1E1E1E1E1E1E1E1E1E1E1E1E1E1E1E1E1E1E1E1E1E1E1E1E1E1E1E1E1E1E1E1E1E1E1E1E1E1E1E1E1E1E1E1E1E1E1E1E1E1E1E1E1E1E1E1E1E1E1E1E1
310
E1E1E1E1E1E1E1E1E1E1E1E1E1E1E1E1E1E1E1E1E1E1E1E1E1E1E1E1E1E1E1E1E1E1E1E1E1E1E1E1E1E1E1E1E1E1E1E1E1E1E1E1E1E1E1E1E1E1E1E1E1E1E1E1E1E1E1E1E1E1E1E1E1E1E1E1E1E1E1E1E1E1E1E1E128E1BEE1E1E1E1E1E1E1E1E1E1E1E1E1E1E1E1E1E1E1E1E1E1E1E1E1E1E1E1E1E1E1E1E1E1E1E1E1E1E1
310
E1E1E1E1E1E1E1E1E1E1E1E1E1E1E1E1E1E1E1E1E1E1E1E1E1BEE1E1E1E1BEBEE1E1E1E1E1E1E1E1E1E1E1E1E1E1E1E1E1E1E1E1E1E1E1E1E1E1E1E1E1E1E1E1E1E1E1E1E1E1E1E1E1E1E1E1E1E1E1E1E1E1E1E1E1E1E1E1E1E1E1E1E1E1E1E1E1E1E1E1E1E1E1E1E1E1E1E1E1E1E1E1E1E1E1E1E1E1E1E1E1E1E1E1E1E1E1
310
E1E1E1E1E1E1E1E1E1E1E1E1E1E1E1E1E1E1E1E1E1E1E1E1E1E1E1E1E1E1E1E1E1E1E1E1E1E1E1E1E1E1E1E1E1E1E1E1E1E1E1E1E1E1E1E1E1E1E1E1E1E1E1E1E1E1E1E1E1E1E1E1E1E1E1E1E1E1E1E1E1E1E1E1E1E1E128E1BEE1E1E1E1E1E1E1E1E1E1E1E1E1E1E1E1E1E1E1E1E1E1E1E1E1E1E1E1E1E1E1E1E1E1E1E1E1
310
E1E1E1E1E1E1E1E1E1E1E1E1E1E1E1E1E1E1E1E1E1E1E1E1E1E1E1BEE1E1E1E1E1BEE1E1E1E1E1E1E1E1E1E1E1E1E1E1E1E1E1E1E1E1E1E1E1E1E1E1E1E1E1E1E1E1E1E1E1E1E1E1E1E1E1E1E1E1E1E1E1E1E1E1E1E1E1E1E1E1E1E1E1E1E1E1E1E1E1E1E1E1E1E1E1E1E1E1E1E1E1E1E1E1E1E1E1E1E1E1E1E1E1E1E1E1E1
310
E1E1E1E1E1E1E1E1E1E1E1E1E1E1E1E1E1E1E1E1E1E1E1E1E1E1E1E1E1E1E1E1E1E1E1E1E1E1E1E1E1E1E1E1E1E1E1E1E1E1E1E1E1E1E1E1E1E1E1E1E1E1E1E1E1E1E1E1E1E1E1E1E1E1E1E1E1E1E1E1E1E1E1E1E1E1E1E1E128E1BEE1E1E1E1E1E1E1E1E1E1E1E1E1E1E1E1E1E1E1E1E1E1E1E1E1E1E1E1E1E1E1E1E1E1E1
310
E1E1E1E1E1E1E1E1E1E1E1E1E1E1E1E1E1E1E1E1E1E1E1E1E1E1E1E1E1BEE1E1E1E1BEBEE1E1E1E1E1E1E1E1E1E1E1E1E1E1E1E1E1E1E1E1E1E1E1E1E1E1E1E1E1E1E1E1E1E1E1E1E1E1E1E1E1E1E1E1E1E1E1E1E1E1E1E1E1E1E1E1E1E1E1E1E1E1E1E1E1E1E1E1E1E1E1E1E1E1E1E1E1E1E1E1E1E1E1E1E1E1E1E1E1E1E1
310
E1E1E1E1E1E1E1E1E1E1E1E1E1E1E1E1E1E1E1E1E1E1E1E1E1E1E1E1E1E1E1E1E1E1E1E1E1E1E1E1E1E1E1E1E1E1E1E1E1E1E1E1E1E1E1E1E1E1E1E1E1E1E1E1E1E1E1E1E1E1E1E1E1E1E1E1E1E1E1E1E1E1E1E1E1E1E1E1E1E1E128E1BEE1E1E1E1E1E1E1E1E1E1E1E1E1E1E1E1E1E1E1E1E1E1E1E1E1E1E1E1E1E1E1E1E1
310
E1E1E1E1E1E1E1E1E1E1E1E1E1E1E1E1E1E1E1E1E1E1E1E1E1E1E1E1E1E1E1BEE1E1E1E1BEBEE1E1E1E1E1E1E1E1E1E1E1E1E1E1E1E1E1E1E1E1E1E1E1E1E1E1E1E1E1E1E1E1E1E1E1E1E1E1E1E1E1E1E1E1E1E1E1E1E1E1E1E1E1E1E1E1E1E1E1E1E1E1E1E1E1E1E1E1E1E1E1E1E1E1E1E1E1E1E1E1E1E1E1E1E1E1E1E1E1
310
E1E1E1E1E1E1E1E1E1E1E1E1E1E1E1E1E1E1E1E1E1E1E1E1E1E1E1E1E1E1E1E1E1E1E1E1E1E1E1E1E1E1E1E1E1E1E1E1E1E1E1E1E1E1E1E1E1E1E1E1E1E1E1E1E1E1E1E1E1E1E1E1E1E1E1E1E1E1E1E1E1E1E1E1E1E1E1E1E1E1E1E1E128E1BEE1E1E1E1E1E1E1E1E1E1E1E1E1E1E1E1E1E1E1E1E1E1E1E1E1E1E1E1E1E1E1
310
E1E1E1E1E1E1E1E1E1E1E1E1E1E1E1E1E1E1E1E1E1E1E1E1E1E1E1E1E1E1E1E1E1BEE1E1E1E1BEBEE1E1E1E1E1E1E1E1E1E1E1E1E1E1E1E1E1E1E1E1E1E1E1E1E1E1E1E1E1E1E1E1E1E1E1E1E1E1E1E1E1E1E1E1E1E1E1E1E1E1E1E1E1E1E1E1E1E1E1E1E1E1E1E1E1E1E1E1E1E1E1E1E1E1E1E1E1E1E1E1E1E1E1E1E1E1E1
310
E1E1E1E1E1E1E1E1E1E1E1E1E1E1E1E1E1E1E1E1E1E1E1E1E1E1E1E1E1E1E1E1E1E1E1E1E1E1E1E1E1E1E1E1E1E1E1E1E1E1E1E1E1E1E1E1E1E1E1E1E1E1E1E1E1E1E1E1E1E1E1E1E1E1E1E1E1E1E1E1E1E1E1E1E1E1E1E1E1E1E1E1E1E1E128E1BEE1E1E1E1E1E1E1E1E1E1E1E1E1E1E1E1E1E1E1E1E1E1E1E1E1E1E1E1E1
310
E1E1E1E1E1E1E1E1E1E1E1E1E1E1E1E1E1E1E1E1E1E1E1E1E1E1E1E1E1E1E1E1E1E1E1BEE1E1E1E1BEBEE1E1E1E1E1E1E1E1E1E1E1E1E1E1E1E1E1E1E1E1E1E1E1E1E1E1E1E1E1E1E1E1E1E1E1E1E1E1E1E1E1E1E1E1E1E1E1E1E1E1E1E1E1E1E1E1E1E1E1E1E1E1E1E1E1E1E1E1E1E1E1E1E1E1E1E1E1E1E1E1E1E1E1E1E1
310
E1E1E1E1E1E1E1E1E1E1E1E1E1E1E1E1E1E1E1E1E1E1E1E1E1E1E1E1E1E1E1E1E1E1E1E1E1E1E1E1E1E1E1E1E1E1E1E1E1E1E1E1E1E1E1E1E1E1E1E1E1E1E1E1E1E1E1E1E1E1E1E1E1E1E1E1E1E1E1E1E1E1E1E1E1E1E1E1E1E1E1E1E1E1E1E1E128E1BEE1E1E1E1E1E1E1E1E1E1E1E1E1E1E1E1E1E1E1E1E1E1E1E1E1E1E1
310
E1E1E1E1E1E1E1E1E1E1E1E1E1E1E1E1E1E1E1E1E1E1E1E1E1E1E1E1E1E1E1E1E1E1E1E1E1BEE1E1E1E1BEBEE1E1E1E1E1E1E1E1E1E1E1E1E1E1E1E1E1E1E1E1E1E1E1E1E1E1E1E1E1E1E1E1E1E1E1E1E1E1E1E1E1E1E1E1E1E1E1E1E1E1E1E1E1E1E1E1E1E1E1E1E1E1E1E1E1E1E1E1E1E1E1E1E1E1E1E1E1E1E1E1E1E1E1
310
E1E1E1E1E1E1E1E1E1E1E1E1E1E1E1E1E1E1E1E1E1E1E1E1E1E1E1E1E1E1E1E1E1E1E1E1E1E1E1E1E1E1E1E1E1E1E1E1E1E1E1E1E1E1E1E1E1E1E1E1E1E1E1E1E1E1E1E1E1E1E1E1E1E1E1E1E1E1E1E1E1E1E1E1E1E1E1E1E1E1E1E1E1E1E1E1E1E1E128E1BEE1E1E1E1E1E1E1E1E1E1E1E1E1E1E1E1E1E1E1E1E1E1E1E1E1
310
E1E1E1E1E1E1E1E1E1E1E1E1E1E1E1E1E1E1E1E1E1E1E1E1E1E1E1E1E1E1E1E1E1E1E1E1E1E1E1BEE1E1E1E1BEBEE1E1E1E1E1E1E1E1E1E1E1E1E1E1E1E1E1E1E1E1E1E1E1E1E1E1E1E1E1E1E1E1E1E1E1E1E1E1E1E1E1E1E1E1E1E1E1E1E1E1E1E1E1E1E1E1E1E1E1E1E1E1E1E1E1E1E1E1E1E1E1E1E1E1E1E1E1E1E1E1E1
310
E1E1E1E1E1E1E1E1E1E1E1E1E1E1E1E1E1E1E1E1E1E1E1E1E1E1E1E1E1E1E1E1E1E1E1E1E1E1E1E1E1E1E1E1E1E1E1E1E1E1E1E1E1E1E1E1E1E1E1E1E1E1E1E1E1E1E1E1E1E1E1E1E1E1E1E1E1E1E1E1E1E1E1E1E1E1E1E1E1E1E1E1E1E1E1E1E1E1E1E1E128E1BEE1E1E1E1E1E1E1E1E1E1E1E1E1E1E1E1E1E1E1E1E1E1E1
310
E1E1E1E1E1E1E1E1E1E1E1E1E1E1E1E1E1E1E1E1E1E1E1E1E1E1E1E1E1E1E1E1E1E1E1E1E1E1E1E1E1BEE1E1E1E1E1BEE1E1E1E1E1E1E1E1E1E1E1E1E1E1E1E1E1E1E1E1E1E1E1E1E1E1E1E1E1E1E1E1E1E1E1E1E1E1E1E1E1E1E1E1E1E1E1E1E1E1E1E1E1E1E1E1E1E1E1E1E1E1E1E1E1E1E1E1E1E1E1E1E1E1E1E1E1E1E1
310
E1E1E1E1E1E1E1E1E1E1E1E1E1E1E1E1E1E1E1E1E1E1E1E1E1E1E1E1E1E1E1E1E1E1E1E1E1E1E1E1E1E1E1E1E1E1E1E1E1E1E1E1E1E1E1E1E1E1E1E1E1E1E1E1E1E1E1E1E1E1E1E1E1E1E1E1E1E1E1E1E1E1E1E1E1E1E1E1E1E1E1E1E1E1E1E1E1E1E1E1E1E1E128E1BEE1E1E1E1E1E1E1E1E1E1E1E1E1E1E1E1E1E1E1E1E1
310
E1E1E1E1E1E1E1E1E1E1E1E1E1E1E1E1E1E1E1E1E1E1E1E1E1E1E1E1E1E1E1E1E1E1E1E1E1E1E1E1E1E1E1BEE1E1E1E1E1BEE1E1E1E1E1E1E1E1E1E1E1E1E1E1E1E1E1E1E1E1E1E1E1E1E1E1E1E1E1E1E1E1E1E1E1E1E1E1E1E1E1E1E1E1E1E1E1E1E1E1E1E1E1E1E1E1E1E1E1E1E1E1E1E1E1E1E1E1E1E1E1E1E1E1E1E1E1
310
E1E1E1E1E1E1E1E1E1E1E1E1E1E1E1E1E1E1E1E1E1E1E1E1E1E1E1E1E1E1E1E1E1E1E1E1E1E1E1E1E1E1E1E1E1E1E1E1E1E1E1E1E1E1E1E1E1E1E1E1E1E1E1E1E1E1E1E1E1E1E1E1E1E1E1E1E1E1E1E1E1E1E1E1E1E1E1E1E1E1E1E1E1E1E1E1E1E1E1E1E1E1E1E1E128E1BEE1E1E1E1E1E1E1E1E1E1E1E1E1E1E1E1E1E1E1
310
E1E1E1E1E1E1E1E1E1E1E1E1E1E1E1E1E1E1E1E1E1E1E1E1E1E1E1E1E1E1E1E1E1E1E1E1E1E1E1E1E1E1E1E1E1BEE1E1E1E1E1BEE1E1E1E1E1E1E1E1E1E1E1E1E1E1E1E1E1E1E1E1E1E1E1E1E1E1E1E1E1E1E1E1E1E1E1E1E1E1E1E1E1E1BEBEE1E1E1E1E1E1E1E1E1E1E1E1E1E1E1E1E1E1E1E1E1E1E1E1E1E1E1E1E1E1E1
310
E1E1E1E1E1E1E1E1E1E1E1E1E1E1E1E1E1E1E1E1E1E1E1E1E1BEBEE1E1E1E1E1E1E1E1E1E1E1E1E1E1E1E1E1E1E1E1E1E1E1E1E1E1E1E1E1E1E1E1E1E1E1E1E1E1E1E1E1E1E1E1E1E1E1E1E1E1E1E1E1E1E1E1E1E1E1E1E1E1E1E1E1E1E1E1E1E1E1E1E1E1E1E1E1E1E1E128E1BEE1E1E1E1E1E1E1E1E1E1E1E1E1E1E1E1E1
310
E1E1E1E1E1E1E1E1E1E1E1E1E1E1E1E1E1E1E1E1E1E1E1E1E1E1E1E1E1E1E1E1E1E1E1E1E1E1E1E1E1E1E1E1E1E1E1BEE1E1E1E1E1BEE1E1E1E1E1E1E1E1E1E1E1E1E1E1E1E1E1E1E1E1E1E1E1E1E1E1E1E1E1E1E1E1E1E1E1E1E1E1E1E1E1E1BEBEBEBEBEBEBEBEBEBEBEBEBEBEBEBEBEBEBEBEBEBEBEBEBEBEBEBEBE0F0F
310
BEBEBEBEBEBEBEBEBEBEBEBEBEBEBEBEBEBEBEBEBEBEBEBEBEBEBEBEE2E1E1E1E1E1E1E1E1E1E1E1E1E1E1E1E1E1E1E1E1E1E1E1E1E1E1E1E1E1E1E1E1E1E1E1E1E1E1E1E1E1E1E1E1E1E1E1E1E1E1E1E1E1E1E1E1E1E1E1E1E1E1E1E1E1E1E1E1E1E1E1E1E1E1E1E1E1E1E1E128E1BEE1E1E1E1E1E1E1E1E1E1E1E1E1E1E1
310
E1E1E1E1E1E1E1E1E1E1E1E1E1E1E1E1E1E1E1E1E1E1E1E1E1E1E1E1E1E1E1E1E1E1E1E1E1E1E1E1E1E1E1E1E1E1E1E1E1BEE1E1E1E1E1BEE1E1E1E1E1E1E1E1E1E1E1E1E1E1E1E1E1E1E1E1E1E1E1E1E1E1E1E1E1E1E1E1E1E1E1E1E1E1E1E1E1E1BEE1E1E1E1E1E1E1E1E1E1E1E1E1E1E1E1E1E1E1E1E1E1E1E1E1E1E1E1
310
0FE1E1E1E1E1E1E1E1E1E1E1E1E1E1E1E1E1E1E1E1E1E1E1E1E1E1E1E1E1BEE1E1E1E1E1E1E1E1E1E1E1E1E1E1E1E1E1E1E1E1E1E1E1E1E1E1E1E1E1E1E1E1E1E1E1E1E1E1E1E1E1E1E1E1E1E1E1E1E1E1E1E1E1E1E1E1E1E1E1E1E1E1E1E1E1E1E1E1E1E1E1E1E1E1E1E1E1E1E1E128E1BEE1E1E1E1E1E1E1E1E1E1E1E1E1
310
E1E1E1E1E1E1E1E1E1E1E1E1E1E1E1E1E1E1E1E1E1E1E1E1E1E1E1E1E1E1E1E1E1E1E1E1E1E1E1E1E1E1E1E1E1E1E1E1E1E1E1BEE1E1E1E1BEBEE1E1E1E1E1E1E1E1E1E1E1E1E1E1E1E1E1E1E1E1E1E1E1E1E1E1E1E1E1E1E1E1E1E1E1E1E1E1E1E1E1E1BEE1E1E1E1E1E1E1E1E1E1E1E1E1E1E1E1E1E1E1E1E1E1E1E1E1E1
310
E1E10FE1E1E1E1E1E1E1E1E1E1E1E1E1E1E1E1E1E1E1E1E1E1E1E1E1E1E1E1E1BEE1E1E1E1E1E1E1E1E1E1E1E1E1E1E1E1E1E1E1E1E1E1E1E1E1E1E1E1E1E1E1E1E1E1E1E1E1E1E1E1E1E1E1E1E1E1E1E1E1E1E1E1E1E1E1E1E1E1E1E1E1E1E1E1E1E1E1E1E1E1E1E1E1E1E1E1E1E1E1E128E1BEE1E1E1E1E1E1E1E1E1E1E1
310
E1E1E1E1E1E1E1E1E1E1E1E1E1E1E1E1E1E1E1E1E1E1E1E1E1E1E1E1E1E1E1E1E1E1E1E1E1E1E1E1E1E1E1E1E1E1E1E1E1E1E1E1E1BEE1E1E1E1E1BEE1E1E1E1E1E1E1E1E1E1E1E1E1E1E1E1E1E1E1E1E1E1E1E1E1E1E1E1E1E1E1E1E1E1E1E1E1E1E1E1E1E1BEE1E1E1E1E1E1E1E1E1E1E1E1E1E1E1E1E1E1E1E1E1E1E1E1
310
E1E1E1E1E1E1E1E1E1E1E1E1E1E1E1E1E1E1E1BEBEBEBEBEBEBEBEBEBEBEBEBEBEBEE2BEBEBEE1E1E1E1E1E1E1E1E1E1E1E1E1E1E1E1E1E1E1E1E1E1E1E1E1E1E1E1BEBEBEBEBEBEBEBEBEBEBEBEBEBEBEBEBEE2E1E1E1E1E1E1E1E1E1E1E1E1E1E1E1E1E1E1E1E1E1E1E1E1E1E1E1E1E1E1E128E1BEE1E1E1E1E1E1E1E1E1
310
E1E1E1E1E1E1E1E1E1E1E1E1E1E1E1E1E1E1E1E1E1E1E1E1E1E1E1E1E1E1E1E1E1E1E1E1E1E1E1E1E1E1E1E1E1E1E1E1E1E1E1E1E1E1E1BEE1E1E1E1BEBEE1E1E1E1E1E1E1E1E1E1E1E1E1E1E1E1E1E1E1E1E1E1E1E1E1E1E1E1E1E1E1E1E1E1E1E1E1E1E1E1E1E1BEE1E1E1E1E1E1E1E1E1E1E1E1E1E1E1E1E1E1E1E1E1E1
310
E1E1E1E1E1E1E1E1E1E1E1E1E1E1BEE1E1E1E1E1E1E1E10F0F0F0F0F0FE1E1BEBEE1E1E1BEBEE1E1E1E1E1E1E1E1E1E1E1E1E1E1E1E1E1E1E1E1E1E1E1E1E1E1E1E1E1E1BEBEBEE1E1E1E1E10F0F0FE1E1E1E1E1BEBEE1E1E1E1E1E1E1E1E1E1E1E1E1E1E1E1E1E1E1E1E1E1E1E1E1E1E1E1E1E1E128E1BEE1E1E1E1E1E1E1
310
E1E1E1E1E1E1E1E1E1E1E1E1E1E1E1E1E1E1E1E1E1E1E1E1E1E1E1E1E1E1E1E1E1E1E1E1E1E1E1E1E1E1E1E1E1E1E1E1E1E1E1E1E1E1E1E1E1BEE1E1E1E1E1BEE1E1E1E1E1E1E1E1E1E1E1E1E1E1E1E1E1E1E1E1E1E1E1E1E1E1E1E1E1E1E1E1E1E1E1E1E1E1E1E1E1E1BEE1E1E1E1E1E1E1E1E1E1E1E1E1E1E1E1E1E1E1E1
310
E1E1E1E1E1E1E1E10F0F0FE1E1E10FE10FE1E1E1E1E1E1E1E10F0F0FE10F0FE1E1E1BEE1E1E1BEE1E1E1E1E1E1E1E1E1E1E1E1E1E1E1E1E1E1E1E1E1E1E1E1E1E1E1E1E1E1E1BEE1E1E1E1E1E1E10F0F0FE1E1E1E1E1E1BEE1E1E1E1E1E1E1E1E1E1E1E1E1E1E1E1E1E1E1E1E1E1E1E1E1E1E1E1E1E1E128E1BEE1E1E1E1E1
310
E1E1E1E1E1E1E1E1E1E1E1E1E1E1E1E1E1E1E1E1E1E1E1E1E1E1E1E1E1E1E1E1E1E1E1E1E1E1E1E1E1E1E1E1E1E1E1E1E1E1E1E1E1E1E1E1E1E1E1BEE1E1E1E1BEBEE1E1E1E1E1E1E1E1E1E1E1E1E1E1E1E1E1E1E1E1E1E1E1E1E1E1E1E1E1E1E1E1E1E1E1E1E1E1E1E1E1E1BEE1E1E1E1E1E1E1E1E1E1E1E1E1E1E1E1E1E1
310
E1E1E1E1E1E1E1E1E10F0F0F0F0FE1E10F0F0FE1E1E1E1E1E1E1E10F0F0FE10FE1E1E1E1BEE1E1E1BEE1E1E1E1E1E1E1E1E1E1E1E1E1E1E1E1E1E1E1E1E1E1E1E1E1E1E1E1E1E1E1BEE1E1E1E1E1E1E10F0F0FE1E1E1E1E1E1BEE1E1E1E1E1E1E1E1E1E1E1E1E1E1E1E1E1E1E1E1E1E1E1E1E1E1E1E1E1E1E128E1BEE1E1E1
310
E1E1E1E1E1E1E1E1E1E1E1E1E1E1E1E1E1E1E1E1E1E1E1E1E1E1E1E1E1E1E1E1E1E1E1E1E1E1E1E1E1E1E1E1E1E1E1E1E1E1E1E1E1E1E1E1E1E1E1E1E1BEE1E1E1E1E1BEE1E1E1E1E1E1E1E1E1E1E1E1E1E1E1E1E1E1E1E1E1E1E1E1E1E1E1E1E1E1E1E1E1E1E1E1E1E1E1E1E1E1BEE1E1E1E1E1E1E1E1E1E1E1E1E1E1E1E1
310
E1E1E1E1E1E1E1E1E1E10F0FE10FE10FE1E1E1E10FE1E1E1E1E1E1E1E1E1E1E1E1E1E1E1E1E1BEE1E1E1BEE1E1E1E1E1E1E1E1E1E1E1E1E1E1E1E1E1E1E1E1E1E1E1E1E1E1E1E1BEBEBEBEBEBEBEBEBEBEBEBEE2BEBEBEBEBEBEBEBEE1E1E1E1E1E1E1E1E1E1E1E1E1E1E1E1E1E1E1E1E1E1E1E1E1E1E1E1E1E1E128E1BEE1
310
E1E1E1E1E1E1E1E1E1E1E1E1E1E1E1E1E1E1E1E1E1E1E1E1E1E1E1E1E1E1E1E1E1E1E1E1E1E1E1E1E1E1E1E1E1E1E1E1E1E1E1E1E1E1E1E1E1E1E1E1E1E1E1BEE1E1E1E1E1BEE1E1E1E1E1E1E1E1E1E1E1E1E1E1E1E1E1E1E1E1E1E1E1E1E1E1E1E1E1E1E1E1E1E1E1E1E1E1E1E1E1E1BEE1E1E1E1E1E1E1E1E1E1E1E1E1E1
310
E1E1E1E1E1E1E1E1E1E1E1E10F0F0F0FE10FE1E10F0F0FE1E1E1E1E1E1E1E1E1E1E1E1E1E1E1E1E1BEE1E1E1BEE1E1E1E1E1E1E1E1E1E1E1E1E1E1E1E1E1E1E1E1E1E1E1E1E1E1E1E1BEE1E1BE0F0F0F0FE1E1E1E1BEE10F0F0F0FE1E1BEE1E1E1E1E1E1E1E1E1E1E1E1E1E1E1E1E1E1E1E1E1E1E1E1E1E1E1E1E1E1E128E1
310
BEE1E1E1E1E1E1E1E1E1E1E1E1E1E1E1E1E1E1E1E1E1E1E1E1E1E1E1E1E1E1E1E1E1E1E1E1E1E1E1E1E1E1E1E1E1E1E1E1E1E1E1E1E1E1E1E1E1E1E1E1E1E1E1E1BEE1E1E1E1E1BEE1E1E1E1E1E1E1E1E1E1E1E1E1E1E1E1E1E1E1E1E1E1E1E1E1E1E1E1E1E1E1E1E1E1E1E1E1E1E1E1E1E1BEE1E1E1E1E1E1E1E1E1E1E1E1
310
E1E1E1E1E1E1E1E1E1E1E1E1E1E1E10F0F0F0FE1E1E10F0F0FE1E1E1E1E1E1E1E1E1E1E1E1E1E1E1E1E1BEE1E1E1BEE1E1E1E1E1E1E1E1E1E1E1E1E1E1E1E1E1E1E1E1E1E1E1E1E1E1E1E1BEE1E1BEE10F0F0FE1E1E1E1BEE1E10F0F0FE1E1BEE1E1E1E1E1E1E1E1E1E1E1E1E1E1E1E1E1E1E1E1E1E1E1E1E1E1E1E1E1E1E1
310
28E1BEE1E1E1E1E1E1E1E1E1E1E1E1E1E1E1E1E1E1E1E1E1E1E1E1E1E1E1E1E1E1E1E1E1E1E1E1E1E1E1E1E1E1E1E1E1E1E1E1E1E1E1E1E1E1E1E1E1E1E1E1E1E1E1E1BEE1E1E1E1BEBEE1E1E1E1E1E1E1E1E1E1E1E1E1E1E1E1E1E1E1E1E1E1E1E1E1E1E1E1E1E1E1E1E1E1E1E1E1E1E1E1E1E1BEE1E1E1E1E1E1E1E1E1E1
310
E1E1E1E1E1E1E1E1E1E1E1E1E1E1E1E1E1E10F0FE1E1E1E1E1E1BEE1E1E1E1E1E1E1E1E1E1E1E1E1E1E1E1E1BEE1E1E1BEE1E1E1E1E1E1E1E1E1E1E1E1E1E1E1E1E1E1E1E1E1E1E1E1E1E1E1E1BEE1E1BE0F0F0F0FE1E1E1E1BEE10F0F0F0FE1E1BEE1E1E1E1E1E1E1E1E1E1E1E1E1E1E1E1E1E1E1E1E1E1E1E1E1E1E1E1E1
310
E1E128E1BEE1E1E1E1E1E1E1E1E1E1E1E1E1E1E1E1E1E1E1E1E1E1E1E1E1E1E1E1E1E1E1E1E1E1E1E1E1E1E1E1E1E1E1E1E1E1E1E1E1E1E1E1E1E1E1E1E1E1E1E1E1E1E1E1BEE1E1E1E1BEBEE1E1E1E1E1E1E1E1E1E1E1E1E1E1E1E1E1E1E1E1E1E1E1E1E1E1E1E1E1E1E1E1E1E1E1E1E1E1E1E1E1E1BEE1E1E1E1E1E1E1E1
310
E1E1E1E1E1E1E1E1E1E1E1E1E1E1E1E1E1E1E1E1E1BEE1E1E1E1E1E1BEE1E1E1E1E1E1E1E1E1E1E1E1E1E1E1E1E1BEE1E1E1BEE1E1E1E1E1E1E1E1E1E1E1E1E1E1E1E1E1E1E1E1E1E1E1E1E1E1E1E1BEE1E1BEE1E1E1E1E1E1E1E1BEE1E1E1E1E1E1E1BEE1E1E1E1E1E1E1E1E1E1E1E1E1E1E1E1E1E1E1E1E1E1E1E1E1E1E1
310
E1E1E1E128E1BEE1E1E1E1E1E1E1E1E1E1E1E1E1E1E1E1E1E1E1E1E1E1E1E1E1E1E1E1E1E1E1E1E1E1E1E1E1E1E1E1E1E1E1E1E1E1E1E1E1E1E1E1E1E1E1E1E1E1E1E1E1E1E1E1BEE1E1E1E1BEBEE1E1E1E1E1E1E1E1E1E1E1E1E1E1E1E1E1E1E1E1E1E1E1E1E1E1E1E1E1E1E1E1E1E1E1E1E1E1E1E1E1E1BEE2BEE2E2E2E2
310
E2E2E2E2E2E2E2E2E2E2E2E2E2E2E2E2E2E2E2E2E2E2E2E2E2E2E2E2E2E2BEBEBEBEBEBEBEBEE2E2E2E2E2E2E2E2E2E2BEE2BEE2BEBEBEBEBEBEBEBEBEBEBEBEBEBEE1E1E1E1E1E1E1E1E1E1E1E1E1E1E1BEE1E1BEBEBEBEBEBEBEBEBEBEBEBEBEBEBEBEBEBEBEE1E1E1E1E1E1E1E1E1E1E1E1E1E1E1E1E1E1E1E1E1E1E1E1
310
E1E1E1E1E1E128E1BEE1E1E1E1E1E1E1E1E1E1E1E1E1E1E1E1E1E1E1E1E1E1E1E1E1E1E1E1E1E1E1E1E1E1E1E1E1E1E1E1E1E1E1E1E1E1E1E1E1E1E1E1E1E1E1E1E1E1E1E1E1E1E1E1BEE1E1E1E1E1BEE1E1E1E1E1E1E1E1E1E1E1E1E1E1E1E1E1E1E1E1E1E1E1E1E1E1E1E1E1E1E1E1E1E1E1E1E1E1E1E1E1E1E2E2E2E2E2
310
BEBEE2BEBEBEBEBEBEBEBEBEBEBEBEBEBEBEBEBEBEBEBEBEBEBEBEBEBEBEBEBEE2BEBEBEBEBEBEBEE2BEBEBEBEBEBEE2BEBEBEE2E2E2E2E1E1E1E1E1E1E1E1E1E1E1E1BEE1E1E1E1E1E1E1E1E1E1E1E1E1E1E1BEE1BEBEBEBEBEBEBEBEBEBEBEBEBEBEBEBEBEBEBEBEE1E1E1E1E1E1E1E1E1E1E1E1E1E1E1E1E1E1E1E1E1E1
310
E1E1E1E1E1E1E1E128E1BEE1E1E1E1E1E1E1E1E1E1E1E1E1E1E1E1E1E1E1E1E1E1E1E1E1E1E1E1E1E1E1E1E1E1E1E1E1E1E1E1E1E1E1E1E1E1E1E1E1E1E1E1E1E1E1E1E1E1E1E1E1E1E1E1BEE1E1E1E1BEBEE1E1E1E1E1E1E1E1E1E1E1E1E1E1E1E1E1E1E1E1E1E1E1E1E1E1E1E1E1E1E1E1E1E1E1E1E1E1E1E1E1E1BEBEBE
310
E2E2E2E2E2E2E1E1E1E1E1E1E1E1E1E1E1E1E1E1E1E1E1E1E1E1E1BEE1E1E1E1E1E1BEE1E1E1E1E1E1E1E1E1E1E1E1E1E2E2E2E2E2E2BEBEBEE1E1E1E1E1E1E1E1E1E1E1E1BEE1E1E1E1E1E1E1E1E1E1E1E1E1E1E1E2E2E2E2E2E2E2E2E2E2E2E2E2E1E1E1E1E1E1E1E2E2E1E1E1E1E1E1E1E1E1E1E1E1E1E1E1E1E1E1E1E1
310
E1E1E1E1E1E1E1E1E1E128E1BEE1E1E1E1E1E1E1E1E1E1E1E1E1E1E1E1E1E1E1E1E1E1E1E1E1E1E1E1E1E1E1E1E1E1E1E1E1E1E1E1E1E1E1E1E1E1E1E1E1E1E1E1E1E1E1E1E1E1E1E1E1E1E1E1BEE1E1E1E1BEBEE1E1E1E1E1E1E1E1E1E1E1E1E1E1E1E1E1E1E1E1E1E1E1E1E1E1E1E1E1BEBEBEBEBEBEBEBEBEBEBEBEBEBE
310
BEBEBEE20FBEE2BEE1E1E1E1E1E1E1E1E1E1E1E1E1E1E1E1E1E1E1E1E1BEE1E1E1E1E1E1BEE1E1E1E1E1E1E1E1E1E1E1E1E1E1E2BE0FBEBEE2E2E2E1E1E1E1E1E1E1E1E1E1E1E1BEE1E1E1E1E1E1E1E1E1E1E1E1E1E1BEE2BEBEBEBEBEBEBEBEBEBEBEE2E1E1E1E1E1E1E1E2E2E1E1E1E1E1E1E1E1E1E1E1E1E1E1E1E1E1E1
310
E1E1E1E1E1E1E1E1E1E1E1E128E1BEE1E1E1E1E1E1E1E1E1E1E1E1E1E1E1E1E1E1E1E1E1E1E1E1E1E1E1E1E1E1E1E1E1E1E1E1E1E1E1E1E1E1E1E1E1E1E1E1E1E1E1E1E1E1E1E1E1E1E1E1E1E1E1E1BEE1E1E1E1BEBEE1E1E1E1E1E1E1E1E1E1E1E1E1E1E1E1E1E1E1E1E1E1E1E1E1E1E1E1E1BEBEE1E1E1E1E1E1E1E1E1E1
310
E1E2E2BEE2BEE20FE2E1E1E1E1E1E1E1E1E1E1E1E1E1E1E1E1E1E1E1E1E1E1BEE1E1E1E1E1E1BEE1E1E1E1E1E1E1E1E1E1E1E1E1E1E10FE2BEE2BEE2E2E1E1E1E1E1E1E1E1E1E1E1E1BEE1E1E1E1E1E1E1E1E1E1E1E1E1E1E1E2E2E2E2E2E2E2E2E2E2E2E2E2E1E1E1E1E1E1E1E2E2E1E1E1E1E1E1E1E1E1E1E1E1E1E1E1E1
310
E1E1E1E1E1E1E1E1E1E1E1E1E1E128E1BEE1E1E1E1E1E1E1E1E1E1E1E1E1E1E1E1E1E1E1E1E1E1E1E1E1E1E1E1E1E1E1E1E1E1E1E1E1E1E1E1E1E1E1E1E1E1E1E1E1E1E1E1E1E1E1E1E1E1E1E1E1E1E1E1BEE1E1E1E1BEBEE1E1E1E1E1E1E1E1E1E1E1E1E1E1E1E1E1E1E1E1E1E1E1E1E1E1E1E1E1BEE1E1E1E1E1E1E1E1E1
310
E1E1E1E2E2BEE2BEE1BEE1E1E1E1E1E1E1E1E1E1E1E1E1E1E1E1E1E1E1E1E1E1E1BEE1E1E1E1E1E1E1E1E1E1E1E1E1E1E1E1E1E1E1E1E1E1BEE1BEE2BEE1E2E1E1E1E1E1E1E1E1E1E1E1E1BEE1E1E1E1E1E1E1E1E1E1E1E1E1E1E1E1E1E1E2E1E1E1E1E1E1E1E1E1E1E1E1E1E1E1E1E2E2E1E1E1E1E1E1E1E1E1E1E1E1E1E1
310
E1E1E1E1E1E1E1E1E1E1E1E1E1E1E1E128E1BEE1E1E1E1E1E1E1E1E1E1E1E1E1E1E1E1E1E1E1E1E1E1E1E1E1E1E1E1E1E1E1E1E1E1E1E1E1E1E1E1E1E1E1E1E1E1E1E1E1E1E1E1E1E1E1E1E1E1E1E1E1E1E1E1BEE1E1E1E1BEBEE1E1E1E1E1E1E1E1E1E1E1E1E1E1E1E1E1E1E1E1E1E1E1E1E1E1E1E1E1BEE1E1E1E1E1E1E1
310
E1E1E1E1E1E2E2BEE2BEE1E1E1E1E1E1E1E1E1E1E1E1E1E1E1E1E1E1E1E1E1E1E1E1E1BEE1E1E1E1E1E1E1E1E1E1E1E1E1E1E1E1E1E1E1E1E1E1E1E1BEE2BEE1E2E1E1E1E1E1E1E1E1E1E1E1E1BEE1E1E1E1E1E1E1E1E1E1E1E1E1E1E1E1E1E1E2E1E1E1E1E1E1E1E1E1E1E1E1E1E1E1E1E2E2E1E1E1E1E1E1E1E1E1E1E1E1
310
E1E1E1E1E1E1E1E1E1E1E1E1E1E1E1E1E1E128E1BEE1E1E1E1E1E1E1E1E1E1E1E1E1E1E1E1E1E1E1E1E1E1E1E1E1E1E1E1E1E1E1E1E1E1E1E1E1E1E1E1E1E1E1E1E1E1E1E1E1E1E1E1E1E1E1E1E1E1E1E1E1E1E1E1BEE1E1E1E1BEBEE1E1E1E1E1E1E1E1E1E1E1E1E1E1E1E1E1E1E1E1E1E1E1E1E1E1E1E1E1BEE1E1E1E1E1
310
E1E1E1E1E1E1E1E2E2BEE2BEE1E1E1E1E1E1E1E1E1E1E1E1E1E1E1E1E1E1E1E1E1E1E1E1E1BEE1E1E1E1E1E1E1E1E1E1E1E1E1E1E1E1E1E1E1E1E1E1E1E1BEE2BEE1E2E1E1E1E1E1E1E1E1E1E1E1E1BEE1E1E1E1E1E1E1E1E1E1E1E1E1E1E1E1E1E1E2E1E1E1E1E1E1E1E1E1E1E1E1E1E1E1E1E2E2E1E1E1E1E1E1E1E1E1E1
310
E1E1E1E1E1E1E1E1E1E1E1E1E1E1E1E1E1E1E1E128E1BEE1E1E1E1E1E1E1E1E1E1E1E1E1E1E1E1E1E1E1E1E1E1E1E1E1E1E1E1E1E1E1E1E1E1E1E1E1E1E1E1E1E1E1E1E1E1E1E1E1E1E1E1E1E1E1E1E1E1E1E1E1E1E1E1BEE1E1E1E1BEBEE1E1E1E1E1E1E1E1E1E1E1E1E1E1E1E1E1E1E1E1E1E1E1E1E1E1E1E1E1BEE1E1E1
310
E1E1E1E1E1E1E1E1E1E2E2BEE2BEE1E1E1E1E1E1E1E1E1E1E1E1E1E1E1E1E1E1E1E1E1E1E1E1E1BEE1E1E1E1E1E1E1E1E1E1E1E1E1E1E1E1E1E1E1E1E1E1E1E1BEE2BEE1E2E1E1E1E1E1E1E1E1E1E1E1E1BEE1E1E1E1E1E1E1E1E1E1E1E1E1E1E1E1E1E1E2E1E1E1E1E1E1E1E1E1E1E1E1E1E1E1E1E2E2E1E1E1E1E1E1E1E1
310
E1E1E1E1E1E1E1E1E1E1E1E1E1E1E1E1E1E1E1E1E1E128E1BEE1E1E1E1E1E1E1E1E1E1E1E1E1E1E1E1E1E1E1E1E1E1E1E1E1E1E1E1E1E1E1E1E1E1E1E1E1E1E1E1E1E1E1E1E1E1E1E1E1E1E1E1E1E1E1E1E1E1E1E1E1E1E1E1BEE1E1E1E1BEBEE1E1E1E1E1E1E1E1E1E1E1E1E1E1E1E1E1E1E1E1E1E1E1E1E1E1E1E1E1BEE1
310
E1E1E1E1E1E1E1E1E1E1E1E2E2BEE2BEE1E1E1E1E1E1E1E1E1E1E1E1E1E1E1E1E1E1E1E1E1E1E1E1E1BEE1E1E1E1E1E1E1E1E1E1E1E1E1E1E1E1E1E1E1E1E1E1E1E1E2BEBEE2E2E1E1E1E1E1E1E1E1E1E1E1E1BEE1E1E1E1E1E1E1E1E1E1E1E1E1E1E1E1E1E1E2E1E1E1E1E1E1E1E1E1E1E1E1E1E1E1E1E2E2E1E1E1E1E1E1
310
E1E1E1E1E1E1E1E1E1E1E1E1E1E1E1E1E1E1E1E1E1E1E1E128E1BEE1E1E1E1E1E1E1E1E1E1E1E1E1E1E1E1E1E1E1E1E1E1E1E1E1E1E1E1E1E1E1E1E1E1E1E1E1E1E1E1E1E1E1E1E1E1E1E1E1E1E1E1E1E1E1E1E1E1E1E1E1E1E1E1BEE1E1E1E1BEBEE1E1E1E1E1E1E1E1E1E1E1E1E1E1E1E1E1E1E1E1E1E1E1E1E1E1E1E1E1
310
BEE1E1E1E1E1E1E1E1E1E1E1E1E2BEE2E2E2E1E1E1E1E1E1E1E1E1E1E1E1E1E1E1E1E1E1E1E1E1E1E1E1E1BEE1E1E1E1E1E1E1E1E1E1E1E1E1E1E1E1E1E1E1E1E1E1E1E1E2E2E2E2BEE1E1E1E1E1E1E1E1E1E1E1E1BEE1E1E1E1E1E1E1E1E1E1E1E1E1E1E1E1E1E1E2E2E2E2E2E2E2E2E2E2E2E2E2E2E2E2E2E2E2E1E1E1E1
310
E1E1E1E1E1E1E1E1E1E1E1E1E1E1E1E1E1E1E1E1E1E1E1E1E1E128E1BEE1E1E1E1E1E1E1E1E1E1E1E1E1E1E1E1E1E1E1E1E1E1E1E1E1E1E1E1E1E1E1E1E1E1E1E1E1E1E1E1E1E1E1E1E1E1E1E1E1E1E1E1E1E1E1E1E1E1E1E1E1E1E1E1BEE1E1E1E1E128E1E1E1E1E1E1E1E1E1E1E1E1E1E1E1E1E1E1E1E1E1E1E1E1E1E1E1
310
E1E1BEE1E1E1E1E1E1E1E1E1E1E1E1E2BEE2E1E1E1E1E1E1E1E1E1E1E1E1E1E1E1E1E1E1E1E1E1E1E1E1E1E1E1BEE1E1E1E1E1E1E1E1E1E1E1E1E1E1E1E1E1E1E1E1E1E1E1E1E1E1E2E2BEE1E1E1E1E1E1E1E1E1E1E1E1BEE1E1E1E1E1E1E1E1E1E1E1E1E1E1E1E1E1E1E2E1E1E2E2E2E2E2E2E2E1E1E1E1E1E1E1E2E2E1E1
310
E1E1E1E1E1E1E1E1E1E1E1E1E1E1E1E1E1E1E1E1E1E1E1E1E1E1E1E128E1BEE1E1E1E1E1E1E1E1E1E1E1E1E1E1E1E1E1E1E1E1E1E1E1E1E1E1E1E1E1E1E1E1E1E1E1E1E1E1E1E1E1E1E1E1E1E1E1E1E1E1E1E1E1E1E1E1E1E1E1E1E1E1E1E1BEE1E1E1E1E128E1E1E1E1E1E1E1E1E1E1E1E1E1E1E1E1E1E1E1E1E1E1E1E1E1
310
E1E1E1E1BEE1E1E1E1E1E1E1E1E1E1E1E1E2BEE1E1E1E1E1E1E1E1E1E1E1E1E1E1E1E1E1E1E1E1E1E1E1E1E1E1E1E1BEE1E1E1E1E1E1E1E1E1E1E1E1E1E1E1E1E1E1E1E1E1E1E1E1E1E1E1E2BEE1E1E1E1E1E1E1E1E1E1E1E1BEE1E1E1E1E1E1E1E1E1E1E1E1E1E1E1E1E1E1E2E1E1E1E1E1E1E1E1E1E1E1E1E1E1E1E1E2E2
310
E1E1E1E1E1E1E1E1E1E1E1E1E1E1E1E1E1E1E1E1E1E1E1E1E1E1E1E1E1E128E1BEE1E1E1E1E1E1E1E1E1E1E1E1E1E1E1E1E1E1E1E1E1E1E1E1E1E1E1E1E1E1E1E1E1E1E1E1E1E1E1E1E1E1E1E1E1E1E1E1E1E1E1E1E1E1E1E1E1E1E1E1E1E1E1E1BEE1E1E1E1E128E1E1E1E1E1E1E1E1E1E1E1E1E1E1E1E1E1E1E1E1E1E1E1
310
E1E1E1E1E1E1BEE1E1E1E1E1E1E1E1E1E1E1E1BEBEE1E1E1E1E1E1E1E1E1E1E1E1E1E1E1E1E1E1E1E1E1E1E1E1E1E1E1E1BEE1E1E1E1E1E1E1E1E1E1E1E1E1E1E1E1E1E1E1E1E1E1E1E1E1E1E1E2BEE1E1E1E1E1E1E1E1E1E1E1E1BEE1E1E1E1E1E1E1E1E1E1E1E1E1E1E1E1E1E1E2E1E1E1E1E1E1E1E1E1E1E1E1E1E1E1E1
310
E2E2E1E1E1E1E1E1E1E1E1E1E1E1E1E1E1E1E1E1E1E1E1E1E1E1E1E1E1E1E1E128E1BEE1E1E1E1E1E1E1E1E1E1E1E1E1E1E1E1E1E1E1E1E1E1E1E1E1E1E1E1E1E1E1E1E1E1E1E1E1E1E1E1E1E1E1E1E1E1E1E1E1E1E1E1E1E1E1E1E1E1E1E1E1E1E1E1BEE1E1E1E1E128E1E1E1E1E1E1E1E1E1E1E1E1E1E1E1E1E1E1E1E1E1
310
E1E1E1E1E1E1E1E1BEE1E1E1E1BE0F0F0F0FBEBEBEBEE2BEBEBEE1E1E1E1E1E1E1E1E1E1E1E1E1E1E1E1E1E1E1E1E1E1E1E1E1BEE1E1E1E1E1E1E1E1E1E1E1E1E1E1E1E1E1E1E1E1E1E1E1E1E1E1E1E2BEE1E1E1E1E1E1E1E1E1E1E1E1BEE1E1E1E1E1E1E1E1E1E1E1E1E1E1E1E1E1E1E2E1E1E1E1E1E1E1E1E1E1E1E1E1E1
310
E1E1E2E2E1E1E1E1E1E1E1E1E1E1E1E1E1E1E1E1E1E1E1E1E1E1E1E1E1E1E1E1E1E128E1BEE1E1E1E1E1E1E1E1E1E1E1E1E1E1E1E1E1E1E1E1E1E1E1E1E1E1E1E1E1E1E1E1E1E1E1E1E1E1E1E1E1E1E1E1E1E1E1E1E1E1E1E1E1E1E1E1E1E1E1E1E1E1E1E1BEE1E1E1E1E128E1E1E1E1E1E1E1E1E1E1E1E1E1E1E1E1E1E1E1
310
E1E1E1E1E1E1E1E1E1E1BEE1E1E1E1E1E10F0F0F0FE1E1BEBEE1E1E1E1E1E1E1E1E1E1E1E1E1E1E1E1E1E1E1E1E1E1E1E1E1E1E1E1BEE1E1E1E1E1E1E1E1E1E1E1E1E1E1E1E1E1E1E1E1E1E1E1E1E1E1E1E2BEE1E1E1E1E1E1E1E1E1E1E1E1BEE1E1E1E1E1E1E1E1E1E1E1E1E1E1E1E1E1E1E2E1E1E1E1E1E1E1E1E1E1E1E1
310
E1E1E1E1E2E2E1E1E1E1E1E1E1E1E1E1E1E1E1E1E1E1E1E1E1E1E1E1E1E1E1E1E1E1E1E128E1BEE1E1E1E1E1E1E1E1E1E1E1E1E1E1E1E1E1E1E1E1E1E1E1E1E1E1E1E1E1E1E1E1E1E1E1E1E1E1E1E1E1E1E1E1E1E1E1E1E1E1E1E1E1E1E1E1E1E1E1E1E1E1E1E1BEE1E1E1E1E128E1E1E1E1E1E1E1E1E1E1E1E1E1E1E1E1E1
310
E1E1E1E1E1E1E1E1E1E1E1E1BEE1E1E1E1E10F0FE10FE1E1E1E2E2E1E1E1E1E1E1E1E1E1E1E1E1E1E1E1E1E1E1E1E1E1E1E1E1E1E1E1E1BEE1E1E1E1E1E1E1E1E1E1E1E1E1E1E1E1E1E1E1E1E1E1E1E1E1E1E1E2BEE1E1E1E1E1E1E1E1E1E1E1E1BEE1E1E1E1E1E1E1E1E1E1E1E1E1E1E1E1E1E1E2E1E1E1E1E1E1E1E1E1E1
310
E1E1E1E1E1E1E2E2E1E1E1E1E1E1E1E1E1E1E1E1E1E1E1E1E1E1E1E1E1E1E1E1E1E1E1E1E1E128E1BEE1E1E1E1E1E1E1E1E1E1E1E1E1E1E1E1E1E1E1E1E1E1E1E1E1E1E1E1E1E1E1E1E1E1E1E1E1E1E1E1E1E1E1E1E1E1E1E1E1E1E1E1E1E1E1E1E1E1E1E1E1E1E1E1BEE1E1E1E1E128E1E1E1E1E1E1E1E1E1E1E1E1E1E1E1
310
E1E1E1E1E1E1E1E1E1E1E1E1E1E1BEE1E1E1E1E1E1E1E1E1E1E1E1E2BEE1E1E1E1E1E1E1E1E1E1E1E1E1E1E1E1E1E1E1E1E1E1E1E1E1E1E1E1BEE1E1E1E1E1E1E1E1E1E1E1E1E1E1E1E1E1E1E1E1E1E1E1E1E1E1E1E2BEE1E1E1E1E1E1E1E1E1E1E1E1BEE1E1E1E1E1E1E1E1E1E1E1E1E1E1E1E1E1E1E2E1E1E1E1E1E1E1E1
310
E1E1E1E1E1E1E1E1E2E2E1E1E1E1E1E1E1E1E1E1E1E1E1E1E1E1E1E1E1E1E1E1E1E1E1E1E1E1E1E128E1BEE1E1E1E1E1E1E1E1E1E1E1E1E1E1E1E1E1E1E1E1E1E1E1E1E1E1E1E1E1E1E1E1E1E1E1E1E1E1E1E1E1E1E1E1E1E1E1E1E1E1E1E1E1E1E1E1E1E1E1E1E1E1E1E1BEE1E1E1E1E128E1E1E1E1E1E1E1E1E1E1E1E1E1
310
E1E1E1E1E1E1E1E1E1E1E1E1E1E1E1E1BEE1E1E1E1E1E1E1E1E1E1E1E1E2BEE1E1E1E1E1E1E1E1E1E1E1E1E1E1E1E1E1E1E1E1E1E1E1E1E1E1E1E1BEE1E1E1E1E1E1E1E1E1E1E1E1E1E1E1E1E1E1E1E1E1E1E1E1E1E1E1E2BEE1E1E1E1E1E1E1E1E1E1E1E1BEE1E1E1E1E1E1E1E1E1E1E1E1E1E1E1E1E1E1E2E1E1E1E1E1E1
310
E1E1E1E1E1E1E1E1E1E1E2E2E1E1E1E1E1E1E1E1E1E1E1E1E1E1E1E1E1E1E1E1E1E1E1E1E1E1E1E1E1E128E1BEE1E1E1E1E1E1E1E1E1E1E1E1E1E1E1E1E1E1E1E1E1E1E1E1E1E1E1E1E1E1E1E1E1E1E1E1E1E1E1E1E1E1E1E1E1E1E1E1E1E1E1E1E1E1E1E1E1E1E1E1E1E1E1E1BEE1E1E1E1E128E1E1E1E1E1E1E1E1E1E1E1
310
E1E1E1E1E1E1E1E1E1E1E1E1E1E1E1E1E1E1BEE1E1E1E1E1E1E1E1E1E1E1E1E2BEE1E1E1E1E1E1E1E1E1E1E1E1E1E1E1E1E1E1E1E1E1E1E1E1E1E1E1E1BEE1E1E1E1E1E1E1E1E1E1E1E1E1E1E1E1E1E1E1E1E1E1E1E1E1E1E1E2BEE1E1E1E1E1E1E1E1E1E1E1E1BEE1E1E1E1E1E1E1E1E1E1E1E1E1E1E1E1E1E1E2E1E1E1E1
310
E1E1E1E1E1E1E1E1E1E1E1E1E2E2E1E1E1E1E1E1E1E1E1E1E1E1E1E1E1E1E1E1E1E1E1E1E1E1E1E1E1E1E1E128E1BEE1E1E1E1E1E1E1E1E1E1E1E1E1E1E1E1E1E1E1E1E1E1E1E1E1E1E1E1E1E1E1E1E1E1E1E1E1E1E1E1E1E1E1E1E1E1E1E1E1E1E1E1E1E1E1E1E1E1E1E1E1E1E1E1BEE1E1E1E1E128E1E1E1E1E1E1E1E1E1
310
E1E1E1E1E1E1E1E1E1E1E1E1E1E1E1E1E1E10FE1BEE1E1E1E1E1E10F0F0FE1E1E1E2BEE1E1E1E1E1E1E1E1E1E1E1E1E1E1E1E1E1E1E1E1E1E1E1E1E1E1E1E1BEE1E1E1E1E1E1E1E1E1E1E1E1E1E1E1E1E1E1E1E1E1E1E1E1E1E1E1E2BEE1E1E10F0F0FE1E1E1E10FE1BEE1E1E1E1E1E1E1E1E10F0F0FE1E1E1E1E1E1E2E1E1
310
E1E1E1E1E1E1E1E1E1E1E1E1E1E1E2E2E1E10F0F0FE1E1E1E1E1E1E1E1E1E1E1E1E1E1E1E1E1E1E1E1E1E1E1E1E128E1BEE1E1E1E1E1E1E1E1E1E1E1E1E1E1E1E1E1E1E1E1E1E1E1E1E1E1E1E1E1E1E1E1E1E1E1E1E1E1E1E1E1E1E1E1E1E1E1E1E1E1E1E1E1E1E1E1E1E1E1E1E1E1E1E1BEE1E1E1E1E128E1E1E1E1E1E1E1
310
E1E1E1E1E1E1E1E1E1E1E1E1E1E1E1E1E1E1E1E10F0F0FE1E1E1E1E10F0F0F0F0FE1E1E2BEE1E1E1E1E1E1E1E1E1E1E1E1E1E1E1E1E1E1E1E1E1E1E1E1E1E1E1E1BEE1E1E1E1E1E1E1E1E1E1E1E1E1E1E1E1E1E1E1E1E1E1E1E1E1E1E1E2BEE1E10F0FE10F0FE1E10F0F0FBEE1E1E1E1E1E1E1E10F0F0F0F0FE1E1E1E1E1E2
310
E1E1E1E1E1E1E1E1E1E1E1E1E1E1E1E1E2E2E10F0F0F0F0FE1E1E1E1E1E1E1E1E1E1E1E1E1E1E1E1E1E1E1E1E1E1E1E128E1BEE1E1E1E1E1E1E1E1E1E1E1E1E1E1E1E1E1E1E1E1E1E1E1E1E1E1E1E1E1E1E1E1E1E1E1E1E1E1E1E1E1E1E1E1E1E1E1E1E1E1E1E1E1E1E1E1E1E1E1E1E1E1E1E1BEE1E1E1E1E128E1E1E1E1E1
310
E1E1E1E1E1E1E1E1E1E1E1E1E1E1E1E1E1E1E1E1E1E10FE10FE1E1E1E1E10FE10F0F0FE1BEBEBEBEBEBEBEBEBEBEBEBEBEBEBEBEBEBEBEBEBEBEBEBEBEBEBEBEBEBEBEBEBEBEBEBEBEBEBEBEBEBEBEBEBEBEBEBEBEBEBEBEBEBEBEBEBEBEBEE2BEBEE10F0F0F0F0FE1E10F0F0FBEE1E1E1E1E1E1E1E10F0F0FE10FE1E1E1E1
310
BEE2BEBEBEBEBEBEBEBEBEBEBEBEBEBEBEBEBEBEE10FE10F0FE10FE1E1E1E1E1E1E1E1E1E1E1E1E1E1E1E1E1E1E1E1E1E1E128E1BEE1E1E1E1E1E1E1E1E1E1E1E1E1E1E1E1E1E1E1E1E1E1E1E1E1E1E1E1E1E1E1E1E1E1E1E1E1E1E1E1E1E1E1E1E1E1E1E1E1E1E1E1E1E1E1E1E1E1E1E1E1E1E1E1BEE1E1E1E1E128E1E1E1
310
E1E1E1E1E1E1E1E1E1E1E1E1E1E1E1E1E1E1E1E1E1E1E1E10F0F0FE1E1E1E1E10F0F0F0F0FE1E1E2BEE1E1E1E1E1E1E1E1E1E1E1E1E1E1E1E1E1E1E1E1E1E1E1E1E1E1E1E1BEE1E1E1E1E1E1E1E1E1E1E1E1E1E1E1E1E1E1E1E1E1E1E1E1E1E1E1E2BEE1E10FE10FE10FE1E10F0F0FBEE1E1E1E1E1E1E1E10F0F0FE10FE1E1
310
E1E1E1E2E1E1E1E1E1E1E1E1E1E1E1E1E1E1E1E1E2E2E10FE10F0F0F0FE1E1E1E1E1E1E1E1E1E1E1E1E1E1E1E1E1E1E1E1E1E1E128E1BEE1E1E1E1E1E1E1E1E1E1E1E1E1E1E1E1E1E1E1E1E1E1E1E1E1E1E1E1E1E1E1E1E1E1E1E1E1E1E1E1E1E1E1E1E1E1E1E1E1E1E1E1E1E1E1E1E1E1E1E1E1E1E1E1BEE1E1E1E1E128E1
310
E1E1E1E1E1E1E1E1E1E1E1E1E1E1E1E1E1E1E1E1E1E1E1E1E1E10F0F0FE1E1E1E1E10F0F0F0F0FE1E1E2BEE1E1E1E1E1E1E1E1E1E1E1E1E1E1E1E1E1E1E1E1E1E1E1E1E1E1E1E1BEE1E1E1E1E1E1E1E1E1E1E1E1E1E1E1E1E1E1E1E1E1E1E1E1E1E1E1E2BEE1E10F0F0F0F0FE1E10F0F0FBEE1E1E1E1E1E1E1E10F0F0F0F0F
310
E1E1E1E1E1E2E1E1E1E1E1E1E1E1E1E1E1E1E1E1E1E1E2E2E1E10F0F0F0FE1E1E1E1E1E1E1E1E1E1E1E1E1E1E1E1E1E1E1E1E1E1E1E128E1BEE1E1E1E1E1E1E1E1E1E1E1E1E1E1E1E1E1E1E1E1E1E1E1E1E1E1E1E1E1E1E1E1E1E1E1E1E1E1E1E1E1E1E1E1E1E1E1E1E1E1E1E1E1E1E1E1E1E1E1E1E1E1E1E1BEE1E1E1E1E1
310
28E1E1E1E1E1E1E1E1E1E1E1E1E1E1E1E1E1E1E1E1E1E1E1E1E1E1E1E1E1BEE1E1E1E1E1E1E1E1E1E1E1E1E2BEE1E1E1E1E1E1E1E1E1E1E1E1E1E1E1E1E1E1E1E1E1E1E1E1E1E1E1E1BEE1E1E1E1E1E1E1E1E1E1E1E1E1E1E1E1E1E1E1E1E1E1E1E1E1E1E1E2BEE1E1E1E1E1E1E1E1E1E1E1E1BEE1E1E1E1E1E1E1E1E1E1E1
310
E1E1E1E1E1E1E1E2E1E1E1E1E1E1E1E1E1E1E1E1E1E1E1E1E2E2E1E1E1E1E1E1E1E1E1E1E1E1E1E1E1E1E1E1E1E1E1E1E1E1E1E1E1E1E1E128E1BEE1E1E1E1E1E1E1E1E1E1E1E1E1E1E1E1E1E1E1E1E1E1E1E1E1E1E1E1E1E1E1E1E1E1E1E1E1E1E1E1E1E1E1E1E1E1E1E1E1E1E1E1E1E1E1E1E1E1E1E1E1E1E1E1BEE1E1E1
310
E1E128E1E1E1E1E1E1E1E1E1E1E1E1E1E1E1E1E1E1E1E1E1E1E1E1E1E1E1E1E1BEE1E1E1E1E1E1E1E1E1E1E1E1E2BEE1E1E1E1E1E1E1E1E1E1E1E1E1E1E1E1E1E1E1E1E1E1E1E1E1E1E1E1BEE1E1E1E1E1E1E1E1E1E1E1E1E1E1E1E1E1E1E1E1E1E1E1E1E1E1E1E2BEE1E1E1E1E1E1E1E1E1E1E1E1BEE1E1E1E1E1E1E1E1E1
310
E1E1E1E1E1E1E1E1E1E2E1E1E1E1E1E1E1E1E1E1E1E1E1E1E1E1E2E2E1E1E1E1E1E1E1E1E1E1E1E1E1E1E1E1E1E1E1E1E1E1E1E1E1E1E1E1E1E128E1BEE1E1E1E1E1E1E1E1E1E1E1E1E1E1E1E1E1E1E1E1E1E1E1E1E1E1E1E1E1E1E1E1E1E1E1E1E1E1E1E1E1E1E1E1E1E1E1E1E1E1E1E1E1E1E1E1E1E1E1E1E1E1E1E1BEE1
310
E1E1E1E128E1E1E1E1E1E1E1E1E1E1E1E1E1E1E1E1E1E1E1E1E1E1E1E1E1E1E1E1E1BEE1E1E1E1E1E1E1E1E1E1E1E1E2BEE1E1E1E1E1E1E1E1E1E1E1E1E1E1E1E1E1E1E1E1E1E1E1E1E1E1E1E1BEE1E1E1E1E1E1E1E1E1E1E1E1E1E1E1E1E1E1E1E1E1E1E1E1E1E1E1E2BEE1E1E1E1E1E1E1E1E1E1E1E1BEE1E1E1E1E1E1E1
310
E1E1E1E1E1E1E1E1E1E1E1E2E1E1E1E1E1E1E1E1E1E1E1E1E1E1E1E1E2E2E1E1E1E1E1E1E1E1E1E1E1E1E1E1E1E1E1E1E1E1E1E1E1E1E1E1E1E1E1E128E1BEE1E1E1E1E1E1E1E1E1E1E1E1E1E1E1E1E1E1E1E1E1E1E1E1E1E1E1E1E1E1E1E1E1E1E1E1E1E1E1E1E1E1E1E1E1E1E1E1E1E1E1E1E1E1E1E1E1E1E1E1E1E1E1E1
310
BEE1E1E1E1E128E1E1E1E1E1E1E1E1E1E1E1E1E1E1E1E1E1E1E1E1E1E1E1E1E1E1E1E1E1BEE1E1E1E1E1E1E1E1E1E1E1E1E2BEE1E1E1E1E1E1E1E1E1E1E1E1E1E1E1E1E1E1E1E1E1E1E1E1E1E1E1E1BEE1E1E1E1E1E1E1E1E1E1E1E1E1E1E1E1E1E1E1E1E1E1E1E1E1E1E1E2BEE1E1E1E1E1E1E1E1E1E1E1E1BEE1E1E1E1E1
310
E1E1E1E1E1E1E1E1E1E1E1E1E1E2E1E1E1E1E1E1E1E1E1E1E1E1E1E1E1E1E2E2E1E1E1E1E1E1E1E1E1E1E1E1E1E1E1E1E1E1E1E1E1E1E1E1E1E1E1E1E1E128E1BEE1E1E1E1E1E1E1E1E1E1E1E1E1E1E1E1E1E1E1E1E1E1E1E1E1E1E1E1E1E1E1E1E1E1E1E1E1E1E1E1E1E1E1E1E1E1E1E1E1E1E1E1E1E1E1E1E1E1E1E1E1E1
310
E1E1BEE1E1E1E1E128E1E1E1E1E1E1E1E1E1E1E1E1E1E1E1E1E1E1E1E1E1E1E1E1E1E1E1E1E1BEE1E1E1E1E1E1E1E1E1E1E1E1E2BEE1E1E1E1E1E1E1E1E1E1E1E1E1E1E1E1E1E1E1E1E1E1E1E1E1E1E1E1BEE1E1E1E1E1E1E1E1E1E1E1E1E1E1E1E1E1E1E1E1E1E1E1E1E1E1E1E2BEE1E1E1E1E1E1E1E1E1E1E1E1BEE1E1E1
310
E1E1E1E1E1E1E1E1E1E1E1E1E1E1E1E2E1E1E1E1E1E1E1E1E1E1E1E1E1E1E1E1E2E2E1E1E1E1E1E1E1E1E1E1E1E1E1E1E1E1E1E1E1E1E1E1E1E1E1E1E1E1E1E128E1BEE1E1E1E1E1E1E1E1E1E1E1E1E1E1E1E1E1E1E1E1E1E1E1E1E1E1E1E1E1E1E1E1E1E1E1E1E1E1E1E1E1E1E1E1E1E1E1E1E1E1E1E1E1E1E1E1E1E1E1E1
310
E1E1E1E1BEE1E1E1E1E128E1E1E1E1E1E1E1E1E1E1E1E1E1E1E1E1E1E1E1E1E1E1E1E1E1E1E1E1E1BEE1E1E1E1E1E1E1E1E1E1E1E1E2BEE1E1E1E1E1E1E1E1E1E1E1E1E1E1E1E1E1E1E1E1E1E1E1E1E1E1E1E1BEE1E1E1E1E1E1E1E1E1E1E1E1E1E1E1E1E1E1E1E1E1E1E1E1E1E1E1E2BEE1E1E1E1E1E1E1E1E1E1E1E1BEE1
310
E1E1E1E1E1E1E1E1E1E1E1E1E1E1E1E1E1E2E1E1E1E1E1E1E1E1E1E1E1E1E1E1E1E1E2E2E1E1E1E1E1E1E1E1E1E1E1E1E1E1E1E1E1E1E1E1E1E1E1E1E1E1E1E1E1E128E1BEE1E1E1E1E1E1E1E1E1E1E1E1E1E1E1E1E1E1E1E1E1E1E1E1E1E1E1E1E1E1E1E1E1E1E1E1E1E1E1E1E1E1E1E1E1E1E1E1E1E1E1E1E1E1E1E1E1E1
310
E1E1E1E1E1E1BEE1E1E1E1E128E1E1E1E1E1E1E1E1E1E1E1E1E1E1E1E1E1E1E1E1E1E1E1E1E1E1E1E1E1BEE1E1E1E1E1E1E1E1E1E1E1E1E2BEE1E1E1E1E1E1E1E1E1E1E1E1E1E1E1E1E1E1E1E1E1E1E1E1E1E1E1E1BEE1E1E1E1E1E1E1E1E1E1E1E1E1E1E1E1E1E1E1E1E1E1E1E1E1E1E1E2BEE1E1E1E1E1E1E1E1E1E1E1E1
310
BEE1E1E1E1E1E1E1E1E1E1E1E1E1E1E1E1E1E1E2E1E1E1E1E1E1E1E1E1E1E1E1E1E1E1E1E2E2E1E1E1E1E1E1E1E1E1E1E1E1E1E1E1E1E1E1E1E1E1E1E1E1E1E1E1E1E1E128E1BEE1E1E1E1E1E1E1E1E1E1E1E1E1E1E1E1E1E1E1E1E1E1E1E1E1E1E1E1E1E1E1E1E1E1E1E1E1E1E1E1E1E1E1E1E1E1E1E1E1E1E1E1E1E1E1E1
310
E1E1E1E1E1E1E1E1BEE1E1E1E1E128E1E1E1E1E1E1E1E1E1E1E1E1E1E1E1E1E1E1E1E1E1E1E1E1E1E1E1E1E1BEE1E1E1E1E1E1E1E1E1E1E1E1E2BEE1E1E1E1E1E1E1E1E1E1E1E1E1E1E1E1E1E1E1E1E1E1E1E1E1E1E1E1BEE1E1E1E1E1E1E1E1E1E1E1E1E1E1E1E1E1E1E1E1E1E1E1E1E1E1E1E2BEE1E1E1E1E1E1E1E1E1E1
310
E1E1BEE1E1E1E1E1E1E1E1E1E1E1E1E1E1E1E1E1E1E2E1E1E1E1E1E1E1E1E1E1E1E1E1E1E1E1E2E2E1E1E1E1E1E1E1E1E1E1E1E1E1E1E1E1E1E1E1E1E1E1E1E1E1E1E1E1E1E128E1BEE1E1E1E1E1E1E1E1E1E1E1E1E1E1E1E1E1E1E1E1E1E1E1E1E1E1E1E1E1E1E1E1E1E1E1E1E1E1E1E1E1E1E1E1E1E1E1E1E1E1E1E1E1E1
310
E1E1E1E1E1E1E1E1E1E1BEE1E1E1E1E128E1E1E1E1E1E1E1E1E1E1E1E1E1E1E1E1E1E1E1E1E1E1E1E1E1E1E1E1E1BEE1E1E1E1E1E1E1E1E1E1E1E1E2BEE2E1E1E1E1E1E1E1E1E1E1E1E1E1E1E1E1E1E1E1E1E1E1E1E1E1E1E1BEE1E1E1E1E1E1E1E1E1E1E1E1E1E1E1E1E1E1E1E1E1E1E1E1E1E1E2E2BEE1E1E1E1E1E1E1E1
310
E1E1E1E1BEE1E1E1E1E1E1E1E1E1E1E1E1E1E1E1E1E1E1E2E1E1E2E2E2E2E2E2E2E1E1E1E1E1E1E1E2E2E1E1E1E1E1E1E1E1E1E1E1E1E1E1E1E1E1E1E1E1E1E1E1E1E1E1E1E1E1E128E1BEE1E1E1E1E1E1E1E1E1E1E1E1E1E1E1E1E1E1E1E1E1E1E1E1E1E1E1E1E1E1E1E1E1E1E1E1E1E1E1E1E1E1E1E1E1E1E1E1E1E1E1E1
310
E1E1E1E1E1E1E1E1E1E1E1E1BEE1E1E1E1E128E1E1E1E1E1E1E1E1E1E1E1E1E1E1E1E1E1E1E1E1E1E1E1E1E1E1E1E1E1BEE1E1E1E1E1E1E1E1E1E1E1E1E2E2E2E2E1E1E1E1E1E1E1E1E1E1E1E1E1E1E1E1E1E1E1E1E1E1E1E1E1E1BEE1E1E1E1E1E1E1E1E1E1E1E1E1E1E1E1E1E1E1E1E1E1E1E1E1E2E2E2BEBEBEBEBEBEBE
310
E1E1E1E1E1E1BEE1E1E1E1E1E1E1E1E1E1E1E1E1E1E1E1E1E1E2E2E2E2E2E2E2E2E2E2E2E2E2E2E2E2E2E2E2E1E1E1E1E1E1E1E1E1E1E1E1E1E1E1E1E1E1E1E1E1E1E1E1E1E1E1E1E1E128E1BEE1E1E1E1E1E1E1E1E1E1E1E1E1E1E1E1E1E1E1E1E1E1E1E1E1E1E1E1E1E1E1E1E1E1E1E1E1E1E1E1E1E1E1E1E1E1E1E1E1E1
310
E1E1E1E1E1E1E1E1E1E1E1E1E1E1BEE1E1E1E1E128E1E1E1E1E1E1E1E1E1E1E1E1E1E1E1E1E1E1E1E1E1E1E1E1E1E1E1E1E1BEE1E1E1E1E1E1E1E1E1E1E1E1E2E2BEE2E2E1E1E1E1E1E1E1E1E1E1E1E1E1E1E1E1E1E1E1E1E1E1E1E1E1BEE1E1E1E1E1E1E1E1E1E1E1E1E1E1E1E1E1E1E1E1E1E1E1E1E2E2BEE2E2E1E1E1E1
310
BEE1E1E1E1E1E1E1BEE1E1E1E1E1E1E1E1E1E1E1E1E1E1E1E1E1E1E2E1E1E1E1E1E1E1E1E1E1E1E1E1E1E1E1E2E2E1E1E1E1E1E1E1E1E1E1E1E1E1E1E1E1E1E1E1E1E1E1E1E1E1E1E1E1E1E128E1BEE1E1E1E1E1E1E1E1E1E1E1E1E1E1E1E1E1E1E1E1E1E1E1E1E1E1E1E1E1E1E1E1E1E1E1E1E1E1E1E1E1E1E1E1E1E1E1E1
310
E1E1E1E1E1E1E1E1E1E1E1E1E1E1E1E1BEE1E1E1E1E128E1E1E1E1E1E1E1E1E1E1E1E1E1E1E1E1E1E1E1E1E1E1E1E1E1E1E1E1E1BEE1E1E1E1E1E1E1E1E1E1E1E1E2E2BEE2E2E1E1E1E1E1E1E1E1E1E1E1E1E1E1E1E1E1E1E1E1E1E1E1E1E1BEE1E1E1E1E1E1E1E1E1E1E1E1E1E1E1E1E1E1E1E1E1E1E1E1E2E2BEE2E2E1E1
310
E1E1BEE1E1E1E1E1E1E1BEE1E1E1E1E1E1E1E1E1E1E1E1E1E1E1E1E1E1E2E1E1E1E1E1E1E1E1E1E1E1E1E1E1E1E1E2E2E1E1E1E1E1E1E1E1E1E1E1E1E1E1E1E1E1E1E1E1E1E1E1E1E1E1E1E1E1E1BEBEBEE1E1E1E1E1E1E1E1E1E1E1E1E1E1E1E1E1E1E1E1E1E1E1E1E1E1E1E1E1E1E1E1E1E1E1E1E1E1E1E1E1E1E1E1E1E1
310
E1E1E1E1E1E1E1E1E1E1E1E1E1E1E1E1E1E1BEE1E1E1E1E128E1E1E1E1E1E1E1E1E1E1E1E1E1E1E1E1E1E1E1E1E1E1E1E1E1E1E1E1E1BEE1E1E1E1E1E1E1E1E1E1E1E1E2E2BEE2E2E1E1E1E1E1E1E1E1E1E1E1E1E1E1E1E1E1E1E1E1E1E1E1E1E1BEE1E1E1E1E1E1E1E1E1E1E1E1E1E1E1E1E1E1E1E1E1E1E1E1E2E2BEE1E2
310
E1E1E1E1BEE1E1E1E1E1E1E1BEE1E1E1E1E1E1E1E1E1E1E1E1E1E1E1E1E1E1E2E1E1E1E1E1E1E1E1E1E1E1E1E1E1E1E1E2E2E1E1E1E1E1E1E1E1E1E1E1E1E1E1E1E1E1E1E1E1E1E1E1E1E1E1E1E1E1E128E1BEE1E1E1E1E1E1E1E1E1E1E1E1E1E1E1E1E1E1E1E1E1E1E1E1E1E1E1E1E1E1E1E1E1E1E1E1E1E1E1E1E1E1E1E1
310
E1E1E1E1E1E1E1E1E1E1E1E1E1E1E1E1E1E1E1E1BEE1E1E1E1E128E1E1E1E1E1E1E1E1E1E1E1E1E1E1E1E1E1E1E1E1E1E1E1E1E1E1E1E1E1BEE1E1E1E1E1E1E1E1E1E1E1E1E2E2BEE2E2E1E1E1E1E1E1E1E1E1E1E1E1E1E1E1E1E1E1E1E1E1E1E1E1E1BEE1E1E1E1E1E1E1E1E1E1E1E1E1E1E1E1E1E1E1E1E1E1E1E1E2E2BE
310
E1E2E1E1E1E1BEE1E1E1E1E1E1E1BEE1E1E1E1E1E1E1E1E1E1E1E1E1E1E1E1E1E1E2E1E1E1E1E1E1E1E1E1E1E1E1E1E1E1E1E2E2E1E1E1E1E1E1E1E1E1E1E1E1E1E1E1E1E1E1E1E1E1E1E1E1E1E1E1E1E1E128E1BEE1E1E1E1E1E1E1E1E1E1E1E1E1E1E1E1E1E1E1E1E1E1E1E1E1E1E1E1E1E1E1E1E1E1E1E1E1E1E1E1E1E1
310
E1E1E1E1E1E1E1E1E1E1E1E1E1E1E1E1E1E1E1E1E1E1BEE1E1E1E1E128E1E1E1E1E1E1E1E1E1E1E1E1E1E1E1E1E1E1E1E1E1E1E1E1E1E1E1E1E1BEE1E1E1E1E1E1E1E1E1E1E1E1E2E2BEE2E2E1E1E1E1E1E1E1E1E1E1E1E1E1E1E1E1E1E1E1E1E1E1E1E1E1BEE1E1E1E1E1E1E1E1E1E1E1E1E1E1E1E1E1E1E1E1E1E1E1E1E2
310
E2BEE1E2E1E10F0F0FE1E1E1E1E1E1E1BEE1E1E1E1E1E1E1E1E1E1E1E1E1E1E1E1E1E1E2E1E1E1E1E1E1E1E1E1E1E1E1E1E1E1E1E2E2E1E1E1E1E1E1E1E1E1E1E1E1E1E1E1E1E1E1E1E1E1E1E1E1E1E1E1E1E1E128E1BEE1E1E1E1E1E1E1E1E1E1E1E1E1E1E1E1E1E1E1E1E1E1E1E1E1E1E1E1E1E1E1E1E1E1E1E1E1E1E1E1
310
E1E1E1E1E1E1E1E1E1E1E1E1E1E1E1E1E1E1E1E1E1E1E1E1BEE1E1E1E1E128E1E1E1E1E1E1E1E1E1E1E1E1E1E1E1E1E1E1E1E1E1E1E1E1E1E1E1E1E1BEBEE1E1E1E1E1E1E1E1E1E1E1E2E2BEE2E2E1BEE1E1E1E1E1E1E1E1E1E1E1E1E1E1E1E1E1E1E1E1E1E1E1BEE1E1E1E1E1E1E1E1E1E1E1E1E1E1E1E1E1E1E1E1E1E1BE
310
E1E2E2BEE1E2E1E10F0FBEE1E1E1E1E1E1E1BEE1E1E1E1E1E1E1E1E1E1E1E1E1E1E1E1E1E1E2E1E1E1E1E1E1E1E1E1E1E1E1E1E1E1E1E2E2E1E1E1E1E1E1E1E1E1E1E1E1E1E1E1E1E1E1E1E1E1E1E1E1E1E1E1E1E1E128E1BEE1E1E1E1E1E1E1E1E1E1E1E1E1E1E1E1E1E1E1E1E1E1E1E1E1E1E1E1E1E1E1E1E1E1E1E1E1E1
310
E1E1E1E1E1E1E1E1E1E1E1E1E1E1E1E1E1E1E1E1E1E1E1E1E1E1BEE1E1E1E1E128E1E1E1E1E1E1E1E1E1E1E1E1E1E1E1E1E1E1E1E1E1E1E1E1E1E1E1E1E1BEBEE1E1E1E1E1E1E1E1E1E1E1E2E2BEE2E20F0FE2E1E1E1E1E1E1E1E1E1E1E1E1E1E1E1E1E1E1E1E1E1E1BEE1E1E1E1E1E1E1E1E1E1E1E1E1E1E1E1E1E1E1E1E1
310
E20F0FE2E2E2E2E2E1E10F0F0FE1E1E1E1E1E1E1BEE1E1E1E1E1E1E1E1E1E1E1E1E1E1E1E2E2E2E2E2E2E2E2E2E2E2E2E2E1E1E1E1E1E1E1E2E2E1E1E1E1E1E1E1E1E1E1E1E1E1E1E1E1E1E1E1E1E1E1E1E1E1E1E1E1E1E128E1BEE1E1E1E1E1E1E1E1E1E1E1E1E1E1E1E1E1E1E1E1E1E1E1E1E1E1E1E1E1E1E1E1E1E1E1E1
310
E1E1E1E1E1E1E1E1E1E1E1E1E1E1E1E1E1E1E1E1E1E1E1E1E1E1E1E1BEE1E1E1E1E128E1E1E1E1E1E1E1E1E1E1E1E1E1E1E1E1E1E1E1E1E1E1E1E1E1E1E1E1E1E2BEBEBEBEBEBEBEBEBEBEBEBEBEBEBEBEE20FE20FE2E1E1E1E1E1E1E1E1E1E1E1E1E1E1E1E1E1E1E1E1E1BEE1E1E1E1E1E1E1E1E1E1E1E1E1E1E1E1E1E1E1
310
E1E2E2BEE2BEBEBEBEBEE1E1E1E1BEE1E1E1E1E1E1E1BEE1E1E1E1E1E1E1E1E1E1E1E1E1E1BEE2BEBEBEBEBEE2E2E2E2E2E2E2E1E1E1E1E1E1E1E2E2E1E1E1E1E1E1E1E1E1E1E1E1E1E1E1E1E1E1E1E1E1E1E1E1E1E1E1E1E1E128E1BEE1E1E1E1E1E1E1E1E1E1E1E1E1E1E1E1E1E1E1E1E1E1E1E1E1E1E1E1E1E1E1E1E1E1
310
E1E1E1E1E1E1E1E1E1E1E1E1E1E1E1E1E1E1E1E1E1E1E1E1E1E1E1E1E1E1BEE1E1E1E1E128E1E1E1E1E1E1E1E1E1E1E1E1E1E1E1E1E1E1E1E1E1E1E1E1E1E1E1E1E1E1E1E1E1E1E1E1E1E1E1E1E1E1E2E2E2E2E2E2E20FE2E2E2E2E2E2E2E2E2E2E2E2E2E2E2E2E2E2E2E2E2E2E2E2E2E2E2E2E2E2E2E2E2E2E2E2E2E2E2E2
310
E2E2E2E2E2E2E2BEE2E2E2E2E1E1E1E1BEE1E1E1E1E1E1E1BEE1E1E1E1E1E1E1E1E1E1E1E1E1E1E1E2E2E2E2BEBEBEBEBEBEBEBEBEBEBEBEBEBEBEBEE2E2E1E1E1E1E1E1E1E1E1E1E1E1E1E1E1E1E1E1E1E1E1E1E1E1E1E1E1E1E1E128E1BEE1E1E1E1E1E1E1E1E1E1E1E1E1E1E1E1E1E1E1E1E1E1E1E1E1E1E1E1E1E1E1E1
310
E1E1E1E1E1E1E1E1E1E1E1E1E1E1E1E1E1E1E1E1E1E1E1E1E1E1E1E1E1E1E1E1BEE1E1E1E1E128E1E1E1E1E1E1E1E1E1E1E1E1E1E1E1E1E1E1E1E1E1E1E1E1E1E1E1E1E1E1E1E1E1E1E1E1E1E1E1E1E1E1E2E2E2E2E2BEBEBEBEBEBEBEBEBEBEBEBEBEBEBEBEBEBEBEBEBEBEBEBEBEBEBEBEBEBEBEBEBEBEBEBEBEBEBEBEBE
310
BEBEBEBEBEBEBEBEBEBEBEBEE2BEBEBEBEBEBEBEBEBEBEBEBEBEE2E1E1E1E1E1E1E1E1E1E1E1E1E1E1E1E1E1BEBEBEBEBEBEBEBEBEBEBEBEBEBEBEBEBEBEBEE2E1E1E1E1E1E1E1E1E1E1E1E1E1E1E1E1E1E1E1E1E1E1E1E1E1E1E1E1E1E128E1BEE1E1E1E1E1E1E1E1E1E1E1E1E1E1E1E1E1E1E1E1E1E1E1E1E1E1E1E1E1E1
310
E1E1E1E1E1E1E1E1E1E1E1E1E1E1E1E1E1E1E1E1E1E1E1E1E1E1E1E1E1E1E1E1E1E1BEE1E1E1E1E128E1E1E1E1E1E1E1E1E1E1E1E1E1E1E1E1E1E1E1E1E1E1E1E1E1E1E1E1E1E1E1E1E1E1E1E1E1E1E1E1E1E1E1E1E1E1E1E1BEE1E1E1E1E1E1E1E1E1E1E1E1E1E1E1E1E1E1E1E1E1E1E1BEE1E1E1E1E1E1E1E1E1E1E1E1E1
310
E1E1E1E1E1E1E1E1E1BEE1E1E1E1BEE1E1E1E1E1E1E1E1E1E1E1E1E1E1E1E1E1E1E1E1E1E1E1E1E1E1E1E1E1E1E1E1E1E1E1E1E1E1E1E1E1E1E1E1E1E1E1E1E1E1E1E1E1E1E1E1E1E1E1E1E1E1E1E1E1E1E1E1E1E1E1E1E1E1E1E1E1E1E1E1E128E1BEE1E1E1E1E1E1E1E1E1E1E1E1E1E1E1E1E1E1E1E1E1E1E1E1E1E1E1E1
310
E1E1E1E1E1E1E1E1E1E1E1E1E1E1E1E1E1E1E1E1E1E1E1E1E1E1E1E1E1E1E1E1E1E1E1E1BEE1E1E1E1E128E1E1E1E1E1E1E1E1E1E1E1E1E1E1E1E1E1E1E1E1E1E1E1E1E1E1E1E1E1E1E1E1E1E1E1E1E1E1E1E1E1E1E1E1E1E1E1E1BEE1E1E1E1E1E1E1E1E1E1E1E1E1E1E1E1E1E1E1E1E1E1E1E1E1E1E1E1E1E1E1E1E1E1E1
310
E1E1E1E1E1E1E1E1E1E1E1BEE1E1E1E1E1BEBEE1E1E1E1E1E1E1E1E1E1E1E1E1E1E1E1E1E1E1E1E1E1E1E1E1E1E1E1E1E1E1E1E1E1E1E1E1E1E1E1E1E1E1E1E1E1E1E1E1E1E1E1E1E1E1E1E1E1E1E1E1E1E1E1E1E1E1E1E1E1E1E1E1E1E1E1E1E1E128E1BEE1E1E1E1E1E1E1E1E1E1E1E1E1E1E1E1E1E1E1E1E1E1E1E1E1E1
310
E1E1E1E1E1E1E1E1E1E1E1E1E1E1E1E1E1E1E1E1E1E1E1E1E1E1E1E1E1E1E1E1E1E1E1E1E1E1BEE1E1E1E1E128E1E1E1E1E1E1E1E1E1E1E1E1E1E1E1E1E1E1E1E1E1E1E1E1E1E1E1E1E1E1E1E1E1E1E1E1E1E1E1E1E1E1E1E1E1E1E1E1BEE1E1E1E1E1E1E1E1E1E1E1E1E1E1E1E1E1E1E1E1E10F0F0F0FE1E1E1E1E1E1E1E1
310
E1E1E1E1E1E1E1E1E1E1E1E1E1BEE1E1E1E1E1E1E1BEBEE1E1E1E1E1E1E1E1E1E1E1E1E1E1E1E1E1E1E1E1E1E1E1E1E1E1E1E1E1E1E1E1E1E1E1E1E1E1E1E1E1E1E1E1E1E1E1E1E1E1E1E1E1E1E1E1E1E1E1E1E1E1E1E1E1E1E1E1E1E1E1E1E1E1E1E1E128E1BEE1E1E1E1E1E1E1E1E1E1E1E1E1E1E1E1E1E1E1E1E1E1E1E1
310
E1E1E1E1E1E1E1E1E1E1E1E1E1E1E1E1E1E1E1E1E1E1E1E1E1E1E1E1E1E1E1E1E1E1E1E1E1E1E1E1BEE1E1E1E1E128E1E1E1E1E1E1E1E1E1E1E1E1E1E1E1E1E1E1E1E1E1E1E1E1E1E1E1E1E1E1E1E1E1E1E1E1E1E1E1E1E1E1E1E1E1E1E1E1BEE1E1E1E1E1E1E1E1E1E1E1E1E1E1E1E1E1E1E1E1E10F0FE10F0FE1E1E1E1E1
310
E1E1E1E1E1E1E1E1E1E1E1E1E1E1E1BEE1E1E1E1E1E1E1E1E1BEBEE1E1E1E1E1E1E1E1E1E1E1E1E1E1E1E1E1E1E1E1E1E1E1E1E1E1E1E1E1E1E1E1E1E1E1E1E1E1E1E1E1E1E1E1E1E1E1E1E1E1E1E1E1E1E1E1E1E1E1E1E1E1E1E1E1E1E1E1E1E1E1E1E1E1E128E1BEE1E1E1E1E1E1E1E1E1E1E1E1E1E1E1E1E1E1E1E1E1E1
310
E1E1E1E1E1E1E1E1E1E1E1E1E1E1E1E1E1E1E1E1E1E1E1E1E1E1E1E1E1E1E1E1E1E1E1E1E1E1E1E1E1E1BEE1E1E1E1E128E1E1E1E1E1E1E1E1E1E1E1E1E1E1E1E1E1E1E1E1E1E1E1E1E1E1E1E1E1E1E1E1E1E1E1E1E1E1E1E1E1E1E1E1E1E1E1E1BEE1E1E1E1E1E1E1E1E1E1E1E1E1E1E1E1E1E1E1E10FE10FE1E10FE1E1E1
310
E1E1E1E1E1E1E1E1E1E1E1E1E1E1E1E1E1BEE1E1E1E1E1E1E1E1E1E1E1BEBEBEBEBEBEBEBEBEBEE1E1E1E1E1E1E1E1E1E1E1E1E1E1E1E1E1E1E1E1E1E1E1E1E1E1E1E1E1E1E1E1E1E1E1E1E1E1E1E1E1E1E1E1E1E1E1E1E1E1E1E1E1E1E1E1E1E1E1E1E1E1E1E1E128E1BEE1E1E1E1E1E1E1E1E1E1E1E1E1E1E1E1E1E1E1E1
310
E1E1E1E1E1E1E1E1E1E1E1E1E1E1E1E1E1E1E1E1E1E1E1E1E1E1E1E1E1E1E1E1E1E1E1E1E1E1E1E1E1E1E1E1BEE1E1E1E1E128E1E1E1E1E1E1E1E1E1E1E1E1E1E1E1E1E1E1E1E1E1E1E1E1E1E1E1E1E1E1E1E1E1E1E1E1E1E1E1E1E1E1E1E1E1E1E1E1BEE1E1E1E1E1E1E1E1E1E1E1E1E1E1E1E1E1E1E1E10F0F0FE1E10FE1
310
E1E1E1E1E1E1E1E1E1E1E1E1E1E1E1E1E1E1E1BEE1E1E1E1E1E1E1E1E1E1E1E10FE1E1E10FE10F0F0FE1E1E1E1E1E1E1E1E1E1E1E1E1E1E1E1E1E1E1E1E1E1E1E1E1E1E1E1E1E1E1E1E1E1E1E1E1E1E1E1E1E1E1E1E1E1E1E1E1E1E1E1E1E1E1E1E1E1E1E1E1E1E1E1E128E1BEE1E1E1E1E1E1E1E1E1E1E1E1E1E1E1E1E1E1
310
E1E1E1E1E1E1E1E1E1E1E1E1E1E1E1E1E1E1E1E1E1E1E1E1E1E1E1E1E1E1E1E1E1E1E1E1E1E1E1E1E1E1E1E1E1E1BEE1E1E1E1E128E1E1E1E1E1E1E1E1E1E1E1E1E1E1E1E1E1E1E1E1E1E1E1E1E1E1E1E1E1E1E1E1E1E1E1E1E1E1E1E1E1E1E1E1E1E1E1E1BEE1E1E1E1E1E1E1E1E1E1E1E1E1E1E1E1E1E1E1E1E10F0F0F0F
310
E1E1E1E1E1E1E1E1E1E1E1E1E1E1E1E1E1E1E1E1E1BEE1E1E1E1E1E1E1E1E1E1E10F0F0F0F0F0FE10FE10FE1E1E1E1E1E1E1E1E1E1E1E1E1E1E1E1E1E1E1E1E1E1E1E1E1E1E1E1E1E1E1E1E1E1E1E1E1E1E1E1E1E1E1E1E1E1E1E1E1E1E1E1E1E1E1E1E1E1E1E1E1E1E1E1E128E1BEE1E1E1E1E1E1E1E1E1E1E1E1E1E1E1E1
310
E1E1E1E1E1E1E1E1E1E1E1E1E1E1E1E1E1E1E1E1E1E1E1E1E1E1E1E1E1E1E1E1E1E1E1E1E1E1E1E1E1E1E1E1E1E1E1E1BEE1E1E1E1E128E1E1E1E1E1E1E1E1E1E1E1E1E1E1E1E1E1E1E1E1E1E1E1E1E1E1E1E1E1E1E1E1E1E1E1E1E1E1E1E1E1E1E1E1E1E1E1E1BEE1E1E1E1E1E1E1E1E1E1E1E1E1E1E1E1E1E1E1E1E1E1E1
310
E1E1E1E1E1E1E1E1E1E1E1E1E1E1E1E1E1E1E1E1E1E1E1BEE1E1E1E1E1E1E1E1E1E1E1E10F0F0F0FE1E1E10F0FE1E1E1E1E1E1E1E1E1E1E1E1E1E1E1E1E1E1E1E1E1E1E1E1E1E1E1E1E1E1E1E1E1E1E1E1E1E1E1E1E1E1E1E1E1E1E1E1E1E1E1E1E1E1E1E1E1E1E1E1E1E1E1E1E128E1BEE1E1E1E1E1E1E1E1E1E1E1E1E1E1
310
E1E1E1E1E1E1E1E1E1E1E1E1E1E1E1E1E1E1E1E1E1E1E1E1E1E1E1E1E1E1E1E1E1E1E1E1E1E1E1E1E1E1E1E1E1E1E1E1E1E1BEE1E1E1E1E128E1E1E1E1E1E1E1E1E1E1E1E1E1E1E1E1E1E1E1E1E1E1E1E1E1E1E1E1E1E1E1E1E1E1E1E1E1E1E1E1E1E1E1E1E1E1E1E1BEBEBEBEBEBEBEBEBEBEBEBEBEBEBEBEBEBEBEBEBEBE
310
BEBEBEBEBEBEBEBEBEBEBEBEBEBEBEBEBEBEBEBEBEBEBEBEBEE2E1E1E1E1E1E1E1E1E1E1E1E1E1E1E1E1E1E1E1E1E1E1E1E1E1E1E1E1E1E1E1E1E1E1E1E1E1E1E1E1E1E1E1E1E1E1E1E1E1E1E1E1E1E1E1E1E1E1E1E1E1E1E1E1E1E1E1E1E1E1E1E1E1E1E1E1E1E1E1E1E1E1E1E1E1E128E1BEE1E1E1E1E1E1E1E1E1E1E1E1
310
E1E1E1E1E1E1E1E1E1E1E1E1E1E1E1E1E1E1E1E1E1E1E1E1E1E1E1E1E1E1E1E1E1E1E1E1E1E1E1E1E1E1E1E1E1E1E1E1E1E1E1E1BEE1E1E1E1E128E1E1E1E1E1E1E1E1E1E1E1E1E1E1E1E1E1E1E1E1E1E1E1E1E1E1E1E1E1E1E1E1E1E1E1E1E1E1E1E1E1E1E1E1E1E1E1E1BEE1E1E1E1E1E1E1E1E1E1E1E1E1E1E1E1E1E1E1
310
E1E10F0FE10FE1E1E1E1E1E1E1E1E1E1E1E1E1E1E1E1E1E1E1E1E1BEE1E1E1E1E1E1E1E1E1E1E1E1E1E1E1E1E1E1E1E1E1E1E1E1E1E1E1E1E1E1E1E1E1E1E1E1E1E1E1E1E1E1E1E1E1E1E1E1E1E1E1E1E1E1E1E1E1E1E1E1E1E1E1E1E1E1E1E1E1E1E1E1E1E1E1E1E1E1E1E1E1E1E1E1E1E128E1BEE1E1E1E1E1E1E1E1E1E1
310
E1E1E1E1E1E1E1E1E1E1E1E1E1E1E1E1E1E1E1E1E1E1E1E1E1E1E1E1E1E1E1E1E1E1E1E1E1E1E1E1E1E1E1E1E1E1E1E1E1E1E1E1E1E1BEE1E1E1E1E128E1E1E1E1E1E1E1E1E1E1E1E1E1E1E1E1E1E1E1E1E1E1E1E1E1E1E1E1E1E1E1E1E1E1E1E1E1E1E1E1E1E1E1E1E1E1E1E1E1E1E1E1E1E1E1E1E1E1E1E1E1E1E1E1E1E1
310
E1E1E1E10FE10F0FE1E1E1E1E1E1E1E1E1E1E1E1E1E1E1E1E1E1E1E1E1E1E1E1E1E1E1E1E1E1E1E1E1E1E1E1E1E1E1E1E1E1E1E1E1E1E1E1E1E1E1E1E1E1E1E1E1E1E1E1E1E1E1E1E1E1E1E1E1E1E1E1E1E1E1E1E1E1E1E1E1E1E1E1E1E1E1E1E1E1E1E1E1E1E1E1E1E1E1E1E1E1E1E1E1E1E1E128E1BEE1E1E1E1E1E1E1E1
310
E1E1E1E1E1E1E1E1E1E1E1E1E1E1E1E1E1E1E1E1E1E1E1E1E1E1E1E1E1E1E1E1E1E1E1E1E1E1E1E1E1E1E1E1E1E1E1E1E1E1E1E1E1E1E1E1BEE1E1E1E1E128E1E1E1E1E1E1E1E1E1E1E1E1E1E1E1E1E1E1E1E1E1E1E1E1E1E1E1E1E1E1E1E1E1E1E1E1E1E1E1E1E1E1E1E1E1E1E1E1E1E1E1E1E1E1E1E1E1E1E1E1E1E1E1E1
310
E1E1E1E1E1E10FE1E10FE1E1E1E1E1E1E1E1E1E1E1E1E1E1E1E1E1E1E1E1E1E1E1E1E1E1E1E1E1E1E1E1E1E1E1E1E1E1E1E1E1E1E1E1E1E1E1E1E1E1E1E1E1E1E1E1E1E1E1E1E1E1E1E1E1E1E1E1E1E1E1E1E1E1E1E1E1E1E1E1E1E1E1E1E1E1E1E1E1E1E1E1E1E1E1E1E1E1E1E1E1E1E1E1E1E1E1E128E1BEE1E1E1E1E1E1
310
E1E1E1E1E1E1E1E1E1E1E1E1E1E1E1E1E1E1E1E1E1E1E1E1E1E1E1E1E1E1E1E1E1E1E1E1E1E1E1E1E1E1E1E1E1E1E1E1E1E1E1E1E1E1E1E1E1E1BEE1E1E1E1E128E1E1E1E1E1E1E1E1E1E1E1E1E1E1E1E1E1E1E1E1E1E1E1E1E1E1E1E1E1E1E1E1E1E1E1E1E1E1E1E1E1E1E1E1E1E1E1E1E1E1E1E1E1E1E1E1E1E1E1E1E1E1
310
E1E1E1E1E1E1E1E1E1E1E1E1E1E1E1E1E1E1E1E1E1E1E1E1E1E1E1E1E1E1E1E1E1E1E1E1E1E1E1E1E1E1E1E1E1E1E1E1E1E1E1E1E1E1E1E1E1E1E1E1E1E1E1E1E1E1E1E1E1E1E1E1E1E1E1E1E1E1E1E1E1E1E1E1E1E1E1E1E1E1E1E1E1E1E1E1E1E1E1E1E1E1E1E1E1E1E1E1E1E1E1E1E1E1E1E1E1E1E1E128E1BEE1E1E1E1
310
E1E1E1E1E1E1E1E1E1E1E1E1E1E1E1E1E1E1E1E1E1E1E1E1E1E1E1E1E1E1E1E1E1E1E1E1E1E1E1E1E1E1E1E1E1E1E1E1E1E1E1E1E1E1E1E1E1E1E1E1BEE1E1E1E1E128E1E1E1E1E1E1E1E1E1E1E1E1E1E1E1E1E1E1E1E1E1E1E1E1E1E1E1E1E1E1E1E1E1E1E1E1E1E1E1E1E1E1E1E1E1E1E1E1E1E1E1E1E1E1E1E1E1E1E1E1
310
E1E1E1E1E1E1E1E1E1E1E1E1E1E1E1E1E1E1E1E1E1E1E1E1E1E1E1E1E1E1E1E1E1E1E1E1E1E1E1E1E1E1E1E1E1E1E1E1E1E1E1E1E1E1E1E1E1E1E1E1E1E1E1E1E1E1E1E1E1E1E1E1E1E1E1E1E1E1E1E1E1E1E1E1E1E1E1E1E1E1E1E1E1E1E1E1E1E1E1E1E1E1E1E1E1E1E1E1E1E1E1E1E1E1E1E1E1E1E1E1E1E128E1BEE1E1
310
E1E1E1E1E1E1E1E1E1E1E1E1E1E1E1E1E1E1E1E1E1E1E1E1E1E1E1E1E1E1E1E1E1E1E1E1E1E1E1E1E1E1E1E1E1E1E1E1E1E1E1E1E1E1E1E1E1E1E1E1E1E1BEE1E1E1E1E128E1E1E1E1E1E1E1E1E1E1E1E1E1E1E1E1E1E1E1E1E1E1E1E1E1E1E1E1E1E1E1E1E1E1E1E1E1E1E1E1E1E1E1E1E1E1E1E1E1E1E1E1E1E1E1E1E1E1
310
E1E1E1E1E1E1E1E1E1E1E1E1E1E1E1E1E1E1E1E1E1E1E1E1E1E1E1E1E1E1E1E1E1E1E1E1E1E1E1E1E1E1E1E1E1E1E1E1E1E1E1E1E1E1E1E1E1E1E1E1E1E1E1E1E1E1E1E1E1E1E1E1E1E1E1E1E1E1E1E1E1E1E1E1E1E1E1E1E1E1E1E1E1E1E1E1E1E1E1E1E1E1E1E1E1E1E1E1E1E1E1E1E1E1E1E1E1E1E1E1E1E1E1E128E1BE
310
E1E1E1E1E1E1E1E1E1E1E1E1E1E1E1E1E1E1E1E1E1E1E1E1E1E1E1E1E1E1E1E1E1E1E1E1E1E1E1E1E1E1E1E1E1E1E1E1E1E1E1E1E1E1E1E1E1E1E1E1E1E1E1E1BEE1E1E1E1E128E1E1E1E1E1E1E1E1E1E1E1E1E1E1E1E1E1E1E1E1E1E1E1E1E1E1E1E1E1E1E1E1E1E1E1E1E1E1E1E1E1E1E1E1E1E1E1E1E1E1E1E1E1E1E1E1
310
E1E1E1E1E1E1E1E1E1E1E1E1E1E1E1E1E1E1E1E1E1E1E1E1E1E1E1E1E1E1E1E1E1E1E1E1E1E1E1E1E1E1E1E1E1E1E1E1E1E1E1E1E1E1E1E1E1E1E1E1E1E1E1E1E1E1E1E1E1E1E1E1E1E1E1E1E1E1E1E1E1E1E1E1E1E1E1E1E1E1E1E1E1E1E1E1E1E1E1E1E1E1E1E1E1E1E1E1E1E1E1E1E1E1E1E1E1E1E1E1E1E1E1E1E1E128
310
E1BEE1E1E1E1E1E1E1E1E1E1E1E1E1E1E1E1E1E1E1E1E1E1E1E1E1E1E1E1E1E1E1E1E1E1E1E1E1E1E1E1E1E1E1E1E1E1E1E1E1E1E1E1E1E1E1E1E1E1E1E1E1E1E1E1BEE1E1E1E1E128E1E1E1E1E1E1E1E1E1E1E1E1E1E1E1E1E1E1E1E1E1E1E1E1E1E1E1E1E1E1E1E1E1E1E1E1E1E1E1E1E1E1E1E1E1E1E1E1E1E1E1E1E1E1
310
E1E1E1E1E1E1E1E1E1E1E1E1E1E1E1E1E1E1E1E1E1E1E1E1E1E1E1E1E1E1E1E1E1E1E1E1E1E1E1E1E1E1E1E1E1E1E1E1E1E1E1E1E1E1E1E1E1E1E1E1E1E1E1E1E1E1E1E1E1E1E1E1E1E1E1E1E1E1E1E1E1E1E1E1E1E1E1E1E1E1E1E1E1E1E1E1E1E1E1E1E1E1E1E1E1E1E1E1E1E1E1E1E1E1E1E1E1E1E1E1E1E1E1E1E1E1E1
310
E128E1BEE1E1E1E1E1E1E1E1E1E1E1E1E1E1E1E1E1E1E1E1E1E1E1E1E1E1E1E1E1E1E1E1E1E1E1E1E1E1E1E1E1E1E1E1E1E1E1E1E1E1E1E1E1E1E1E1E1E1E1E1E1E1E1E1BEE1E1E1E1E128E1E1E1E1E1E1E1E1E1E1E1E1E1E1E1E1E1E1E1E1E1E1E1E1E1E1E1E1E1E1E1E1E1E1E1E1E1E1E1E1E1E1E1E1E1E1E1E1E1E1E1E1
310
E1E1E1E1E1E1E1E1E1E1E1E1E1E1E1E1E1E1E1E1E1E1E1E1E1E1E1E1E1E1E1E1E1E1E1E1E1E1E1E1E1E1E1E1E1E1E1E1E1E1E1E1E1E1E1E1E1E1E1E1E1E1E1E1E1E1E1E1E1E1E1E1E1E1E1E1E1E1E1E1E1E1E1E1E1E1E1E1E1E1E1E1E1E1E1E1E1E1E1E1E1E1E1E1E1E1E1E1E1E1E1E1E1E1E1E1E1E1E1E1E1E1E1E1E1E1E1
310
E1E1E128E1BEE1E1E1E1E1E1E1E1E1E1E1E1E1E1E1E1E1E1E1E1E1E1E1E1E1E1E1E1E1E1E1E1E1E1E1E1E1E1E1E1E1E1E1E1E1E1E1E1E1E1E1E1E1E1E1E1E1E1E1E1E1E1E1E1BEE1E1E1E1E128E1E1E1E1E1E1E1E1E1E1E1E1E1E1E1E1E1E1E1E1E1E1E1E1E1E1E1E1E1E1E1E1E1E1E1E1E1E1E1E1E1E1E1E1E1E1E1E1E1E1
310
E1E1E1E1E1E1E1E1E1E1E1E1E1E1E1E1E1E1E1E1E1E1E1E1E1E1E1E1E1E1E1E1E1E1E1E1E1E1E1E1E1E1E1E1E1E1E1E1E1E1E1E1E1E1E1E1E1E1E1E1E1E1E1E1E1E1E1E1E1E1E1E1E1E1E1E1E1E1E1E1E1E1E1E1E1E1E1E1E1E1E1E1E1E1E1E1E1E1E1E1E1E1E1E1E1E1E1E1E1E1E1E1E1E1E1E1E1E1E1E1E1E1E1E1E1E1E1
310
E1E1E1E1E128E1BEE1E1E1E1E1E1E1E1E1E1E1E1E1E1E1E1E1E1E1E1E1E1E1E1E1E1E1E1E1E1E1E1E1E1E1E1E1E1E1E1E1E1E1E1E1E1E1E1E1E1E1E1E1E1E1E1E1E1E1E1E1E1E1E1BEE1E1E1E1E128E1E1E1E1E1E1E1E1E1E1E1E1E1E1E1E1E1E1E1E1E1E1E1E1E1E1E1E1E1E1E1E1E1E1E1E1E1E1E1E1E1E1E1E1E1E1E1E1
310
E1E1E1E1E1E1E1E1E1E1E1E1E1E1E1E1E1E1E1E1E1E1E1E1E1E1E1E1E1E1E1E1E1E1E1E1E1E1E1E1E1E1E1E1E1E1E1E1E1E1E1E1E1E1E1E1E1E1E1E1E1E1E1E1E1E1E1E1E1E1E1E1E1E1E1E1E1E1E1E1E1E1E1E1E1E1E1E1E1E1E1E1E1E1E1E1E1E1E1E1E1E1E1E1E1E1E1E1E1E1E1E1E1E1E1E1E1E1E1E1E1E1E1E1E1E1E1
310
E1E1E1E1E1E1E128E1BEE1E1E1E1E1E1E1E1E1E1E1E1E1E1E1E1E1E1E1E1E1E1E1E1E1E1E1E1E1E1E1E1E1E1E1E1E1E1E1E1E1E1E1E1E1E1E1E1E1E1E1E1E1E1E1E1E1E1E1E1E1E1E1E1BEE1E1E1E1E128E1E1E1E1E1E1E1E1E1E1E1E1E1E1E1E1E1E1E1E1E1E1E1E1E1E1E1E1E1E1E1E1E1E1E1E1E1E1E1E1E1E1E1E1E1E1
310
E1E1E1E1E1E1E1E1E1E1E1E1E1E1E1E1E1E1E1E1E1E1E1E1E1E1E1E1E1E1E1E1E1E1E1E1E1E1E1E1E1E1E1E1E1E1E1E1E1E1E1E1E1E1E1E1E1E1E1E1E1E1E1E1E1E1E1E1E1E1E1E1E1E1E1E1E1E1E1E1E1E1E1E1E1E1E1E1E1E1E1E1E1E1E1E1E1E1E1E1E1E1E1E1E1E1E1E1E1E1E1E1E1E1E1E1E1E1E1E1E1E1E1E1E1E1E1
310
E1E1E1E1E1E1E1E1E128E1BEE1E1E1E1E1E1E1E1E1E1E1E1E1E1E1E1E1E1E1E1E1E1E1E1E1E1E1E1E1E1E1E1E1E1E1E1E1E1E1E1E1E1E1E1E1E1E1E1E1E1E1E1E1E1E1E1E1E1E1E1E1E1E1E1BEE1E1E1E1E128E1E1E1E1E1E1E1E1E1E1E1E1E1E1E1E1E1E1E1E1E1E1E1E1E1E1E1E1E1E1E1E1E1E1E1E1E1E1E1E1E1E1E1E1
310
E1E1E1E1E1E1E1E1E1E1E1E1E1E1E1E1E1E1E1E1E1E1E1E1E1E1E1E1E1E1E1E1E1E1E1E1E1E1E1E1E1E1E1E1E1E1E1E1E1E1E1E1E1E1E1E1E1E1E1E1E1E1E1E1E1E1E1E1E1E1E1E1E1E1E1E1E1E1E1E1E1E1E1E1E1E1E1E1E1E1E1E1E1E1E1E1E1E1E1E1E1E1E1E1E1E1E1E1E1E1E1E1E1E1E1E1E1E1E1E1E1E1E1E1E1E1E1
310
E1E1E1E1E1E1E1E1E1E1E128E1BEE1E1E1E1E1E1E1E1E1E1E1E1E1E1E1E1E1E1E1E1E1E1E1E1E1E1E1E1E1E1E1E1E1E1E1E1E1E1E1E1E1E1E1E1E1E1E1E1E1E1E1E1E1E1E1E1E1E1E1E1E1E1E1E1BEE1E1E1E1E128E1E1E1E1E1E1E1E1E1E1E1E1E1E1E1E1E1E1E1E1E1E1E1E1E1E1E1E1E1E1E1E1E1E1E1E1E1E1E1E1E1E1
310
E1E1E1E1E1E1E1E1E1E1E1E1E1E1E1E1E1E1E1E1E1E1E1E1E1E1E1E1E1E1E1E1E1E1E1E1E1E1E1E1E1E1E1E1E1E1E1E1E1E1E1E1E1E1E1E1E1E1E1E1E1E1E1E1E1E1E1E1E1E1E1E1E1E1E1E1E1E1E1E1E1E1E1E1E1E1E1E1E1E1E1E1E1E1E1E1E1E1E1E1E1E1E1E1E1E1E1E1E1E1E1E1E1E1E1E1E1E1E1E1E1E1E1E1E1E1E1
310
E1E1E1E1E1E1E1E1E1E1E1E1E128E1BEE1E1E1E1E1E1E1E1E1E1E1E1E1E1E1E1E1E1E1E1E1E1E1E1E1E1E1E1E1E1E1E1E1E1E1E1E1E1E1E1E1E1E1E1E1E1E1E1E1E1E1E1E1E1E1E1E1E1E1E1E1E1E1E1BEE1E1E1E1E128E1E1E1E1E1E1E1E1E1E1E1E1E1E1E1E1E1E1E1E1E1E1E1E1E1E1E1E1E1E1E1E1E1E1E1E1E1E1E1E1
310
E1E1E1E1E1E1E1E1E1E1E1E1E1E1E1E1E1E1E1E1E1E1E1E1E1E1E1E1E1E1E1E1E1E1E1E1E1E1E1E1E1E1E1E1E1E1E1E1E1E1E1E1E1E1E1E1E1E1E1E1E1E1E1E1E1E1E1E1E1E1E1E1E1E1E1E1E1E1E1E1E1E1E1E1E1E1E1E1E1E1E1E1E1E1E1E1E1E1E1E1E1E1E1E1E1E1E1E1E1E1E1E1E1E1E1E1E1E1E1E1E1E1E1E1E1E1E1
310
E1E1E1E1E1E1E1E1E1E1E1E1E1E1E128E1BEE1E1E1E1E1E1E1E1E1E1E1E1E1E1E1E1E1E1E1E1E1E1E1E1E1E1E1E1E1E1E1E1E1E1E1E1E1E1E1E1E1E1E1E1E1E1E1E1E1E1E1E1E1E1E1E1E1E1E1E1E1E1E1E1BEE1E1E1E1E128E1E1E1E1E1E1E1E1E1E1E1E1E1E1E1E1E1E1E1E1E1E1E1E1E1E1E1E1E1E1E1E1E1E1E1E1E1E1
310
E1E1E1E1E1E1E1E1E1E1E1E1E1E1E1E1E1E1E1E1E1E1E1E1E1E1E1E1E1E1E1E1E1E1E1E1E1E1E1E1E1E1E1E1E1E1E1E1E1E1E1E1E1E1E1E1E1E1E1E1E1E1E1E1E1E1E1E1E1E1E1E1E1E1E1E1E1E1E1E1E1E1E1E1E1E1E1E1E1E1E1E1E1E1E1E1E1E1E1E1E1E1E1E1E1E1E1E1E1E1E1E1E1E1E1E1E1E1E1E1E1E1E1E1E1E1E1
310
E1E1E1E1E1E1E1E1E1E1E1E1E1E1E1E1E128E1BEE1E1E1E1E1E1E1E1E1E1E1E1E1E1E1E1E1E1E1E1E1E1E1E1E1E1E1E1E1E1E1E1E1E1E1E1E1E1E1E1E1E1E1E1E1E1E1E1E1E1E1E1E1E1E1E1E1E1E1E1E1E1E1E1BEE1E1E1E1E128E1E1E1E1E1E1E1E1E1E1E1E1E1E1E1E1E1E1E1E1E1E1E1E1E1E1E1E1E1E1E1E1E1E1E1E1
310
E1E1E1E1E1E1E1E1E1E1E1E1E1E1E1E1E1E1E1E1E1E1E1E1E1E1E1E1E1E1E1E1E1E1E1E1E1E1E1E1E1E1E1E1E1E1E1E1E1E1E1E1E1E1E1E1E1E1E1E1E1E1E1E1E1E1E1E1E1E1E1E1E1E1E1E1E1E1E1E1E1E1E1E1E1E1E1E1E1E1E1E1E1E1E1E1E1E1E1E1E1E1E1E1E1E1E1E1E1E1E1E1E1E1E1E1E1E1E1E1E1E1E1E1E1E1E1
310
E1E1E1E1E1E1E1E1E1E1E1E1E1E1E1E1E1E1E128E1BEE1E1E1E1E1E1E1E1E1E1E1E1E1E1E1E1E1E1E1E1E1E1E1E1E1E1E1E1E1E1E1E1E1E1E1E1E1E1E1E1E1E1E1E1E1E1E1E1E1E1E1E1E1E1E1E1E1E1E1E1E1E1E1E1BEE1E1E1E1E128E1E1E1E1E1E1E1E1E1E1E1E1E1E1E1E1E1E1E1E1E1E1E1E1E1E1E1E1E1E1E1E1E1E1
310
E1E1E1E1E1E1E1E1E1E1E1E1E1E1E1E1E1E1E1E1E1E1E1E1E1E1E1E1E1E1E1E1E1E1E1E1E1E1E1E1E1E1E1E1E1E1E1E1E1E1E1E1E1E1E1E1E1E1E1E1E1E1E1E1E1E1E1E1E1E1E1E1E1E1E1E1E1E1E1E1E1E1E1E1E1E1E1E1E1E1E1E1E1E1E1E1E1E1E1E1E1E1E1E1E1E1E1E1E1E1E1E1E1E1E1E1E1E1E1E1E1E1E1E1E1E1E1
310
E1E1E1E1E1E1E1E1E1E1E1E1E1E1E1E1E1E1E1E1E128E1BEE1E1E1E1E1E1E1E1E1E1E1E1E1E1E1E1E1E1E1E1E1E1E1E1E1E1E1E1E1E1E1E1E1E1E1E1E1E1E1E1E1E1E1E1E1E1E1E1E1E1E1E1E1E1E1E1E1E1E1E1E1E1E1E1BEE1E1E1E1E128E1E1E1E1E1E1E1E1E1E1E1E1E1E1E1E1E1E1E1E1E1E1E1E1E1E1E1E1E1E1E1E1
310
E1E1E1E1E1E1E1E1E1E1E1E1E1E1E1E1E1E1E1E1E1E1E1E1E1E1E1E1E1E1E1E1E1E1E1E1E1E1E1E1E1E1E1E1E1E1E1E1E1E1E1E1E1E1E1E1E1E1E1E1E1E1E1E1E1E1E1E1E1E1E1E1E1E1E1E1E1E1E1E1E1E1E1E1E1E1E1E1E1E1E1E1E1E1E1E1E1E1E1E1E1E1E1E1E1E1E1E1E1E1E1E1E1E1E1E1E1E1E1E1E1E1E1E1E1E1E1
310
E1E1E1E1E1E1E1E1E1E1E1E1E1E1E1E1E1E1E1E1E1E1E128E1BEE1E1E1E1E1E1E1E1E1E1E1E1E1E1E1E1E1E1E1E1E1E1E1E1E1E1E1E1E1E1E1E1E1E1E1E1E1E1E1E1E1E1E1E1E1E1E1E1E1E1E1E1E1E1E1E1E1E1E1E1E1E1E1E1BEE1E1E1E1E128E1E1E1E1E1E1E1E1E1E1E1E1E1E1E1E1E1E1E1E1E1E1E1E1E1E1E1E1E1E1
310
E1E1E1E1E1E1E1E1E1E1E1E1E1E1E1E1E1E1E1E1E1E1E1E1E1E1E1E1E1E1E1E1E1E1E1E1E1E1E1E1E1E1E1E1E1E1E1E1E1E1E1E1E1E1E1E1E1E1E1E1E1E1E1E1E1E1E1E1E1E1E1E1E1E1E1E1E1E1E1E1E1E1E1E1E1E1E1E1E1E1E1E1E1E1E1E1E1E1E1E1E1E1E1E1E1E1E1E1E1E1E1E1E1E1E1E1E1E1E1E1E1E1E1E1E1E1E1
310
E1E1E1E1E1E1E1E1E1E1E1E1E1E1E1E1E1E1E1E1E1E1E1E1E128E1BEE1E1E1E1E1E1E1E1E1E1E1E1E1E1E1E1E1E1E1E1E1E1E1E1E1E1E1E1E1E1E1E1E1E1E1E1E1E1E1E1E1E1E1E1E1E1E1E1E1E1E1E1E1E1E1E1E1E1E1E1E1E1E1E1BEE1E1E1E1E12828282828282828282828282828282828282828282828282828282828
310
2828BE282828282828282828282828282828282828282828282828282828282828BE28282828282828282828282828282828282828282828282828282828282828282828282828282828282828282828282828282828282828282828282828BE28282828282828282828282828282828282828282828282828282828282828
310
28282828282828282828282828282828282828282828282828282828E1BEE1E1E1E1E1E1E1E1E1E1E1E1E1E1E1E1E1E1E1E1E1E1E1E1E1E1E1E1E1E1E1E1E1E1E1E1E1E1E1E1E1E1E1E1E1E1E1E1E1E1E1E1E1E1E1E1E1E1E1E1E1E1E1E1BEE1E1E1E1E1E1E1E1E1E1E1E1E1E1E1E1E1E1E1E1E1E1E1E1E1E1E1E1E1E1E1E1
310
E1E1E1E1BEE1E1E1E1E1E1E1E1E1E1E1E1E1E1E1E1E1E1E1E1E1E1E1E1E1E1E1E1E1E1BEE1E1E1E1E1E1E1E1E1E1E1E1E1E1E1E1E1E1E1E1E1E1E1E1E1E1E1E1E1E1E1E1E1E1E1E1E1E1E1E1E1E1E1E1E1E1E1E1E1E1E1E1E1E1E1E1E1E1E1E1E1BEE1E1E1E1E1E1E1E1E1E1E1E1E1E1E1E1E1E1E1E1E1E1E1E1E1E1E1E1E1
310
E1E1E1E1E1E1E1E1E1E1E1E1E1E1E1E1E1E1E1E1E1E1E1E1E1E1E1E1E1E1E1BEE1E1E1E1E1E1E1E1E1E1E1E1E1E1E1E1E1E1E1E1E1E1E1E1E1E1E1E1E1E1E1E1E1E1E1E1E1E1E1E1E1E1E1E1E1E1E1E1E1E1E1E1E1E1E1E1E1E1E1E1E1E1E1E1BEBEBEBEBEBEBEBEBEBEBEBEBEBEBEBEBEBEBEBEBEBEBEBEBEBEBEBEBEBEBE
310
BEBEBEBEBEBEBEBEBEBEBEBEBEBEBEBEBEBEBEBEBEBEBEBEBEBEBEBEBEBEBEBEBEBEBEBEBEBEBEBEBEBEBEBEBEBEBEBEBEBEBEBEBEBEBEBEBEBEBEBEBEBEBEBEBEBEBEBEBEBEBEBEBEBEBEBEBEBEBEBEBEBEBEBEBEBEBEBEBEBEBEBEBEBEBEBEBEBEBEBEBEBEBEBEBEBEBEBEBEBEBEBEBEBEBEBEBEBEBEBEBEBEBEBEBEBEBE
310
BEBEBEBEBEBEBEBEBEBEBEBEBEBEBEBEBEBEBEBEBEBEBEBEBEBEBEBEBEBEBEBEBEBEE1E1E1E1E1E1E1E1E1E1E1E1E1E1E1E1E1E1E1E1E1E1E1E1E1E1E1E1E1E1E1E1
  0
XRECORD
  5
F09
102
{ACAD_REACTORS
330
DB9
102
}
330
DB9
100
AcDbXrecord
280
     1
102
MATERIAL
148
0.0
149
0.0
149
0.0
 93
        0
 94
      127
282
     0
 72
     0
 77
     0
171
     0
175
     0
179
     0
273
     0
  0
XRECORD
  5
DBB
102
{ACAD_REACTORS
330
DB9
102
}
330
DB9
100
AcDbXrecord
280
     1
270
     1
271
     1
  0
XRECORD
  5
DBA
102
{ACAD_REACTORS
330
DB9
102
}
330
DB9
100
AcDbXrecord
280
     1
270
     1
271
     1
  0
XRECORD
  5
DBE
102
{ACAD_REACTORS
330
DB9
102
}
330
DB9
100
AcDbXrecord
280
     1
270
     1
271
     1
  0
XRECORD
  5
DBD
102
{ACAD_REACTORS
330
DB9
102
}
330
DB9
100
AcDbXrecord
280
     1
270
     1
271
     1
  0
XRECORD
  5
DBF
102
{ACAD_REACTORS
330
DB9
102
}
330
DB9
100
AcDbXrecord
280
     1
270
     1
271
     1
  0
XRECORD
  5
DBC
102
{ACAD_REACTORS
330
DB9
102
}
330
DB9
100
AcDbXrecord
280
     1
270
     1
271
     1
  0
XRECORD
  5
F08
102
{ACAD_REACTORS
330
DB1
102
}
330
DB1
100
AcDbXrecord
280
     1
102
MATERIAL
148
0.0
149
0.0
149
0.0
 93
        0
 94
      127
282
     0
 72
     0
 77
     0
171
     0
175
     0
179
     0
273
     0
  0
XRECORD
  5
DB3
102
{ACAD_REACTORS
330
DB1
102
}
330
DB1
100
AcDbXrecord
280
     1
270
     1
271
     1
  0
XRECORD
  5
DB2
102
{ACAD_REACTORS
330
DB1
102
}
330
DB1
100
AcDbXrecord
280
     1
270
     1
271
     1
  0
XRECORD
  5
DB6
102
{ACAD_REACTORS
330
DB1
102
}
330
DB1
100
AcDbXrecord
280
     1
270
     1
271
     1
  0
XRECORD
  5
DB5
102
{ACAD_REACTORS
330
DB1
102
}
330
DB1
100
AcDbXrecord
280
     1
270
     1
271
     1
  0
XRECORD
  5
DB7
102
{ACAD_REACTORS
330
DB1
102
}
330
DB1
100
AcDbXrecord
280
     1
270
     1
271
     1
  0
XRECORD
  5
DB4
102
{ACAD_REACTORS
330
DB1
102
}
330
DB1
100
AcDbXrecord
280
     1
270
     1
271
     1
  0
XRECORD
  5
F0A
102
{ACAD_REACTORS
330
DC1
102
}
330
DC1
100
AcDbXrecord
280
     1
102
MATERIAL
148
0.0
149
0.0
149
0.0
 93
        0
 94
      127
282
     0
 72
     0
 77
     0
171
     0
175
     0
179
     0
273
     0
  0
XRECORD
  5
DC3
102
{ACAD_REACTORS
330
DC1
102
}
330
DC1
100
AcDbXrecord
280
     1
270
     1
271
     1
  0
XRECORD
  5
DC2
102
{ACAD_REACTORS
330
DC1
102
}
330
DC1
100
AcDbXrecord
280
     1
270
     1
271
     1
  0
XRECORD
  5
DC6
102
{ACAD_REACTORS
330
DC1
102
}
330
DC1
100
AcDbXrecord
280
     1
270
     1
271
     1
  0
XRECORD
  5
DC5
102
{ACAD_REACTORS
330
DC1
102
}
330
DC1
100
AcDbXrecord
280
     1
270
     1
271
     1
  0
XRECORD
  5
DC7
102
{ACAD_REACTORS
330
DC1
102
}
330
DC1
100
AcDbXrecord
280
     1
270
     1
271
     1
  0
XRECORD
  5
DC4
102
{ACAD_REACTORS
330
DC1
102
}
330
DC1
100
AcDbXrecord
280
     1
270
     1
271
     1
  0
CELLSTYLEMAP
  5
F03
102
{ACAD_REACTORS
330
F02
102
}
330
F02
100
AcDbCellStyleMap
 90
        3
300
CELLSTYLE
  1
TABLEFORMAT_BEGIN
 90
        5
170
     1
 91
        0
 92
    32768
 62
   257
 93
        1
300
CONTENTFORMAT
  1
CONTENTFORMAT_BEGIN
 90
        0
 91
        0
 92
      512
 93
        0
300

 40
0.0
140
1.0
 94
        5
 62
     0
340
10
144
0.25
309
CONTENTFORMAT_END
171
     0
 94
        0
309
TABLEFORMAT_END
  1
CELLSTYLE_BEGIN
 90
        1
 91
        1
300
_TITLE
309
CELLSTYLE_END
300
CELLSTYLE
  1
TABLEFORMAT_BEGIN
 90
        5
170
     1
 91
        0
 92
        0
 62
   257
 93
        1
300
CONTENTFORMAT
  1
CONTENTFORMAT_BEGIN
 90
        0
 91
        0
 92
      512
 93
        0
300

 40
0.0
140
1.0
 94
        5
 62
     0
340
10
144
0.18
309
CONTENTFORMAT_END
171
     0
 94
        0
309
TABLEFORMAT_END
  1
CELLSTYLE_BEGIN
 90
        2
 91
        1
300
_HEADER
309
CELLSTYLE_END
300
CELLSTYLE
  1
TABLEFORMAT_BEGIN
 90
        5
170
     1
 91
        0
 92
        0
 62
   257
 93
        1
300
CONTENTFORMAT
  1
CONTENTFORMAT_BEGIN
 90
        0
 91
        0
 92
      512
 93
        0
300

 40
0.0
140
1.0
 94
        2
 62
     0
340
10
144
0.18
309
CONTENTFORMAT_END
171
     0
 94
        0
309
TABLEFORMAT_END
  1
CELLSTYLE_BEGIN
 90
        3
 91
        2
300
_DATA
309
CELLSTYLE_END
  0
XRECORD
  5
F31
102
{ACAD_REACTORS
330
F02
102
}
330
F02
100
AcDbXrecord
280
     1
102
ACAD_ROUNDTRIP_PRE2007_TABLESTYLE
 90
      512
 91
        0
  1

 92
      512
 93
        0
  2

 94
      512
 95
        0
  3

  0
XRECORD
  5
F16
102
{ACAD_REACTORS
330
F15
102
}
330
F15
100
AcDbXrecord
280
     1
102
RTVSPropertyOp0
 70
     1
102
RTVSPropertyOp1
 70
     1
102
RTVSPropertyOp2
 70
     1
102
RTVSPropertyOp3
 70
     1
102
RTVSPropertyOp4
 70
     1
102
RTVSPropertyOp5
 70
     1
102
RTVSPropertyOp6
 70
     1
102
RTVSPropertyOp7
 70
     1
102
RTVSPropertyOp8
 70
     1
102
RTVSPropertyOp9
 70
     1
102
RTVSPropertyOp10
 70
     1
102
RTVSPropertyOp11
 70
     1
102
RTVSPropertyOp12
 70
     1
102
RTVSPropertyOp13
 70
     1
102
RTVSPropertyOp14
 70
     1
102
RTVSPropertyOp15
 70
     1
102
RTVSPropertyOp16
 70
     1
102
RTVSPropertyOp17
 70
     1
102
RTVSPropertyOp18
 70
     1
102
RTVSPropertyOp19
 70
     1
102
RTVSPropertyOp20
 70
     1
102
RTVSPropertyOp21
 70
     1
102
RTVSPropertyOp22
 70
     1
102
RTVSPropertyOp23
 70
     1
102
RTVSPropertyOp24
 70
     1
102
RTVSPropertyOp25
 70
     1
102
RTVSPropertyOp26
 70
     1
102
RTVSPropertyOp27
 70
     1
  0
XRECORD
  5
F1A
102
{ACAD_REACTORS
330
F19
102
}
330
F19
100
AcDbXrecord
280
     1
102
RTVSPropertyOp0
 70
     1
102
RTVSPropertyOp1
 70
     1
102
RTVSPropertyOp2
 70
     1
102
RTVSPropertyOp3
 70
     1
102
RTVSPropertyOp4
 70
     1
102
RTVSPropertyOp5
 70
     1
102
RTVSPropertyOp6
 70
     1
102
RTVSPropertyOp7
 70
     1
102
RTVSPropertyOp8
 70
     1
102
RTVSPropertyOp9
 70
     1
102
RTVSPropertyOp10
 70
     1
102
RTVSPropertyOp11
 70
     1
102
RTVSPropertyOp12
 70
     1
102
RTVSPropertyOp13
 70
     1
102
RTVSPropertyOp14
 70
     1
102
RTVSPropertyOp15
 70
     1
102
RTVSPropertyOp16
 70
     1
102
RTVSPropertyOp17
 70
     1
102
RTVSPropertyOp18
 70
     1
102
RTVSPropertyOp19
 70
     1
102
RTVSPropertyOp20
 70
     1
102
RTVSPropertyOp21
 70
     1
102
RTVSPropertyOp22
 70
     1
102
RTVSPropertyOp23
 70
     1
102
RTVSPropertyOp24
 70
     1
102
RTVSPropertyOp25
 70
     1
102
RTVSPropertyOp26
 70
     1
102
RTVSPropertyOp27
 70
     1
  0
XRECORD
  5
F18
102
{ACAD_REACTORS
330
F17
102
}
330
F17
100
AcDbXrecord
280
     1
102
RTVSPropertyOp0
 70
     1
102
RTVSPropertyOp1
 70
     1
102
RTVSPropertyOp2
 70
     1
102
RTVSPropertyOp3
 70
     1
102
RTVSPropertyOp4
 70
     1
102
RTVSPropertyOp5
 70
     1
102
RTVSPropertyOp6
 70
     1
102
RTVSPropertyOp7
 70
     1
102
RTVSPropertyOp8
 70
     1
102
RTVSPropertyOp9
 70
     1
102
RTVSPropertyOp10
 70
     1
102
RTVSPropertyOp11
 70
     1
102
RTVSPropertyOp12
 70
     1
102
RTVSPropertyOp13
 70
     1
102
RTVSPropertyOp14
 70
     1
102
RTVSPropertyOp15
 70
     1
102
RTVSPropertyOp16
 70
     1
102
RTVSPropertyOp17
 70
     1
102
RTVSPropertyOp18
 70
     1
102
RTVSPropertyOp19
 70
     1
102
RTVSPropertyOp20
 70
     1
102
RTVSPropertyOp21
 70
     1
102
RTVSPropertyOp22
 70
     1
102
RTVSPropertyOp23
 70
     1
102
RTVSPropertyOp24
 70
     1
102
RTVSPropertyOp25
 70
     1
102
RTVSPropertyOp26
 70
     1
102
RTVSPropertyOp27
 70
     1
  0
XRECORD
  5
F14
102
{ACAD_REACTORS
330
F13
102
}
330
F13
100
AcDbXrecord
280
     1
102
RTVSPropertyOp0
 70
     1
102
RTVSPropertyOp1
 70
     1
102
RTVSPropertyOp2
 70
     1
102
RTVSPropertyOp3
 70
     1
102
RTVSPropertyOp4
 70
     1
102
RTVSPropertyOp5
 70
     1
102
RTVSPropertyOp6
 70
     1
102
RTVSPropertyOp7
 70
     1
102
RTVSPropertyOp8
 70
     1
102
RTVSPropertyOp9
 70
     1
102
RTVSPropertyOp10
 70
     1
102
RTVSPropertyOp11
 70
     1
102
RTVSPropertyOp12
 70
     1
102
RTVSPropertyOp13
 70
     1
102
RTVSPropertyOp14
 70
     1
102
RTVSPropertyOp15
 70
     1
102
RTVSPropertyOp16
 70
     1
102
RTVSPropertyOp17
 70
     1
102
RTVSPropertyOp18
 70
     1
102
RTVSPropertyOp19
 70
     1
102
RTVSPropertyOp20
 70
     1
102
RTVSPropertyOp21
 70
     1
102
RTVSPropertyOp22
 70
     1
102
RTVSPropertyOp23
 70
     1
102
RTVSPropertyOp24
 70
     1
102
RTVSPropertyOp25
 70
     1
102
RTVSPropertyOp26
 70
     1
102
RTVSPropertyOp27
 70
     1
  0
XRECORD
  5
F22
102
{ACAD_REACTORS
330
F21
102
}
330
F21
100
AcDbXrecord
280
     1
102
RTVSPropertyOp0
 70
     1
102
RTVSPropertyOp1
 70
     1
102
RTVSPropertyOp2
 70
     1
102
RTVSPropertyOp3
 70
     1
102
RTVSPropertyOp4
 70
     1
102
RTVSPropertyOp5
 70
     1
102
RTVSPropertyOp6
 70
     1
102
RTVSPropertyOp7
 70
     1
102
RTVSPropertyOp8
 70
     1
102
RTVSPropertyOp9
 70
     1
102
RTVSPropertyOp10
 70
     1
102
RTVSPropertyOp11
 70
     1
102
RTVSPropertyOp12
 70
     1
102
RTVSPropertyOp13
 70
     1
102
RTVSPropertyOp14
 70
     1
102
RTVSPropertyOp15
 70
     1
102
RTVSPropertyOp16
 70
     1
102
RTVSPropertyOp17
 70
     1
102
RTVSPropertyOp18
 70
     1
102
RTVSPropertyOp19
 70
     1
102
RTVSPropertyOp20
 70
     1
102
RTVSPropertyOp21
 70
     1
102
RTVSPropertyOp22
 70
     1
102
RTVSPropertyOp23
 70
     1
102
RTVSPropertyOp24
 70
     1
102
RTVSPropertyOp25
 70
     1
102
RTVSPropertyOp26
 70
     1
102
RTVSPropertyOp27
 70
     1
  0
XRECORD
  5
F2A
102
{ACAD_REACTORS
330
F29
102
}
330
F29
100
AcDbXrecord
280
     1
102
RTVSPropertyOp0
 70
     1
102
RTVSPropertyOp1
 70
     1
102
RTVSPropertyOp2
 70
     1
102
RTVSPropertyOp3
 70
     1
102
RTVSPropertyOp4
 70
     1
102
RTVSPropertyOp5
 70
     1
102
RTVSPropertyOp6
 70
     1
102
RTVSPropertyOp7
 70
     1
102
RTVSPropertyOp8
 70
     1
102
RTVSPropertyOp9
 70
     1
102
RTVSPropertyOp10
 70
     1
102
RTVSPropertyOp11
 70
     1
102
RTVSPropertyOp12
 70
     1
102
RTVSPropertyOp13
 70
     1
102
RTVSPropertyOp14
 70
     1
102
RTVSPropertyOp15
 70
     1
102
RTVSPropertyOp16
 70
     1
102
RTVSPropertyOp17
 70
     1
102
RTVSPropertyOp18
 70
     1
102
RTVSPropertyOp19
 70
     1
102
RTVSPropertyOp20
 70
     1
102
RTVSPropertyOp21
 70
     1
102
RTVSPropertyOp22
 70
     1
102
RTVSPropertyOp23
 70
     1
102
RTVSPropertyOp24
 70
     1
102
RTVSPropertyOp25
 70
     1
102
RTVSPropertyOp26
 70
     1
102
RTVSPropertyOp27
 70
     1
  0
XRECORD
  5
F1C
102
{ACAD_REACTORS
330
F1B
102
}
330
F1B
100
AcDbXrecord
280
     1
102
RTVSPropertyOp0
 70
     1
102
RTVSPropertyOp1
 70
     1
102
RTVSPropertyOp2
 70
     1
102
RTVSPropertyOp3
 70
     1
102
RTVSPropertyOp4
 70
     1
102
RTVSPropertyOp5
 70
     1
102
RTVSPropertyOp6
 70
     1
102
RTVSPropertyOp7
 70
     1
102
RTVSPropertyOp8
 70
     1
102
RTVSPropertyOp9
 70
     1
102
RTVSPropertyOp10
 70
     1
102
RTVSPropertyOp11
 70
     1
102
RTVSPropertyOp12
 70
     1
102
RTVSPropertyOp13
 70
     1
102
RTVSPropertyOp14
 70
     1
102
RTVSPropertyOp15
 70
     1
102
RTVSPropertyOp16
 70
     1
102
RTVSPropertyOp17
 70
     1
102
RTVSPropertyOp18
 70
     1
102
RTVSPropertyOp19
 70
     1
102
RTVSPropertyOp20
 70
     1
102
RTVSPropertyOp21
 70
     1
102
RTVSPropertyOp22
 70
     1
102
RTVSPropertyOp23
 70
     1
102
RTVSPropertyOp24
 70
     1
102
RTVSPropertyOp25
 70
     1
102
RTVSPropertyOp26
 70
     1
102
RTVSPropertyOp27
 70
     1
  0
XRECORD
  5
F20
102
{ACAD_REACTORS
330
F1F
102
}
330
F1F
100
AcDbXrecord
280
     1
102
RTVSPropertyOp0
 70
     1
102
RTVSPropertyOp1
 70
     1
102
RTVSPropertyOp2
 70
     1
102
RTVSPropertyOp3
 70
     1
102
RTVSPropertyOp4
 70
     1
102
RTVSPropertyOp5
 70
     1
102
RTVSPropertyOp6
 70
     1
102
RTVSPropertyOp7
 70
     1
102
RTVSPropertyOp8
 70
     1
102
RTVSPropertyOp9
 70
     1
102
RTVSPropertyOp10
 70
     1
102
RTVSPropertyOp11
 70
     1
102
RTVSPropertyOp12
 70
     1
102
RTVSPropertyOp13
 70
     1
102
RTVSPropertyOp14
 70
     1
102
RTVSPropertyOp15
 70
     1
102
RTVSPropertyOp16
 70
     1
102
RTVSPropertyOp17
 70
     1
102
RTVSPropertyOp18
 70
     1
102
RTVSPropertyOp19
 70
     1
102
RTVSPropertyOp20
 70
     1
102
RTVSPropertyOp21
 70
     1
102
RTVSPropertyOp22
 70
     1
102
RTVSPropertyOp23
 70
     1
102
RTVSPropertyOp24
 70
     1
102
RTVSPropertyOp25
 70
     1
102
RTVSPropertyOp26
 70
     1
102
RTVSPropertyOp27
 70
     1
  0
XRECORD
  5
F30
102
{ACAD_REACTORS
330
F2F
102
}
330
F2F
100
AcDbXrecord
280
     1
102
RTVSPropertyOp0
 70
     0
102
RTVSPropertyOp1
 70
     0
102
RTVSPropertyOp2
 70
     0
102
RTVSPropertyOp3
 70
     0
102
RTVSPropertyOp4
 70
     0
102
RTVSPropertyOp5
 70
     0
102
RTVSPropertyOp6
 70
     0
102
RTVSPropertyOp7
 70
     0
102
RTVSPropertyOp8
 70
     0
102
RTVSPropertyOp9
 70
     0
102
RTVSPropertyOp10
 70
     0
102
RTVSPropertyOp11
 70
     0
102
RTVSPropertyOp12
 70
     0
102
RTVSPropertyOp13
 70
     0
102
RTVSPropertyOp14
 70
     2
102
RTVSPropertyOp15
 70
     0
102
RTVSPropertyOp16
 70
     0
102
RTVSPropertyOp17
 70
     0
102
RTVSPropertyOp18
 70
     0
102
RTVSPropertyOp19
 70
     0
102
RTVSPropertyOp20
 70
     0
102
RTVSPropertyOp21
 70
     0
102
RTVSPropertyOp22
 70
     0
102
RTVSPropertyOp23
 70
     0
102
RTVSPropertyOp24
 70
     0
102
RTVSPropertyOp25
 70
     0
102
RTVSPropertyOp26
 70
     0
102
RTVSPropertyOp27
 70
     0
  0
XRECORD
  5
F28
102
{ACAD_REACTORS
330
F27
102
}
330
F27
100
AcDbXrecord
280
     1
102
RTVSPropertyOp0
 70
     1
102
RTVSPropertyOp1
 70
     1
102
RTVSPropertyOp2
 70
     1
102
RTVSPropertyOp3
 70
     1
102
RTVSPropertyOp4
 70
     1
102
RTVSPropertyOp5
 70
     1
102
RTVSPropertyOp6
 70
     1
102
RTVSPropertyOp7
 70
     1
102
RTVSPropertyOp8
 70
     1
102
RTVSPropertyOp9
 70
     1
102
RTVSPropertyOp10
 70
     1
102
RTVSPropertyOp11
 70
     1
102
RTVSPropertyOp12
 70
     1
102
RTVSPropertyOp13
 70
     1
102
RTVSPropertyOp14
 70
     1
102
RTVSPropertyOp15
 70
     1
102
RTVSPropertyOp16
 70
     1
102
RTVSPropertyOp17
 70
     1
102
RTVSPropertyOp18
 70
     1
102
RTVSPropertyOp19
 70
     1
102
RTVSPropertyOp20
 70
     1
102
RTVSPropertyOp21
 70
     1
102
RTVSPropertyOp22
 70
     1
102
RTVSPropertyOp23
 70
     1
102
RTVSPropertyOp24
 70
     1
102
RTVSPropertyOp25
 70
     1
102
RTVSPropertyOp26
 70
     1
102
RTVSPropertyOp27
 70
     1
  0
XRECORD
  5
F0C
102
{ACAD_REACTORS
330
F0B
102
}
330
F0B
100
AcDbXrecord
280
     1
102
RTVSPropertyOp0
 70
     1
102
RTVSPropertyOp1
 70
     1
102
RTVSPropertyOp2
 70
     1
102
RTVSPropertyOp3
 70
     1
102
RTVSPropertyOp4
 70
     1
102
RTVSPropertyOp5
 70
     1
102
RTVSPropertyOp6
 70
     1
102
RTVSPropertyOp7
 70
     1
102
RTVSPropertyOp8
 70
     1
102
RTVSPropertyOp9
 70
     1
102
RTVSPropertyOp10
 70
     1
102
RTVSPropertyOp11
 70
     1
102
RTVSPropertyOp12
 70
     1
102
RTVSPropertyOp13
 70
     1
102
RTVSPropertyOp14
 70
     1
102
RTVSPropertyOp15
 70
     1
102
RTVSPropertyOp16
 70
     1
102
RTVSPropertyOp17
 70
     1
102
RTVSPropertyOp18
 70
     1
102
RTVSPropertyOp19
 70
     1
102
RTVSPropertyOp20
 70
     1
102
RTVSPropertyOp21
 70
     1
102
RTVSPropertyOp22
 70
     1
102
RTVSPropertyOp23
 70
     1
102
RTVSPropertyOp24
 70
     1
102
RTVSPropertyOp25
 70
     1
102
RTVSPropertyOp26
 70
     1
102
RTVSPropertyOp27
 70
     1
  0
XRECORD
  5
F0E
102
{ACAD_REACTORS
330
F0D
102
}
330
F0D
100
AcDbXrecord
280
     1
102
RTVSPropertyOp0
 70
     1
102
RTVSPropertyOp1
 70
     1
102
RTVSPropertyOp2
 70
     1
102
RTVSPropertyOp3
 70
     1
102
RTVSPropertyOp4
 70
     1
102
RTVSPropertyOp5
 70
     1
102
RTVSPropertyOp6
 70
     1
102
RTVSPropertyOp7
 70
     1
102
RTVSPropertyOp8
 70
     1
102
RTVSPropertyOp9
 70
     1
102
RTVSPropertyOp10
 70
     1
102
RTVSPropertyOp11
 70
     1
102
RTVSPropertyOp12
 70
     1
102
RTVSPropertyOp13
 70
     1
102
RTVSPropertyOp14
 70
     1
102
RTVSPropertyOp15
 70
     1
102
RTVSPropertyOp16
 70
     1
102
RTVSPropertyOp17
 70
     1
102
RTVSPropertyOp18
 70
     1
102
RTVSPropertyOp19
 70
     1
102
RTVSPropertyOp20
 70
     1
102
RTVSPropertyOp21
 70
     1
102
RTVSPropertyOp22
 70
     1
102
RTVSPropertyOp23
 70
     1
102
RTVSPropertyOp24
 70
     1
102
RTVSPropertyOp25
 70
     1
102
RTVSPropertyOp26
 70
     1
102
RTVSPropertyOp27
 70
     1
  0
XRECORD
  5
F10
102
{ACAD_REACTORS
330
F0F
102
}
330
F0F
100
AcDbXrecord
280
     1
102
RTVSPropertyOp0
 70
     1
102
RTVSPropertyOp1
 70
     1
102
RTVSPropertyOp2
 70
     1
102
RTVSPropertyOp3
 70
     1
102
RTVSPropertyOp4
 70
     1
102
RTVSPropertyOp5
 70
     1
102
RTVSPropertyOp6
 70
     1
102
RTVSPropertyOp7
 70
     1
102
RTVSPropertyOp8
 70
     1
102
RTVSPropertyOp9
 70
     1
102
RTVSPropertyOp10
 70
     1
102
RTVSPropertyOp11
 70
     1
102
RTVSPropertyOp12
 70
     1
102
RTVSPropertyOp13
 70
     1
102
RTVSPropertyOp14
 70
     1
102
RTVSPropertyOp15
 70
     1
102
RTVSPropertyOp16
 70
     1
102
RTVSPropertyOp17
 70
     1
102
RTVSPropertyOp18
 70
     1
102
RTVSPropertyOp19
 70
     1
102
RTVSPropertyOp20
 70
     1
102
RTVSPropertyOp21
 70
     1
102
RTVSPropertyOp22
 70
     1
102
RTVSPropertyOp23
 70
     1
102
RTVSPropertyOp24
 70
     1
102
RTVSPropertyOp25
 70
     1
102
RTVSPropertyOp26
 70
     1
102
RTVSPropertyOp27
 70
     1
  0
XRECORD
  5
F12
102
{ACAD_REACTORS
330
F11
102
}
330
F11
100
AcDbXrecord
280
     1
102
RTVSPropertyOp0
 70
     1
102
RTVSPropertyOp1
 70
     1
102
RTVSPropertyOp2
 70
     1
102
RTVSPropertyOp3
 70
     1
102
RTVSPropertyOp4
 70
     1
102
RTVSPropertyOp5
 70
     1
102
RTVSPropertyOp6
 70
     1
102
RTVSPropertyOp7
 70
     1
102
RTVSPropertyOp8
 70
     1
102
RTVSPropertyOp9
 70
     1
102
RTVSPropertyOp10
 70
     1
102
RTVSPropertyOp11
 70
     1
102
RTVSPropertyOp12
 70
     1
102
RTVSPropertyOp13
 70
     1
102
RTVSPropertyOp14
 70
     1
102
RTVSPropertyOp15
 70
     1
102
RTVSPropertyOp16
 70
     1
102
RTVSPropertyOp17
 70
     1
102
RTVSPropertyOp18
 70
     1
102
RTVSPropertyOp19
 70
     1
102
RTVSPropertyOp20
 70
     1
102
RTVSPropertyOp21
 70
     1
102
RTVSPropertyOp22
 70
     1
102
RTVSPropertyOp23
 70
     1
102
RTVSPropertyOp24
 70
     1
102
RTVSPropertyOp25
 70
     1
102
RTVSPropertyOp26
 70
     1
102
RTVSPropertyOp27
 70
     1
  0
XRECORD
  5
F2C
102
{ACAD_REACTORS
330
F2B
102
}
330
F2B
100
AcDbXrecord
280
     1
102
RTVSPropertyOp0
 70
     0
102
RTVSPropertyOp1
 70
     0
102
RTVSPropertyOp2
 70
     0
102
RTVSPropertyOp3
 70
     0
102
RTVSPropertyOp4
 70
     0
102
RTVSPropertyOp5
 70
     0
102
RTVSPropertyOp6
 70
     0
102
RTVSPropertyOp7
 70
     0
102
RTVSPropertyOp8
 70
     0
102
RTVSPropertyOp9
 70
     0
102
RTVSPropertyOp10
 70
     0
102
RTVSPropertyOp11
 70
     0
102
RTVSPropertyOp12
 70
     0
102
RTVSPropertyOp13
 70
     0
102
RTVSPropertyOp14
 70
     2
102
RTVSPropertyOp15
 70
     0
102
RTVSPropertyOp16
 70
     0
102
RTVSPropertyOp17
 70
     0
102
RTVSPropertyOp18
 70
     0
102
RTVSPropertyOp19
 70
     0
102
RTVSPropertyOp20
 70
     0
102
RTVSPropertyOp21
 70
     0
102
RTVSPropertyOp22
 70
     0
102
RTVSPropertyOp23
 70
     0
102
RTVSPropertyOp24
 70
     0
102
RTVSPropertyOp25
 70
     0
102
RTVSPropertyOp26
 70
     0
102
RTVSPropertyOp27
 70
     0
  0
XRECORD
  5
F26
102
{ACAD_REACTORS
330
F25
102
}
330
F25
100
AcDbXrecord
280
     1
102
RTVSPropertyOp0
 70
     1
102
RTVSPropertyOp1
 70
     1
102
RTVSPropertyOp2
 70
     1
102
RTVSPropertyOp3
 70
     1
102
RTVSPropertyOp4
 70
     1
102
RTVSPropertyOp5
 70
     1
102
RTVSPropertyOp6
 70
     1
102
RTVSPropertyOp7
 70
     1
102
RTVSPropertyOp8
 70
     1
102
RTVSPropertyOp9
 70
     1
102
RTVSPropertyOp10
 70
     1
102
RTVSPropertyOp11
 70
     1
102
RTVSPropertyOp12
 70
     1
102
RTVSPropertyOp13
 70
     1
102
RTVSPropertyOp14
 70
     1
102
RTVSPropertyOp15
 70
     1
102
RTVSPropertyOp16
 70
     1
102
RTVSPropertyOp17
 70
     1
102
RTVSPropertyOp18
 70
     1
102
RTVSPropertyOp19
 70
     1
102
RTVSPropertyOp20
 70
     1
102
RTVSPropertyOp21
 70
     1
102
RTVSPropertyOp22
 70
     1
102
RTVSPropertyOp23
 70
     1
102
RTVSPropertyOp24
 70
     1
102
RTVSPropertyOp25
 70
     1
102
RTVSPropertyOp26
 70
     1
102
RTVSPropertyOp27
 70
     1
  0
XRECORD
  5
F2E
102
{ACAD_REACTORS
330
F2D
102
}
330
F2D
100
AcDbXrecord
280
     1
102
RTVSPropertyOp0
 70
     0
102
RTVSPropertyOp1
 70
     0
102
RTVSPropertyOp2
 70
     0
102
RTVSPropertyOp3
 70
     0
102
RTVSPropertyOp4
 70
     0
102
RTVSPropertyOp5
 70
     0
102
RTVSPropertyOp6
 70
     0
102
RTVSPropertyOp7
 70
     0
102
RTVSPropertyOp8
 70
     0
102
RTVSPropertyOp9
 70
     0
102
RTVSPropertyOp10
 70
     0
102
RTVSPropertyOp11
 70
     0
102
RTVSPropertyOp12
 70
     0
102
RTVSPropertyOp13
 70
     0
102
RTVSPropertyOp14
 70
     2
102
RTVSPropertyOp15
 70
     0
102
RTVSPropertyOp16
 70
     0
102
RTVSPropertyOp17
 70
     0
102
RTVSPropertyOp18
 70
     0
102
RTVSPropertyOp19
 70
     0
102
RTVSPropertyOp20
 70
     0
102
RTVSPropertyOp21
 70
     0
102
RTVSPropertyOp22
 70
     0
102
RTVSPropertyOp23
 70
     0
102
RTVSPropertyOp24
 70
     0
102
RTVSPropertyOp25
 70
     0
102
RTVSPropertyOp26
 70
     0
102
RTVSPropertyOp27
 70
     0
  0
XRECORD
  5
F1E
102
{ACAD_REACTORS
330
F1D
102
}
330
F1D
100
AcDbXrecord
280
     1
102
RTVSPropertyOp0
 70
     1
102
RTVSPropertyOp1
 70
     1
102
RTVSPropertyOp2
 70
     1
102
RTVSPropertyOp3
 70
     1
102
RTVSPropertyOp4
 70
     1
102
RTVSPropertyOp5
 70
     1
102
RTVSPropertyOp6
 70
     1
102
RTVSPropertyOp7
 70
     1
102
RTVSPropertyOp8
 70
     1
102
RTVSPropertyOp9
 70
     1
102
RTVSPropertyOp10
 70
     1
102
RTVSPropertyOp11
 70
     1
102
RTVSPropertyOp12
 70
     1
102
RTVSPropertyOp13
 70
     1
102
RTVSPropertyOp14
 70
     1
102
RTVSPropertyOp15
 70
     1
102
RTVSPropertyOp16
 70
     1
102
RTVSPropertyOp17
 70
     1
102
RTVSPropertyOp18
 70
     1
102
RTVSPropertyOp19
 70
     1
102
RTVSPropertyOp20
 70
     1
102
RTVSPropertyOp21
 70
     1
102
RTVSPropertyOp22
 70
     1
102
RTVSPropertyOp23
 70
     1
102
RTVSPropertyOp24
 70
     1
102
RTVSPropertyOp25
 70
     1
102
RTVSPropertyOp26
 70
     1
102
RTVSPropertyOp27
 70
     1
  0
XRECORD
  5
F24
102
{ACAD_REACTORS
330
F23
102
}
330
F23
100
AcDbXrecord
280
     1
102
RTVSPropertyOp0
 70
     1
102
RTVSPropertyOp1
 70
     1
102
RTVSPropertyOp2
 70
     1
102
RTVSPropertyOp3
 70
     1
102
RTVSPropertyOp4
 70
     1
102
RTVSPropertyOp5
 70
     1
102
RTVSPropertyOp6
 70
     1
102
RTVSPropertyOp7
 70
     1
102
RTVSPropertyOp8
 70
     1
102
RTVSPropertyOp9
 70
     1
102
RTVSPropertyOp10
 70
     1
102
RTVSPropertyOp11
 70
     1
102
RTVSPropertyOp12
 70
     1
102
RTVSPropertyOp13
 70
     1
102
RTVSPropertyOp14
 70
     1
102
RTVSPropertyOp15
 70
     1
102
RTVSPropertyOp16
 70
     1
102
RTVSPropertyOp17
 70
     1
102
RTVSPropertyOp18
 70
     1
102
RTVSPropertyOp19
 70
     1
102
RTVSPropertyOp20
 70
     1
102
RTVSPropertyOp21
 70
     1
102
RTVSPropertyOp22
 70
     1
102
RTVSPropertyOp23
 70
     1
102
RTVSPropertyOp24
 70
     1
102
RTVSPropertyOp25
 70
     1
102
RTVSPropertyOp26
 70
     1
102
RTVSPropertyOp27
 70
     1
  0
DICTIONARY
  5
E85
102
{ACAD_REACTORS
330
E84
102
}
330
E84
100
AcDbDictionary
280
     1
281
     1
  3
PH_GRPMEMBERS
360
E86
  0
PH_GROUP
  5
E87
102
{ACAD_REACTORS
330
E84
102
}
330
E84
  0
PH_GROUP
  5
E86
102
{ACAD_REACTORS
330
E85
102
}
330
E85
  0
ENDSEC
  0
EOF
