  0
SECTION
  2
HEADER
  9
$ACADVER
  1
AC1015
  9
$ACADMAINTVER
 70
    20
  9
$DWGCODEPAGE
  3
ANSI_1252
  9
$INSBASE
 10
0.0
 20
0.0
 30
0.0
  9
$EXTMIN
 10
0.9805307641864828
 20
0.9879462492978063
 30
-0.0000000000000022
  9
$EXTMAX
 10
209.0066535642914
 20
296.0120551337162
 30
0.0000000000000131
  9
$LIMMIN
 10
0.0
 20
0.0
  9
$LIMMAX
 10
420.0
 20
297.0
  9
$ORTHOMODE
 70
     1
  9
$REGENMODE
 70
     1
  9
$FILLMODE
 70
     1
  9
$QTEXTMODE
 70
     0
  9
$MIRRTEXT
 70
     1
  9
$LTSCALE
 40
1.0
  9
$ATTMODE
 70
     1
  9
$TEXTSIZE
 40
2.5
  9
$TRACEWID
 40
1.0
  9
$TEXTSTYLE
  7
Standard
  9
$CLAYER
  8
0
  9
$CELTYPE
  6
Continuous
  9
$CECOLOR
 62
     1
  9
$CELTSCALE
 40
1.0
  9
$DISPSILH
 70
     0
  9
$DIMSCALE
 40
1.0
  9
$DIMASZ
 40
3.72
  9
$DIMEXO
 40
0.0
  9
$DIMDLI
 40
5.0
  9
$DIMRND
 40
0.0
  9
$DIMDLE
 40
0.0
  9
$DIMEXE
 40
1.5
  9
$DIMTP
 40
0.0
  9
$DIMTM
 40
0.0
  9
$DIMTXT
 40
2.5
  9
$DIMCEN
 40
0.0
  9
$DIMTSZ
 40
0.0
  9
$DIMTOL
 70
     0
  9
$DIMLIM
 70
     0
  9
$DIMTIH
 70
     0
  9
$DIMTOH
 70
     0
  9
$DIMSE1
 70
     0
  9
$DIMSE2
 70
     0
  9
$DIMTAD
 70
     1
  9
$DIMZIN
 70
     8
  9
$DIMBLK
  1
_OPEN15
  9
$DIMASO
 70
     1
  9
$DIMSHO
 70
     1
  9
$DIMPOST
  1

  9
$DIMAPOST
  1
"
  9
$DIMALT
 70
     0
  9
$DIMALTD
 70
     2
  9
$DIMALTF
 40
0.0393700787401575
  9
$DIMLFAC
 40
1.0
  9
$DIMTOFL
 70
     1
  9
$DIMTVP
 40
0.0
  9
$DIMTIX
 70
     0
  9
$DIMSOXD
 70
     0
  9
$DIMSAH
 70
     0
  9
$DIMBLK1
  1

  9
$DIMBLK2
  1

  9
$DIMSTYLE
  2
phoenix
  9
$DIMCLRD
 70
     1
  9
$DIMCLRE
 70
     1
  9
$DIMCLRT
 70
     5
  9
$DIMTFAC
 40
0.6666666666666666
  9
$DIMGAP
 40
0.4
  9
$DIMJUST
 70
     0
  9
$DIMSD1
 70
     0
  9
$DIMSD2
 70
     0
  9
$DIMTOLJ
 70
     1
  9
$DIMTZIN
 70
     8
  9
$DIMALTZ
 70
     0
  9
$DIMALTTZ
 70
     0
  9
$DIMUPT
 70
     1
  9
$DIMDEC
 70
     6
  9
$DIMTDEC
 70
     6
  9
$DIMALTU
 70
     2
  9
$DIMALTTD
 70
     2
  9
$DIMTXSTY
  7
Standard
  9
$DIMAUNIT
 70
     0
  9
$DIMADEC
 70
     4
  9
$DIMALTRND
 40
0.0
  9
$DIMAZIN
 70
     2
  9
$DIMDSEP
 70
    46
  9
$DIMATFIT
 70
     0
  9
$DIMFRAC
 70
     0
  9
$DIMLDRBLK
  1
_OPEN15
  9
$DIMLUNIT
 70
     2
  9
$DIMLWD
 70
    25
  9
$DIMLWE
 70
    25
  9
$DIMTMOVE
 70
     0
  9
$LUNITS
 70
     2
  9
$LUPREC
 70
     4
  9
$SKETCHINC
 40
1.0
  9
$FILLETRAD
 40
10.0
  9
$AUNITS
 70
     0
  9
$AUPREC
 70
     0
  9
$MENU
  1
.
  9
$ELEVATION
 40
0.0
  9
$PELEVATION
 40
0.0
  9
$THICKNESS
 40
0.0
  9
$LIMCHECK
 70
     0
  9
$CHAMFERA
 40
10.0
  9
$CHAMFERB
 40
10.0
  9
$CHAMFERC
 40
20.0
  9
$CHAMFERD
 40
0.0
  9
$SKPOLY
 70
     0
  9
$TDCREATE
 40
2451933.325758831
  9
$TDUCREATE
 40
2451933.284092164
  9
$TDUPDATE
 40
2456730.537044155
  9
$TDUUPDATE
 40
2456730.495377489
  9
$TDINDWG
 40
0.2994775116
  9
$TDUSRTIMER
 40
0.2994775116
  9
$USRTIMER
 70
     1
  9
$ANGBASE
 50
0.0
  9
$ANGDIR
 70
     0
  9
$PDMODE
 70
    35
  9
$PDSIZE
 40
-2.0
  9
$PLINEWID
 40
0.0
  9
$SPLFRAME
 70
     0
  9
$SPLINETYPE
 70
     6
  9
$SPLINESEGS
 70
     8
  9
$HANDSEED
  5
150C0
  9
$SURFTAB1
 70
     6
  9
$SURFTAB2
 70
     6
  9
$SURFTYPE
 70
     6
  9
$SURFU
 70
     6
  9
$SURFV
 70
     6
  9
$UCSBASE
  2

  9
$UCSNAME
  2

  9
$UCSORG
 10
0.0
 20
0.0
 30
0.0
  9
$UCSXDIR
 10
1.0
 20
0.0
 30
0.0
  9
$UCSYDIR
 10
0.0
 20
1.0
 30
0.0
  9
$UCSORTHOREF
  2

  9
$UCSORTHOVIEW
 70
     0
  9
$UCSORGTOP
 10
0.0
 20
0.0
 30
0.0
  9
$UCSORGBOTTOM
 10
0.0
 20
0.0
 30
0.0
  9
$UCSORGLEFT
 10
0.0
 20
0.0
 30
0.0
  9
$UCSORGRIGHT
 10
0.0
 20
0.0
 30
0.0
  9
$UCSORGFRONT
 10
0.0
 20
0.0
 30
0.0
  9
$UCSORGBACK
 10
0.0
 20
0.0
 30
0.0
  9
$PUCSBASE
  2

  9
$PUCSNAME
  2

  9
$PUCSORG
 10
0.0
 20
0.0
 30
0.0
  9
$PUCSXDIR
 10
1.0
 20
0.0
 30
0.0
  9
$PUCSYDIR
 10
0.0
 20
1.0
 30
0.0
  9
$PUCSORTHOREF
  2

  9
$PUCSORTHOVIEW
 70
     0
  9
$PUCSORGTOP
 10
0.0
 20
0.0
 30
0.0
  9
$PUCSORGBOTTOM
 10
0.0
 20
0.0
 30
0.0
  9
$PUCSORGLEFT
 10
0.0
 20
0.0
 30
0.0
  9
$PUCSORGRIGHT
 10
0.0
 20
0.0
 30
0.0
  9
$PUCSORGFRONT
 10
0.0
 20
0.0
 30
0.0
  9
$PUCSORGBACK
 10
0.0
 20
0.0
 30
0.0
  9
$USERI1
 70
     0
  9
$USERI2
 70
     0
  9
$USERI3
 70
     0
  9
$USERI4
 70
     0
  9
$USERI5
 70
     0
  9
$USERR1
 40
0.0
  9
$USERR2
 40
0.0
  9
$USERR3
 40
0.0
  9
$USERR4
 40
0.0
  9
$USERR5
 40
0.0
  9
$WORLDVIEW
 70
     1
  9
$SHADEDGE
 70
     3
  9
$SHADEDIF
 70
    70
  9
$TILEMODE
 70
     1
  9
$MAXACTVP
 70
    64
  9
$PINSBASE
 10
0.0
 20
0.0
 30
0.0
  9
$PLIMCHECK
 70
     0
  9
$PEXTMIN
 10
1.000000000000000E+20
 20
1.000000000000000E+20
 30
1.000000000000000E+20
  9
$PEXTMAX
 10
-1.000000000000000E+20
 20
-1.000000000000000E+20
 30
-1.000000000000000E+20
  9
$PLIMMIN
 10
0.0
 20
0.0
  9
$PLIMMAX
 10
420.0
 20
297.0
  9
$UNITMODE
 70
     0
  9
$VISRETAIN
 70
     1
  9
$PLINEGEN
 70
     0
  9
$PSLTSCALE
 70
     1
  9
$TREEDEPTH
 70
  3020
  9
$CMLSTYLE
  2
Standard
  9
$CMLJUST
 70
     0
  9
$CMLSCALE
 40
20.0
  9
$PROXYGRAPHICS
 70
     1
  9
$MEASUREMENT
 70
     1
  9
$CELWEIGHT
370
    25
  9
$ENDCAPS
280
     0
  9
$JOINSTYLE
280
     0
  9
$LWDISPLAY
290
     0
  9
$INSUNITS
 70
     4
  9
$HYPERLINKBASE
  1

  9
$STYLESHEET
  1
HP_SW.ctb
  9
$XEDIT
290
     1
  9
$CEPSNTYPE
380
     0
  9
$PSTYLEMODE
290
     1
  9
$FINGERPRINTGUID
  2
{FDEAD578-A652-11D2-9A35-0060089B3A3F}
  9
$VERSIONGUID
  2
{8969E878-8D66-4C23-9A02-CC1931DB66E4}
  9
$EXTNAMES
290
     1
  9
$PSVPSCALE
 40
0.0
  9
$OLESTARTUP
290
     0
  0
ENDSEC
  0
SECTION
  2
CLASSES
  0
CLASS
  1
ACDBDICTIONARYWDFLT
  2
AcDbDictionaryWithDefault
  3
ObjectDBX Classes
 90
        0
280
     0
281
     0
  0
CLASS
  1
ACDBPLACEHOLDER
  2
AcDbPlaceHolder
  3
ObjectDBX Classes
 90
        0
280
     0
281
     0
  0
CLASS
  1
LAYOUT
  2
AcDbLayout
  3
ObjectDBX Classes
 90
        0
280
     0
281
     0
  0
CLASS
  1
PH_VARS
  2
PhoenixVars
  3
PHOENIX7010
 90
        0
280
     0
281
     0
  0
CLASS
  1
PH_GROUP
  2
PhGroup
  3
PHOENIX7010
 90
        0
280
     0
281
     0
  0
CLASS
  1
PH_ENTDIMREACTOR
  2
EntDimReactor
  3
PHOENIX7010
 90
        0
280
     0
281
     0
  0
CLASS
  1
PH_DIMENTREACTOR
  2
DimEntReactor
  3
PHOENIX7010
 90
        0
280
     0
281
     0
  0
CLASS
  1
DICTIONARYVAR
  2
AcDbDictionaryVar
  3
ObjectDBX Classes
 90
        0
280
     0
281
     0
  0
CLASS
  1
MATERIAL
  2
AcDbMaterial
  3
ObjectDBX Classes
 90
     1153
280
     0
281
     0
  0
CLASS
  1
VISUALSTYLE
  2
AcDbVisualStyle
  3
ObjectDBX Classes
 90
     4095
280
     0
281
     0
  0
CLASS
  1
TABLESTYLE
  2
AcDbTableStyle
  3
ObjectDBX Classes
 90
     4095
280
     0
281
     0
  0
CLASS
  1
SCALE
  2
AcDbScale
  3
ObjectDBX Classes
 90
     1153
280
     0
281
     0
  0
CLASS
  1
MLEADERSTYLE
  2
AcDbMLeaderStyle
  3
ACDB_MLEADERSTYLE_CLASS
 90
     4095
280
     0
281
     0
  0
CLASS
  1
CELLSTYLEMAP
  2
AcDbCellStyleMap
  3
ObjectDBX Classes
 90
     1152
280
     0
281
     0
  0
ENDSEC
  0
SECTION
  2
TABLES
  0
TABLE
  2
VPORT
  5
8
330
0
100
AcDbSymbolTable
 70
     1
  0
VPORT
  5
14F85
330
8
100
AcDbSymbolTableRecord
100
AcDbViewportTableRecord
  2
*Active
 70
     0
 10
0.0
 20
0.0
 11
1.0
 21
1.0
 12
116.2317824679757
 22
148.5052462677606
 13
0.0
 23
0.0
 14
10.0
 24
10.0
 15
10.0
 25
10.0
 16
0.0
 26
0.0
 36
1.0
 17
0.0
 27
0.0
 37
0.0
 40
297.2754341529821
 41
1.882491186839012
 42
50.0
 43
0.0
 44
0.0
 50
0.0
 51
0.0
 71
     0
 72
   100
 73
     1
 74
     3
 75
     0
 76
     0
 77
     0
 78
     0
281
     0
 65
     1
110
0.0
120
0.0
130
0.0
111
1.0
121
0.0
131
0.0
112
0.0
122
1.0
132
0.0
 79
     0
146
0.0
  0
ENDTAB
  0
TABLE
  2
LTYPE
  5
5
330
0
100
AcDbSymbolTable
 70
     2
  0
LTYPE
  5
14
330
5
100
AcDbSymbolTableRecord
100
AcDbLinetypeTableRecord
  2
ByBlock
 70
     0
  3

 72
    65
 73
     0
 40
0.0
  0
LTYPE
  5
15
330
5
100
AcDbSymbolTableRecord
100
AcDbLinetypeTableRecord
  2
ByLayer
 70
     0
  3

 72
    65
 73
     0
 40
0.0
  0
LTYPE
  5
16
330
5
100
AcDbSymbolTableRecord
100
AcDbLinetypeTableRecord
  2
Continuous
 70
     0
  3
Solid line
 72
    65
 73
     0
 40
0.0
  0
LTYPE
  5
3808
330
5
100
AcDbSymbolTableRecord
100
AcDbLinetypeTableRecord
  2
ACAD_ISO04W100
 70
     0
  3
____ . ____ . ____ . ____ . ____ . ____ . ____ 
 72
    65
 73
     4
 40
30.5
 49
24.0
 74
     0
 49
-3.0
 74
     0
 49
0.5
 74
     0
 49
-3.0
 74
     0
  0
ENDTAB
  0
TABLE
  2
LAYER
  5
2
102
{ACAD_XDICTIONARY
360
14FD9
102
}
330
0
100
AcDbSymbolTable
 70
     3
  0
LAYER
  5
10
102
{ACAD_XDICTIONARY
360
15045
102
}
330
2
100
AcDbSymbolTableRecord
100
AcDbLayerTableRecord
  2
0
 70
     0
 62
     7
  6
Continuous
370
    -3
390
F
  0
LAYER
  5
69
330
2
100
AcDbSymbolTableRecord
100
AcDbLayerTableRecord
  2
Defpoints
 70
     0
 62
     7
  6
Continuous
290
     0
370
    -3
390
F
  0
LAYER
  5
B21
102
{ACAD_XDICTIONARY
360
15047
102
}
330
2
100
AcDbSymbolTableRecord
100
AcDbLayerTableRecord
  2
PH_HILFSELEMENTE
 70
     0
 62
    -7
  6
Continuous
370
    -3
390
F
  0
ENDTAB
  0
TABLE
  2
STYLE
  5
3
330
0
100
AcDbSymbolTable
 70
     2
  0
STYLE
  5
11
330
3
100
AcDbSymbolTableRecord
100
AcDbTextStyleTableRecord
  2
Standard
 70
     0
 40
0.0
 41
1.199999999999999
 50
0.0
 71
     0
 42
2.5
  3
isocp.shx
  4

  0
ENDTAB
  0
TABLE
  2
VIEW
  5
6
330
0
100
AcDbSymbolTable
 70
     0
  0
ENDTAB
  0
TABLE
  2
UCS
  5
7
330
0
100
AcDbSymbolTable
 70
     0
  0
ENDTAB
  0
TABLE
  2
APPID
  5
9
330
0
100
AcDbSymbolTable
 70
     4
  0
APPID
  5
12
330
9
100
AcDbSymbolTableRecord
100
AcDbRegAppTableRecord
  2
ACAD
 70
     0
  0
APPID
  5
40
330
9
100
AcDbSymbolTableRecord
100
AcDbRegAppTableRecord
  2
PHOENIX7010
 70
     0
  0
APPID
  5
15043
330
9
100
AcDbSymbolTableRecord
100
AcDbRegAppTableRecord
  2
ACAD_EXEMPT_FROM_CAD_STANDARDS
 70
     0
  0
APPID
  5
150BF
330
9
100
AcDbSymbolTableRecord
100
AcDbRegAppTableRecord
  2
ACAD_MLEADERVER
 70
     0
  0
ENDTAB
  0
TABLE
  2
DIMSTYLE
  5
A
330
0
100
AcDbSymbolTable
 70
     4
100
AcDbDimStyleTable
 71
     3
340
47
340
48
340
27
  0
DIMSTYLE
105
27
330
A
100
AcDbSymbolTableRecord
100
AcDbDimStyleTableRecord
  2
ISO-25
 70
     0
 41
2.5
 42
0.625
 43
3.75
 44
1.25
 73
     0
 74
     0
 77
     1
 78
     8
140
2.5
141
2.5
143
0.03937007874016
147
0.625
171
     3
172
     1
271
     2
272
     2
274
     3
278
    44
283
     0
284
     8
340
11
  0
DIMSTYLE
105
47
102
{ACAD_REACTORS
330
E288
330
E891
330
FCC5
330
10161
330
109F2
330
10D7D
330
114B9
330
11BF2
330
1236B
330
12AD6
330
134B7
330
13B4E
330
14153
330
147C3
102
}
330
A
100
AcDbSymbolTableRecord
100
AcDbDimStyleTableRecord
  2
phoenix
 70
     0
  4
"
 41
3.72
 42
0.0
 43
5.0
 44
1.5
 73
     0
 74
     0
 77
     1
 78
     8
 79
     2
140
2.5
141
0.0
143
0.0393700787401575
146
0.6666666666666666
147
0.4
172
     1
176
     1
177
     1
178
     5
179
     4
271
     6
272
     6
284
     8
288
     1
289
     0
340
11
341
41
342
41
371
    25
372
    25
  0
DIMSTYLE
105
48
330
A
100
AcDbSymbolTableRecord
100
AcDbDimStyleTableRecord
  2
phoenix$4
 70
     0
  4
"
 41
3.72
 42
0.0
 43
2.0
 44
1.5
 73
     0
 74
     0
 77
     1
 78
     8
140
3.5
141
0.0
143
0.0393700787401575
146
0.6666666666666666
147
2.0
176
     1
177
     1
178
     5
271
     2
272
     2
277
     6
284
     8
288
     1
289
     0
340
11
341
41
342
41
371
    25
372
    25
  0
ENDTAB
  0
TABLE
  2
BLOCK_RECORD
  5
1
330
0
100
AcDbSymbolTable
 70
    26
  0
BLOCK_RECORD
  5
1F
330
1
100
AcDbSymbolTableRecord
100
AcDbBlockTableRecord
  2
*Model_Space
340
22
  0
BLOCK_RECORD
  5
1B
330
1
100
AcDbSymbolTableRecord
100
AcDbBlockTableRecord
  2
*Paper_Space
340
1E
  0
BLOCK_RECORD
  5
23
330
1
100
AcDbSymbolTableRecord
100
AcDbBlockTableRecord
  2
*Paper_Space0
340
26
  0
BLOCK_RECORD
  5
41
330
1
100
AcDbSymbolTableRecord
100
AcDbBlockTableRecord
  2
_OPEN15
340
0
102
{BLKREFS
331
14C86
331
14C87
331
14D83
331
14D84
331
14D8C
331
14D8D
331
14D95
331
14D96
331
14D9E
331
14D9F
331
14DA7
331
14DA8
331
14DB0
331
14DB1
331
14DB9
331
14DBA
331
14DC2
331
14DC3
331
14DCB
331
14DCC
331
14DD4
331
14DD5
331
14DDD
331
14DDE
331
14DE9
331
14DEA
331
14DF3
331
14DF4
102
}
  0
BLOCK_RECORD
  5
5C
330
1
100
AcDbSymbolTableRecord
100
AcDbBlockTableRecord
  2
_Open30
340
0
  0
BLOCK_RECORD
  5
62
330
1
100
AcDbSymbolTableRecord
100
AcDbBlockTableRecord
  2
_Open90
340
0
  0
BLOCK_RECORD
  5
38AC
330
1
100
AcDbSymbolTableRecord
100
AcDbBlockTableRecord
  2
PH_GRPBLK
340
0
102
{BLKREFS
331
4221
331
DC53
331
DC6B
331
14DFC
331
14E6E
331
14F7E
331
14F81
331
14FCD
331
14FF0
331
14FF3
331
1502B
102
}
  0
BLOCK_RECORD
  5
E289
330
1
100
AcDbSymbolTableRecord
100
AcDbBlockTableRecord
  2
*D12
340
0
  0
BLOCK_RECORD
  5
E892
330
1
100
AcDbSymbolTableRecord
100
AcDbBlockTableRecord
  2
*D13
340
0
  0
BLOCK_RECORD
  5
FCC6
330
1
100
AcDbSymbolTableRecord
100
AcDbBlockTableRecord
  2
*D14
340
0
  0
BLOCK_RECORD
  5
10162
330
1
100
AcDbSymbolTableRecord
100
AcDbBlockTableRecord
  2
*D15
340
0
  0
BLOCK_RECORD
  5
109F3
330
1
100
AcDbSymbolTableRecord
100
AcDbBlockTableRecord
  2
*D16
340
0
  0
BLOCK_RECORD
  5
10D7E
330
1
100
AcDbSymbolTableRecord
100
AcDbBlockTableRecord
  2
*D17
340
0
  0
BLOCK_RECORD
  5
114BA
330
1
100
AcDbSymbolTableRecord
100
AcDbBlockTableRecord
  2
*D18
340
0
  0
BLOCK_RECORD
  5
11BF3
330
1
100
AcDbSymbolTableRecord
100
AcDbBlockTableRecord
  2
*D19
340
0
  0
BLOCK_RECORD
  5
1236C
330
1
100
AcDbSymbolTableRecord
100
AcDbBlockTableRecord
  2
*D20
340
0
  0
BLOCK_RECORD
  5
12AD7
330
1
100
AcDbSymbolTableRecord
100
AcDbBlockTableRecord
  2
*D21
340
0
  0
BLOCK_RECORD
  5
134B8
330
1
100
AcDbSymbolTableRecord
100
AcDbBlockTableRecord
  2
*D22
340
0
  0
BLOCK_RECORD
  5
13B4F
330
1
100
AcDbSymbolTableRecord
100
AcDbBlockTableRecord
  2
*D23
340
0
  0
BLOCK_RECORD
  5
14154
330
1
100
AcDbSymbolTableRecord
100
AcDbBlockTableRecord
  2
*D24
340
0
  0
BLOCK_RECORD
  5
147C4
330
1
100
AcDbSymbolTableRecord
100
AcDbBlockTableRecord
  2
*D25
340
0
  0
ENDTAB
  0
ENDSEC
  0
SECTION
  2
BLOCKS
  0
BLOCK
  5
20
330
1F
100
AcDbEntity
  8
0
100
AcDbBlockBegin
  2
*Model_Space
 70
     0
 10
0.0
 20
0.0
 30
0.0
  3
*Model_Space
  1

  0
ENDBLK
  5
21
330
1F
100
AcDbEntity
  8
0
100
AcDbBlockEnd
  0
BLOCK
  5
1C
330
1B
100
AcDbEntity
 67
     1
  8
0
100
AcDbBlockBegin
  2
*Paper_Space
 70
     0
 10
0.0
 20
0.0
 30
0.0
  3
*Paper_Space
  1

  0
ENDBLK
  5
1D
330
1B
100
AcDbEntity
 67
     1
  8
0
100
AcDbBlockEnd
  0
BLOCK
  5
24
330
23
100
AcDbEntity
 67
     1
  8
0
100
AcDbBlockBegin
  2
*Paper_Space0
 70
     0
 10
0.0
 20
0.0
 30
0.0
  3
*Paper_Space0
  1

  0
ENDBLK
  5
25
330
23
100
AcDbEntity
 67
     1
  8
0
100
AcDbBlockEnd
  0
BLOCK
  5
45
330
41
100
AcDbEntity
  8
0
100
AcDbBlockBegin
  2
_OPEN15
 70
     0
 10
1.0
 20
0.0
 30
0.0
  3
_OPEN15
  1

  0
LINE
  5
42
330
41
100
AcDbEntity
  8
0
  6
ByBlock
 62
     0
100
AcDbLine
 10
0.0
 20
0.0
 30
0.0
 11
1.0
 21
0.0
 31
0.0
  0
LINE
  5
43
330
41
100
AcDbEntity
  8
0
  6
ByBlock
 62
     0
100
AcDbLine
 10
1.0
 20
0.0
 30
0.0
 11
0.0
 21
0.1316524975873958
 31
0.0
  0
LINE
  5
44
330
41
100
AcDbEntity
  8
0
  6
ByBlock
 62
     0
100
AcDbLine
 10
1.0
 20
0.0
 30
0.0
 11
0.0
 21
-0.1316524975873958
 31
0.0
  0
ENDBLK
  5
46
330
41
100
AcDbEntity
  8
0
100
AcDbBlockEnd
  0
BLOCK
  5
60
330
5C
100
AcDbEntity
  8
0
 62
     7
370
    50
100
AcDbBlockBegin
  2
_Open30
 70
     0
 10
0.0
 20
0.0
 30
0.0
  3
_Open30
  1

  0
LINE
  5
5D
330
5C
100
AcDbEntity
  8
0
  6
Continuous
 62
     0
370
    -2
100
AcDbLine
 10
-1.0
 20
0.26794919
 30
0.0
 11
0.0
 21
0.0
 31
0.0
  0
LINE
  5
5E
330
5C
100
AcDbEntity
  8
0
  6
Continuous
 62
     0
370
    -2
100
AcDbLine
 10
0.0
 20
0.0
 30
0.0
 11
-1.0
 21
-0.26794919
 31
0.0
  0
LINE
  5
5F
330
5C
100
AcDbEntity
  8
0
  6
Continuous
 62
     0
370
    -2
100
AcDbLine
 10
0.0
 20
0.0
 30
0.0
 11
-1.0
 21
0.0
 31
0.0
  0
ENDBLK
  5
61
330
5C
100
AcDbEntity
  8
0
 62
     7
370
    50
100
AcDbBlockEnd
  0
BLOCK
  5
66
330
62
100
AcDbEntity
  8
0
 62
     7
370
    50
100
AcDbBlockBegin
  2
_Open90
 70
     0
 10
0.0
 20
0.0
 30
0.0
  3
_Open90
  1

  0
LINE
  5
63
330
62
100
AcDbEntity
  8
0
  6
Continuous
 62
     0
370
    -2
100
AcDbLine
 10
-0.5
 20
0.5
 30
0.0
 11
0.0
 21
0.0
 31
0.0
  0
LINE
  5
64
330
62
100
AcDbEntity
  8
0
  6
Continuous
 62
     0
370
    -2
100
AcDbLine
 10
0.0
 20
0.0
 30
0.0
 11
-0.5
 21
-0.5
 31
0.0
  0
LINE
  5
65
330
62
100
AcDbEntity
  8
0
  6
Continuous
 62
     0
370
    -2
100
AcDbLine
 10
0.0
 20
0.0
 30
0.0
 11
-1.0
 21
0.0
 31
0.0
  0
ENDBLK
  5
67
330
62
100
AcDbEntity
  8
0
 62
     7
370
    50
100
AcDbBlockEnd
  0
BLOCK
  5
38AE
330
38AC
100
AcDbEntity
  8
0
 62
     7
100
AcDbBlockBegin
  2
PH_GRPBLK
 70
     0
 10
0.0
 20
0.0
 30
0.0
  3
PH_GRPBLK
  1

  0
POINT
  5
38AD
330
38AC
100
AcDbEntity
  8
Defpoints
  6
Continuous
 62
     0
100
AcDbPoint
 10
0.0
 20
0.0
 30
0.0
1001
PHOENIX7010
1002
{
1002
}
  0
ENDBLK
  5
38AF
330
38AC
100
AcDbEntity
  8
0
 62
     7
100
AcDbBlockEnd
  0
BLOCK
  5
E295
330
E289
100
AcDbEntity
  8
0
 62
     7
370
    50
100
AcDbBlockBegin
  2
*D12
 70
     1
 10
0.0
 20
0.0
 30
0.0
  3
*D12
  1

  0
LINE
  5
14C81
330
E289
100
AcDbEntity
  8
0
  6
Continuous
 62
     1
370
    25
100
AcDbLine
 10
76.25000000000125
 20
215.6340679877798
 30
0.0
 11
76.25000000000125
 21
213.7343174835545
 31
0.0
  0
LINE
  5
14C82
330
E289
100
AcDbEntity
  8
0
  6
Continuous
 62
     1
370
    25
100
AcDbLine
 10
78.25000000000102
 20
216.353624654142
 30
0.0
 11
78.25000000000102
 21
213.7343174835545
 31
0.0
  0
LINE
  5
14C83
330
E289
100
AcDbEntity
  8
0
  6
Continuous
 62
     1
370
    25
100
AcDbLine
 10
81.97000000000102
 20
215.2343174835545
 30
0.0
 11
85.69000000000102
 21
215.2343174835545
 31
0.0
  0
LINE
  5
14C84
330
E289
100
AcDbEntity
  8
0
  6
Continuous
 62
     1
370
    25
100
AcDbLine
 10
72.53000000000125
 20
215.2343174835545
 30
0.0
 11
66.55364173228472
 21
215.2343174835545
 31
0.0
  0
LINE
  5
14C85
330
E289
100
AcDbEntity
  8
0
  6
Continuous
 62
     1
370
    25
100
AcDbLine
 10
78.25000000000102
 20
215.2343174835545
 30
0.0
 11
76.25000000000125
 21
215.2343174835545
 31
0.0
  0
INSERT
  5
14C86
330
E289
100
AcDbEntity
  8
0
  6
Continuous
 62
     1
370
    25
100
AcDbBlockReference
  2
_OPEN15
 10
78.25000000000102
 20
215.2343174835545
 30
0.0
 41
3.72
 42
3.72
 43
3.72
 50
180.0
  0
INSERT
  5
14C87
330
E289
100
AcDbEntity
  8
0
  6
Continuous
 62
     1
370
    25
100
AcDbBlockReference
  2
_OPEN15
 10
76.25000000000125
 20
215.2343174835545
 30
0.0
 41
3.72
 42
3.72
 43
3.72
  0
MTEXT
  5
14C88
330
E289
100
AcDbEntity
  8
0
  6
Continuous
 62
     5
370
    50
100
AcDbMText
 10
67.68182086614299
 20
216.8845635465466
 30
0.0
 40
2.5
 41
0.0
 71
     5
 72
     1
  1
\A1;2
 73
     1
 44
1.0
1001
ACAD
1000
MTEXTBEGIN
1070
    73
1070
     1
1070
    44
1040
1.0
1070
    74
1070
     0
1000
MTEXTEND
  0
POINT
  5
14C89
330
E289
100
AcDbEntity
  8
Defpoints
  6
Continuous
 62
     0
370
    50
100
AcDbPoint
 10
76.25000000000125
 20
215.6340679877798
 30
0.0
  0
POINT
  5
14C8A
330
E289
100
AcDbEntity
  8
Defpoints
  6
Continuous
 62
     0
370
    50
100
AcDbPoint
 10
78.25000000000102
 20
216.353624654142
 30
0.0
  0
POINT
  5
14C8B
330
E289
100
AcDbEntity
  8
Defpoints
  6
Continuous
 62
     0
370
    50
100
AcDbPoint
 10
78.25000000000102
 20
215.2343174835545
 30
0.0
  0
ENDBLK
  5
E296
330
E289
100
AcDbEntity
  8
0
 62
     7
370
    50
100
AcDbBlockEnd
  0
BLOCK
  5
E89E
330
E892
100
AcDbEntity
  8
0
 62
     7
370
    50
100
AcDbBlockBegin
  2
*D13
 70
     1
 10
0.0
 20
0.0
 30
0.0
  3
*D13
  1

  0
LINE
  5
14DE3
330
E892
100
AcDbEntity
  8
0
  6
Continuous
 62
     1
370
    25
100
AcDbLine
 10
63.35000000000104
 20
148.2499999999999
 30
0.0
 11
63.35000000000104
 21
159.2104154033399
 31
0.0
  0
LINE
  5
14DE4
330
E892
100
AcDbEntity
  8
0
  6
Continuous
 62
     1
370
    25
100
AcDbLine
 10
65.55000000000086
 20
148.2499999999999
 30
0.0
 11
65.55000000000086
 21
159.2104154033399
 31
0.0
  0
LINE
  5
14DE5
330
E892
100
AcDbEntity
  8
0
  6
Continuous
 62
     1
370
    25
100
AcDbLine
 10
59.63000000000104
 20
157.7104154033398
 30
0.0
 11
55.91000000000104
 21
157.7104154033398
 31
0.0
  0
LINE
  5
14DE6
330
E892
100
AcDbEntity
  8
0
  6
Continuous
 62
     1
370
    25
100
AcDbLine
 10
69.27000000000086
 20
157.7104154033398
 30
0.0
 11
72.99000000000086
 21
157.7104154033398
 31
0.0
  0
MTEXT
  5
14DE7
330
E892
100
AcDbEntity
  8
0
  6
Continuous
 62
     5
370
    50
100
AcDbMText
 10
71.30147004537502
 20
159.5445730562327
 30
0.0
 40
2.5
 41
0.0
 71
     5
 72
     1
  1
\A1;2.2
 73
     1
 44
1.0
1001
ACAD
1000
MTEXTBEGIN
1070
    73
1070
     1
1070
    44
1040
1.0
1070
    74
1070
     0
1000
MTEXTEND
  0
LINE
  5
14DE8
330
E892
100
AcDbEntity
  8
0
  6
Continuous
 62
     1
370
    25
100
AcDbLine
 10
63.35000000000104
 20
157.7104154033398
 30
0.0
 11
65.55000000000086
 21
157.7104154033398
 31
0.0
  0
INSERT
  5
14DE9
330
E892
100
AcDbEntity
  8
0
  6
Continuous
 62
     1
370
    25
100
AcDbBlockReference
  2
_OPEN15
 10
63.35000000000104
 20
157.7104154033398
 30
0.0
 41
3.72
 42
3.72
 43
3.72
  0
INSERT
  5
14DEA
330
E892
100
AcDbEntity
  8
0
  6
Continuous
 62
     1
370
    25
100
AcDbBlockReference
  2
_OPEN15
 10
65.55000000000086
 20
157.7104154033398
 30
0.0
 41
3.72
 42
3.72
 43
3.72
 50
180.0
  0
POINT
  5
14DEB
330
E892
100
AcDbEntity
  8
Defpoints
  6
Continuous
 62
     0
370
    50
100
AcDbPoint
 10
63.35000000000104
 20
148.2499999999999
 30
0.0
  0
POINT
  5
14DEC
330
E892
100
AcDbEntity
  8
Defpoints
  6
Continuous
 62
     0
370
    50
100
AcDbPoint
 10
65.55000000000086
 20
148.2499999999999
 30
0.0
  0
POINT
  5
14DED
330
E892
100
AcDbEntity
  8
Defpoints
  6
Continuous
 62
     0
370
    50
100
AcDbPoint
 10
65.55000000000086
 20
157.7104154033398
 30
0.0
  0
ENDBLK
  5
E89F
330
E892
100
AcDbEntity
  8
0
 62
     7
370
    50
100
AcDbBlockEnd
  0
BLOCK
  5
FCD2
330
FCC6
100
AcDbEntity
  8
0
 62
     7
370
    50
100
AcDbBlockBegin
  2
*D14
 70
     1
 10
0.0
 20
0.0
 30
0.0
  3
*D14
  1

  0
LINE
  5
14DEE
330
FCC6
100
AcDbEntity
  8
0
  6
Continuous
 62
     1
370
    25
100
AcDbLine
 10
78.25000000000102
 20
247.8999999999997
 30
0.0
 11
78.25000000000102
 21
257.9999999999998
 31
0.0
  0
LINE
  5
14DEF
330
FCC6
100
AcDbEntity
  8
0
  6
Continuous
 62
     1
370
    25
100
AcDbLine
 10
79.35000000000103
 20
247.9121320343559
 30
0.0
 11
79.35000000000103
 21
257.9999999999998
 31
0.0
  0
LINE
  5
14DF0
330
FCC6
100
AcDbEntity
  8
0
  6
Continuous
 62
     1
370
    25
100
AcDbLine
 10
74.53000000000102
 20
256.4999999999998
 30
0.0
 11
70.81000000000102
 21
256.4999999999998
 31
0.0
  0
LINE
  5
14DF1
330
FCC6
100
AcDbEntity
  8
0
  6
Continuous
 62
     1
370
    25
100
AcDbLine
 10
83.07000000000103
 20
256.4999999999998
 30
0.0
 11
90.59000000000102
 21
256.4999999999998
 31
0.0
  0
LINE
  5
14DF2
330
FCC6
100
AcDbEntity
  8
0
  6
Continuous
 62
     1
370
    25
100
AcDbLine
 10
78.25000000000102
 20
256.4999999999998
 30
0.0
 11
79.35000000000103
 21
256.4999999999998
 31
0.0
  0
INSERT
  5
14DF3
330
FCC6
100
AcDbEntity
  8
0
  6
Continuous
 62
     1
370
    25
100
AcDbBlockReference
  2
_OPEN15
 10
78.25000000000102
 20
256.4999999999998
 30
0.0
 41
3.72
 42
3.72
 43
3.72
  0
INSERT
  5
14DF4
330
FCC6
100
AcDbEntity
  8
0
  6
Continuous
 62
     1
370
    25
100
AcDbBlockReference
  2
_OPEN15
 10
79.35000000000103
 20
256.4999999999998
 30
0.0
 41
3.72
 42
3.72
 43
3.72
 50
180.0
  0
MTEXT
  5
14DF5
330
FCC6
100
AcDbEntity
  8
0
  6
Continuous
 62
     5
370
    50
100
AcDbMText
 10
88.69000000000104
 20
258.1499999999997
 30
0.0
 40
2.5
 41
0.0
 71
     5
 72
     1
  1
\A1;1.1
 73
     1
 44
1.0
1001
ACAD
1000
MTEXTBEGIN
1070
    73
1070
     1
1070
    44
1040
1.0
1070
    74
1070
     0
1000
MTEXTEND
  0
POINT
  5
14DF6
330
FCC6
100
AcDbEntity
  8
Defpoints
  6
Continuous
 62
     0
370
    50
100
AcDbPoint
 10
78.25000000000102
 20
247.8999999999997
 30
0.0
  0
POINT
  5
14DF7
330
FCC6
100
AcDbEntity
  8
Defpoints
  6
Continuous
 62
     0
370
    50
100
AcDbPoint
 10
79.35000000000103
 20
247.9121320343559
 30
0.0
  0
POINT
  5
14DF8
330
FCC6
100
AcDbEntity
  8
Defpoints
  6
Continuous
 62
     0
370
    50
100
AcDbPoint
 10
79.35000000000103
 20
256.4999999999998
 30
0.0
  0
ENDBLK
  5
FCD3
330
FCC6
100
AcDbEntity
  8
0
 62
     7
370
    50
100
AcDbBlockEnd
  0
BLOCK
  5
1016E
330
10162
100
AcDbEntity
  8
0
 62
     7
370
    50
100
AcDbBlockBegin
  2
*D15
 70
     1
 10
0.0
 20
0.0
 30
0.0
  3
*D15
  1

  0
LINE
  5
14DA4
330
10162
100
AcDbEntity
  8
0
  6
Continuous
 62
     1
370
    25
100
AcDbLine
 10
79.35000000000091
 20
247.9999999999999
 30
0.0
 11
79.35000000000091
 21
262.9999999999999
 31
0.0
  0
LINE
  5
14DA5
330
10162
100
AcDbEntity
  8
0
  6
Continuous
 62
     1
370
    25
100
AcDbLine
 10
46.35000000000002
 20
208.7000000000001
 30
0.0
 11
46.35000000000002
 21
262.9999999999999
 31
0.0
  0
LINE
  5
14DA6
330
10162
100
AcDbEntity
  8
0
  6
Continuous
 62
     1
370
    25
100
AcDbLine
 10
75.63000000000091
 20
261.4999999999999
 30
0.0
 11
50.07000000000002
 21
261.4999999999999
 31
0.0
  0
INSERT
  5
14DA7
330
10162
100
AcDbEntity
  8
0
  6
Continuous
 62
     1
370
    25
100
AcDbBlockReference
  2
_OPEN15
 10
79.35000000000091
 20
261.4999999999999
 30
0.0
 41
3.72
 42
3.72
 43
3.72
  0
INSERT
  5
14DA8
330
10162
100
AcDbEntity
  8
0
  6
Continuous
 62
     1
370
    25
100
AcDbBlockReference
  2
_OPEN15
 10
46.35000000000002
 20
261.4999999999999
 30
0.0
 41
3.72
 42
3.72
 43
3.72
 50
180.0
  0
MTEXT
  5
14DA9
330
10162
100
AcDbEntity
  8
0
  6
Continuous
 62
     5
370
    50
100
AcDbMText
 10
62.85000000000046
 20
263.1499999999999
 30
0.0
 40
2.5
 41
0.0
 71
     5
 72
     1
  1
\A1;33
 73
     1
 44
1.0
1001
ACAD
1000
MTEXTBEGIN
1070
    73
1070
     1
1070
    44
1040
1.0
1070
    74
1070
     0
1000
MTEXTEND
  0
POINT
  5
14DAA
330
10162
100
AcDbEntity
  8
Defpoints
  6
Continuous
 62
     0
370
    50
100
AcDbPoint
 10
79.35000000000091
 20
247.9999999999999
 30
0.0
  0
POINT
  5
14DAB
330
10162
100
AcDbEntity
  8
Defpoints
  6
Continuous
 62
     0
370
    50
100
AcDbPoint
 10
46.35000000000002
 20
208.7000000000001
 30
0.0
  0
POINT
  5
14DAC
330
10162
100
AcDbEntity
  8
Defpoints
  6
Continuous
 62
     0
370
    50
100
AcDbPoint
 10
46.35000000000002
 20
261.4999999999999
 30
0.0
  0
ENDBLK
  5
1016F
330
10162
100
AcDbEntity
  8
0
 62
     7
370
    50
100
AcDbBlockEnd
  0
BLOCK
  5
109FF
330
109F3
100
AcDbEntity
  8
0
 62
     7
370
    50
100
AcDbBlockBegin
  2
*D16
 70
     1
 10
0.0
 20
0.0
 30
0.0
  3
*D16
  1

  0
LINE
  5
14DDA
330
109F3
100
AcDbEntity
  8
0
  6
Continuous
 62
     1
370
    25
100
AcDbLine
 10
49.25000000000091
 20
241.45
 30
0.0
 11
37.84999999999992
 21
241.45
 31
0.0
  0
LINE
  5
14DDB
330
109F3
100
AcDbEntity
  8
0
  6
Continuous
 62
     1
370
    25
100
AcDbLine
 10
49.25000000000091
 20
152.5499999999998
 30
0.0
 11
37.84999999999989
 21
152.5499999999998
 31
0.0
  0
LINE
  5
14DDC
330
109F3
100
AcDbEntity
  8
0
  6
Continuous
 62
     1
370
    25
100
AcDbLine
 10
39.34999999999991
 20
237.73
 30
0.0
 11
39.3499999999999
 21
156.2699999999998
 31
0.0
  0
INSERT
  5
14DDD
330
109F3
100
AcDbEntity
  8
0
  6
Continuous
 62
     1
370
    25
100
AcDbBlockReference
  2
_OPEN15
 10
39.34999999999991
 20
241.45
 30
0.0
 41
3.72
 42
3.72
 43
3.72
 50
90.0
  0
INSERT
  5
14DDE
330
109F3
100
AcDbEntity
  8
0
  6
Continuous
 62
     1
370
    25
100
AcDbBlockReference
  2
_OPEN15
 10
39.3499999999999
 20
152.5499999999998
 30
0.0
 41
3.72
 42
3.72
 43
3.72
 50
270.0
  0
MTEXT
  5
14DDF
330
109F3
100
AcDbEntity
  8
0
  6
Continuous
 62
     5
370
    50
100
AcDbMText
 10
37.69999999999988
 20
197.0000000000003
 30
0.0
 40
2.5
 41
0.0
 71
     5
 72
     1
  1
\A1;88.9
 11
0.0000000000000001
 21
1.0
 31
0.0
 73
     1
 44
1.0
1001
ACAD
1000
MTEXTBEGIN
1070
    73
1070
     1
1070
    44
1040
1.0
1070
    74
1070
     0
1000
MTEXTEND
  0
POINT
  5
14DE0
330
109F3
100
AcDbEntity
  8
Defpoints
  6
Continuous
 62
     0
370
    50
100
AcDbPoint
 10
49.25000000000091
 20
241.45
 30
0.0
  0
POINT
  5
14DE1
330
109F3
100
AcDbEntity
  8
Defpoints
  6
Continuous
 62
     0
370
    50
100
AcDbPoint
 10
49.25000000000091
 20
152.5499999999998
 30
0.0
  0
POINT
  5
14DE2
330
109F3
100
AcDbEntity
  8
Defpoints
  6
Continuous
 62
     0
370
    50
100
AcDbPoint
 10
39.3499999999999
 20
152.5499999999998
 30
0.0
  0
ENDBLK
  5
10A00
330
109F3
100
AcDbEntity
  8
0
 62
     7
370
    50
100
AcDbBlockEnd
  0
BLOCK
  5
10D8A
330
10D7E
100
AcDbEntity
  8
0
 62
     7
370
    50
100
AcDbBlockBegin
  2
*D17
 70
     1
 10
0.0
 20
0.0
 30
0.0
  3
*D17
  1

  0
LINE
  5
14D9B
330
10D7E
100
AcDbEntity
  8
0
  6
Continuous
 62
     1
370
    25
100
AcDbLine
 10
57.65000000000032
 20
247.25
 30
0.0
 11
32.84999999999997
 21
247.25
 31
0.0
  0
LINE
  5
14D9C
330
10D7E
100
AcDbEntity
  8
0
  6
Continuous
 62
     1
370
    25
100
AcDbLine
 10
57.65000000000032
 20
146.7500000000003
 30
0.0
 11
32.84999999999995
 21
146.7500000000003
 31
0.0
  0
LINE
  5
14D9D
330
10D7E
100
AcDbEntity
  8
0
  6
Continuous
 62
     1
370
    25
100
AcDbLine
 10
34.34999999999997
 20
243.5299999999999
 30
0.0
 11
34.34999999999995
 21
150.4700000000003
 31
0.0
  0
INSERT
  5
14D9E
330
10D7E
100
AcDbEntity
  8
0
  6
Continuous
 62
     1
370
    25
100
AcDbBlockReference
  2
_OPEN15
 10
34.34999999999997
 20
247.25
 30
0.0
 41
3.72
 42
3.72
 43
3.72
 50
90.0
  0
INSERT
  5
14D9F
330
10D7E
100
AcDbEntity
  8
0
  6
Continuous
 62
     1
370
    25
100
AcDbBlockReference
  2
_OPEN15
 10
34.34999999999995
 20
146.7500000000003
 30
0.0
 41
3.72
 42
3.72
 43
3.72
 50
270.0
  0
MTEXT
  5
14DA0
330
10D7E
100
AcDbEntity
  8
0
  6
Continuous
 62
     5
370
    50
100
AcDbMText
 10
32.69999999999992
 20
197.0000000000001
 30
0.0
 40
2.5
 41
0.0
 71
     5
 72
     1
  1
\A1;100.5
 11
0.0000000000000001
 21
1.0
 31
0.0
 73
     1
 44
1.0
1001
ACAD
1000
MTEXTBEGIN
1070
    73
1070
     1
1070
    44
1040
1.0
1070
    74
1070
     0
1000
MTEXTEND
  0
POINT
  5
14DA1
330
10D7E
100
AcDbEntity
  8
Defpoints
  6
Continuous
 62
     0
370
    50
100
AcDbPoint
 10
57.65000000000032
 20
247.25
 30
0.0
  0
POINT
  5
14DA2
330
10D7E
100
AcDbEntity
  8
Defpoints
  6
Continuous
 62
     0
370
    50
100
AcDbPoint
 10
57.65000000000032
 20
146.7500000000003
 30
0.0
  0
POINT
  5
14DA3
330
10D7E
100
AcDbEntity
  8
Defpoints
  6
Continuous
 62
     0
370
    50
100
AcDbPoint
 10
34.34999999999995
 20
146.7500000000003
 30
0.0
  0
ENDBLK
  5
10D8B
330
10D7E
100
AcDbEntity
  8
0
 62
     7
370
    50
100
AcDbBlockEnd
  0
BLOCK
  5
114C6
330
114BA
100
AcDbEntity
  8
0
 62
     7
370
    50
100
AcDbBlockBegin
  2
*D18
 70
     1
 10
0.0
 20
0.0
 30
0.0
  3
*D18
  1

  0
LINE
  5
14D92
330
114BA
100
AcDbEntity
  8
0
  6
Continuous
 62
     1
370
    25
100
AcDbLine
 10
73.40747320730838
 20
244.2000000000001
 30
0.0
 11
91.75000000000109
 21
244.2000000000001
 31
0.0
  0
LINE
  5
14D93
330
114BA
100
AcDbEntity
  8
0
  6
Continuous
 62
     1
370
    25
100
AcDbLine
 10
73.56383571472292
 20
149.7999999999999
 30
0.0
 11
91.75000000000107
 21
149.7999999999999
 31
0.0
  0
LINE
  5
14D94
330
114BA
100
AcDbEntity
  8
0
  6
Continuous
 62
     1
370
    25
100
AcDbLine
 10
90.2500000000011
 20
240.4800000000002
 30
0.0
 11
90.25000000000106
 21
153.5199999999999
 31
0.0
  0
INSERT
  5
14D95
330
114BA
100
AcDbEntity
  8
0
  6
Continuous
 62
     1
370
    25
100
AcDbBlockReference
  2
_OPEN15
 10
90.2500000000011
 20
244.2000000000001
 30
0.0
 41
3.72
 42
3.72
 43
3.72
 50
90.0
  0
INSERT
  5
14D96
330
114BA
100
AcDbEntity
  8
0
  6
Continuous
 62
     1
370
    25
100
AcDbBlockReference
  2
_OPEN15
 10
90.25000000000106
 20
149.7999999999999
 30
0.0
 41
3.72
 42
3.72
 43
3.72
 50
270.0
  0
MTEXT
  5
14D97
330
114BA
100
AcDbEntity
  8
0
  6
Continuous
 62
     5
370
    50
100
AcDbMText
 10
88.60000000000104
 20
196.9999999999998
 30
0.0
 40
2.5
 41
0.0
 71
     5
 72
     1
  1
\A1;94.4
 11
0.0000000000000001
 21
1.0
 31
0.0
 73
     1
 44
1.0
1001
ACAD
1000
MTEXTBEGIN
1070
    73
1070
     1
1070
    44
1040
1.0
1070
    74
1070
     0
1000
MTEXTEND
  0
POINT
  5
14D98
330
114BA
100
AcDbEntity
  8
Defpoints
  6
Continuous
 62
     0
370
    50
100
AcDbPoint
 10
73.40747320730838
 20
244.2000000000001
 30
0.0
  0
POINT
  5
14D99
330
114BA
100
AcDbEntity
  8
Defpoints
  6
Continuous
 62
     0
370
    50
100
AcDbPoint
 10
73.56383571472292
 20
149.7999999999999
 30
0.0
  0
POINT
  5
14D9A
330
114BA
100
AcDbEntity
  8
Defpoints
  6
Continuous
 62
     0
370
    50
100
AcDbPoint
 10
90.25000000000106
 20
149.7999999999999
 30
0.0
  0
ENDBLK
  5
114C7
330
114BA
100
AcDbEntity
  8
0
 62
     7
370
    50
100
AcDbBlockEnd
  0
BLOCK
  5
11BFF
330
11BF3
100
AcDbEntity
  8
0
 62
     7
370
    50
100
AcDbBlockBegin
  2
*D19
 70
     1
 10
0.0
 20
0.0
 30
0.0
  3
*D19
  1

  0
LINE
  5
14D89
330
11BF3
100
AcDbEntity
  8
0
  6
Continuous
 62
     1
370
    25
100
AcDbLine
 10
78.85000000000082
 20
246.4999999999999
 30
0.0
 11
96.75000000000109
 21
246.4999999999999
 31
0.0
  0
LINE
  5
14D8A
330
11BF3
100
AcDbEntity
  8
0
  6
Continuous
 62
     1
370
    25
100
AcDbLine
 10
78.85000000000104
 20
147.5000000000001
 30
0.0
 11
96.75000000000105
 21
147.5000000000001
 31
0.0
  0
LINE
  5
14D8B
330
11BF3
100
AcDbEntity
  8
0
  6
Continuous
 62
     1
370
    25
100
AcDbLine
 10
95.25000000000108
 20
242.7799999999999
 30
0.0
 11
95.25000000000105
 21
151.2200000000001
 31
0.0
  0
INSERT
  5
14D8C
330
11BF3
100
AcDbEntity
  8
0
  6
Continuous
 62
     1
370
    25
100
AcDbBlockReference
  2
_OPEN15
 10
95.25000000000108
 20
246.4999999999999
 30
0.0
 41
3.72
 42
3.72
 43
3.72
 50
90.0
  0
INSERT
  5
14D8D
330
11BF3
100
AcDbEntity
  8
0
  6
Continuous
 62
     1
370
    25
100
AcDbBlockReference
  2
_OPEN15
 10
95.25000000000105
 20
147.5000000000001
 30
0.0
 41
3.72
 42
3.72
 43
3.72
 50
270.0
  0
MTEXT
  5
14D8E
330
11BF3
100
AcDbEntity
  8
0
  6
Continuous
 62
     5
370
    50
100
AcDbMText
 10
93.60000000000104
 20
196.9999999999998
 30
0.0
 40
2.5
 41
0.0
 71
     5
 72
     1
  1
\A1;99
 11
0.0000000000000001
 21
1.0
 31
0.0
 73
     1
 44
1.0
1001
ACAD
1000
MTEXTBEGIN
1070
    73
1070
     1
1070
    44
1040
1.0
1070
    74
1070
     0
1000
MTEXTEND
  0
POINT
  5
14D8F
330
11BF3
100
AcDbEntity
  8
Defpoints
  6
Continuous
 62
     0
370
    50
100
AcDbPoint
 10
78.85000000000082
 20
246.4999999999999
 30
0.0
  0
POINT
  5
14D90
330
11BF3
100
AcDbEntity
  8
Defpoints
  6
Continuous
 62
     0
370
    50
100
AcDbPoint
 10
78.85000000000104
 20
147.5000000000001
 30
0.0
  0
POINT
  5
14D91
330
11BF3
100
AcDbEntity
  8
Defpoints
  6
Continuous
 62
     0
370
    50
100
AcDbPoint
 10
95.25000000000105
 20
147.5000000000001
 30
0.0
  0
ENDBLK
  5
11C00
330
11BF3
100
AcDbEntity
  8
0
 62
     7
370
    50
100
AcDbBlockEnd
  0
BLOCK
  5
12378
330
1236C
100
AcDbEntity
  8
0
 62
     7
370
    50
100
AcDbBlockBegin
  2
*D20
 70
     1
 10
0.0
 20
0.0
 30
0.0
  3
*D20
  1

  0
LINE
  5
14D80
330
1236C
100
AcDbEntity
  8
0
  6
Continuous
 62
     1
370
    25
100
AcDbLine
 10
78.25000000000102
 20
249.4999999999999
 30
0.0
 11
101.7500000000011
 21
249.4999999999999
 31
0.0
  0
LINE
  5
14D81
330
1236C
100
AcDbEntity
  8
0
  6
Continuous
 62
     1
370
    25
100
AcDbLine
 10
78.35000000000104
 20
144.5
 30
0.0
 11
101.750000000001
 21
144.5
 31
0.0
  0
LINE
  5
14D82
330
1236C
100
AcDbEntity
  8
0
  6
Continuous
 62
     1
370
    25
100
AcDbLine
 10
100.2500000000011
 20
245.7799999999999
 30
0.0
 11
100.250000000001
 21
148.22
 31
0.0
  0
INSERT
  5
14D83
330
1236C
100
AcDbEntity
  8
0
  6
Continuous
 62
     1
370
    25
100
AcDbBlockReference
  2
_OPEN15
 10
100.2500000000011
 20
249.4999999999999
 30
0.0
 41
3.72
 42
3.72
 43
3.72
 50
90.0
  0
INSERT
  5
14D84
330
1236C
100
AcDbEntity
  8
0
  6
Continuous
 62
     1
370
    25
100
AcDbBlockReference
  2
_OPEN15
 10
100.250000000001
 20
144.5
 30
0.0
 41
3.72
 42
3.72
 43
3.72
 50
270.0
  0
MTEXT
  5
14D85
330
1236C
100
AcDbEntity
  8
0
  6
Continuous
 62
     5
370
    50
100
AcDbMText
 10
98.60000000000106
 20
196.9999999999998
 30
0.0
 40
2.5
 41
0.0
 71
     5
 72
     1
  1
\A1;105
 11
0.0000000000000001
 21
1.0
 31
0.0
 73
     1
 44
1.0
1001
ACAD
1000
MTEXTBEGIN
1070
    73
1070
     1
1070
    44
1040
1.0
1070
    74
1070
     0
1000
MTEXTEND
  0
POINT
  5
14D86
330
1236C
100
AcDbEntity
  8
Defpoints
  6
Continuous
 62
     0
370
    50
100
AcDbPoint
 10
78.25000000000102
 20
249.4999999999999
 30
0.0
  0
POINT
  5
14D87
330
1236C
100
AcDbEntity
  8
Defpoints
  6
Continuous
 62
     0
370
    50
100
AcDbPoint
 10
78.35000000000104
 20
144.5
 30
0.0
  0
POINT
  5
14D88
330
1236C
100
AcDbEntity
  8
Defpoints
  6
Continuous
 62
     0
370
    50
100
AcDbPoint
 10
100.250000000001
 20
144.5
 30
0.0
  0
ENDBLK
  5
12379
330
1236C
100
AcDbEntity
  8
0
 62
     7
370
    50
100
AcDbBlockEnd
  0
BLOCK
  5
12AE3
330
12AD7
100
AcDbEntity
  8
0
 62
     7
370
    50
100
AcDbBlockBegin
  2
*D21
 70
     1
 10
0.0
 20
0.0
 30
0.0
  3
*D21
  1

  0
LINE
  5
14DC8
330
12AD7
100
AcDbEntity
  8
0
  6
Continuous
 62
     1
370
    25
100
AcDbLine
 10
68.75000000000091
 20
146.7500000000001
 30
0.0
 11
68.75000000000091
 21
136.0000000000001
 31
0.0
  0
LINE
  5
14DC9
330
12AD7
100
AcDbEntity
  8
0
  6
Continuous
 62
     1
370
    25
100
AcDbLine
 10
78.25000000000102
 20
146.1
 30
0.0
 11
78.25000000000102
 21
136.0000000000001
 31
0.0
  0
LINE
  5
14DCA
330
12AD7
100
AcDbEntity
  8
0
  6
Continuous
 62
     1
370
    25
100
AcDbLine
 10
72.47000000000091
 20
137.5000000000001
 30
0.0
 11
74.53000000000102
 21
137.5000000000001
 31
0.0
  0
INSERT
  5
14DCB
330
12AD7
100
AcDbEntity
  8
0
  6
Continuous
 62
     1
370
    25
100
AcDbBlockReference
  2
_OPEN15
 10
68.75000000000091
 20
137.5000000000001
 30
0.0
 41
3.72
 42
3.72
 43
3.72
 50
180.0
  0
INSERT
  5
14DCC
330
12AD7
100
AcDbEntity
  8
0
  6
Continuous
 62
     1
370
    25
100
AcDbBlockReference
  2
_OPEN15
 10
78.25000000000102
 20
137.5000000000001
 30
0.0
 41
3.72
 42
3.72
 43
3.72
  0
MTEXT
  5
14DCD
330
12AD7
100
AcDbEntity
  8
0
  6
Continuous
 62
     5
370
    50
100
AcDbMText
 10
73.50000000000097
 20
139.1500000000001
 30
0.0
 40
2.5
 41
0.0
 71
     5
 72
     1
  1
\A1;9.5
 73
     1
 44
1.0
1001
ACAD
1000
MTEXTBEGIN
1070
    73
1070
     1
1070
    44
1040
1.0
1070
    74
1070
     0
1000
MTEXTEND
  0
POINT
  5
14DCE
330
12AD7
100
AcDbEntity
  8
Defpoints
  6
Continuous
 62
     0
370
    50
100
AcDbPoint
 10
68.75000000000091
 20
146.7500000000001
 30
0.0
  0
POINT
  5
14DCF
330
12AD7
100
AcDbEntity
  8
Defpoints
  6
Continuous
 62
     0
370
    50
100
AcDbPoint
 10
78.25000000000102
 20
146.1
 30
0.0
  0
POINT
  5
14DD0
330
12AD7
100
AcDbEntity
  8
Defpoints
  6
Continuous
 62
     0
370
    50
100
AcDbPoint
 10
78.25000000000102
 20
137.5000000000001
 30
0.0
  0
ENDBLK
  5
12AE4
330
12AD7
100
AcDbEntity
  8
0
 62
     7
370
    50
100
AcDbBlockEnd
  0
BLOCK
  5
134C4
330
134B8
100
AcDbEntity
  8
0
 62
     7
370
    50
100
AcDbBlockBegin
  2
*D22
 70
     1
 10
0.0
 20
0.0
 30
0.0
  3
*D22
  1

  0
LINE
  5
14DBF
330
134B8
100
AcDbEntity
  8
0
  6
Continuous
 62
     1
370
    25
100
AcDbLine
 10
65.55000000000086
 20
146.7499999999999
 30
0.0
 11
65.55000000000086
 21
131.0000000000001
 31
0.0
  0
LINE
  5
14DC0
330
134B8
100
AcDbEntity
  8
0
  6
Continuous
 62
     1
370
    25
100
AcDbLine
 10
78.25000000000102
 20
146.1
 30
0.0
 11
78.25000000000102
 21
131.0000000000001
 31
0.0
  0
LINE
  5
14DC1
330
134B8
100
AcDbEntity
  8
0
  6
Continuous
 62
     1
370
    25
100
AcDbLine
 10
69.27000000000086
 20
132.5000000000001
 30
0.0
 11
74.53000000000102
 21
132.5000000000001
 31
0.0
  0
INSERT
  5
14DC2
330
134B8
100
AcDbEntity
  8
0
  6
Continuous
 62
     1
370
    25
100
AcDbBlockReference
  2
_OPEN15
 10
65.55000000000086
 20
132.5000000000001
 30
0.0
 41
3.72
 42
3.72
 43
3.72
 50
180.0
  0
INSERT
  5
14DC3
330
134B8
100
AcDbEntity
  8
0
  6
Continuous
 62
     1
370
    25
100
AcDbBlockReference
  2
_OPEN15
 10
78.25000000000102
 20
132.5000000000001
 30
0.0
 41
3.72
 42
3.72
 43
3.72
  0
MTEXT
  5
14DC4
330
134B8
100
AcDbEntity
  8
0
  6
Continuous
 62
     5
370
    50
100
AcDbMText
 10
71.90000000000094
 20
134.1502460629922
 30
0.0
 40
2.5
 41
0.0
 71
     5
 72
     1
  1
\A1;12.7
 73
     1
 44
1.0
1001
ACAD
1000
MTEXTBEGIN
1070
    73
1070
     1
1070
    44
1040
1.0
1070
    74
1070
     0
1000
MTEXTEND
  0
POINT
  5
14DC5
330
134B8
100
AcDbEntity
  8
Defpoints
  6
Continuous
 62
     0
370
    50
100
AcDbPoint
 10
65.55000000000086
 20
146.7499999999999
 30
0.0
  0
POINT
  5
14DC6
330
134B8
100
AcDbEntity
  8
Defpoints
  6
Continuous
 62
     0
370
    50
100
AcDbPoint
 10
78.25000000000102
 20
146.1
 30
0.0
  0
POINT
  5
14DC7
330
134B8
100
AcDbEntity
  8
Defpoints
  6
Continuous
 62
     0
370
    50
100
AcDbPoint
 10
78.25000000000102
 20
132.5000000000001
 30
0.0
  0
ENDBLK
  5
134C5
330
134B8
100
AcDbEntity
  8
0
 62
     7
370
    50
100
AcDbBlockEnd
  0
BLOCK
  5
13B5B
330
13B4F
100
AcDbEntity
  8
0
 62
     7
370
    50
100
AcDbBlockBegin
  2
*D23
 70
     1
 10
0.0
 20
0.0
 30
0.0
  3
*D23
  1

  0
LINE
  5
14DB6
330
13B4F
100
AcDbEntity
  8
0
  6
Continuous
 62
     1
370
    25
100
AcDbLine
 10
62.35000000000105
 20
146.7499999999999
 30
0.0
 11
62.35000000000105
 21
126.0000000000001
 31
0.0
  0
LINE
  5
14DB7
330
13B4F
100
AcDbEntity
  8
0
  6
Continuous
 62
     1
370
    25
100
AcDbLine
 10
78.25000000000102
 20
146.1
 30
0.0
 11
78.25000000000102
 21
126.0000000000001
 31
0.0
  0
LINE
  5
14DB8
330
13B4F
100
AcDbEntity
  8
0
  6
Continuous
 62
     1
370
    25
100
AcDbLine
 10
66.07000000000105
 20
127.5000000000001
 30
0.0
 11
74.53000000000102
 21
127.5000000000001
 31
0.0
  0
INSERT
  5
14DB9
330
13B4F
100
AcDbEntity
  8
0
  6
Continuous
 62
     1
370
    25
100
AcDbBlockReference
  2
_OPEN15
 10
62.35000000000105
 20
127.5000000000001
 30
0.0
 41
3.72
 42
3.72
 43
3.72
 50
180.0
  0
INSERT
  5
14DBA
330
13B4F
100
AcDbEntity
  8
0
  6
Continuous
 62
     1
370
    25
100
AcDbBlockReference
  2
_OPEN15
 10
78.25000000000102
 20
127.5000000000001
 30
0.0
 41
3.72
 42
3.72
 43
3.72
  0
MTEXT
  5
14DBB
330
13B4F
100
AcDbEntity
  8
0
  6
Continuous
 62
     5
370
    50
100
AcDbMText
 10
69.99714357387901
 20
129.1500000000001
 30
0.0
 40
2.5
 41
0.0
 71
     5
 72
     1
  1
\A1;15.9
 73
     1
 44
1.0
1001
ACAD
1000
MTEXTBEGIN
1070
    73
1070
     1
1070
    44
1040
1.0
1070
    74
1070
     0
1000
MTEXTEND
  0
POINT
  5
14DBC
330
13B4F
100
AcDbEntity
  8
Defpoints
  6
Continuous
 62
     0
370
    50
100
AcDbPoint
 10
62.35000000000105
 20
146.7499999999999
 30
0.0
  0
POINT
  5
14DBD
330
13B4F
100
AcDbEntity
  8
Defpoints
  6
Continuous
 62
     0
370
    50
100
AcDbPoint
 10
78.25000000000102
 20
146.1
 30
0.0
  0
POINT
  5
14DBE
330
13B4F
100
AcDbEntity
  8
Defpoints
  6
Continuous
 62
     0
370
    50
100
AcDbPoint
 10
78.25000000000102
 20
127.5000000000001
 30
0.0
  0
ENDBLK
  5
13B5C
330
13B4F
100
AcDbEntity
  8
0
 62
     7
370
    50
100
AcDbBlockEnd
  0
BLOCK
  5
14160
330
14154
100
AcDbEntity
  8
0
 62
     7
370
    50
100
AcDbBlockBegin
  2
*D24
 70
     1
 10
0.0
 20
0.0
 30
0.0
  3
*D24
  1

  0
LINE
  5
14DAD
330
14154
100
AcDbEntity
  8
0
  6
Continuous
 62
     1
370
    25
100
AcDbLine
 10
78.25000000000102
 20
146.1
 30
0.0
 11
78.25000000000102
 21
121.0000000000001
 31
0.0
  0
LINE
  5
14DAE
330
14154
100
AcDbEntity
  8
0
  6
Continuous
 62
     1
370
    25
100
AcDbLine
 10
53.85000000000037
 20
180.8
 30
0.0
 11
53.85000000000036
 21
121.0000000000001
 31
0.0
  0
LINE
  5
14DAF
330
14154
100
AcDbEntity
  8
0
  6
Continuous
 62
     1
370
    25
100
AcDbLine
 10
74.53000000000102
 20
122.5000000000001
 30
0.0
 11
57.57000000000036
 21
122.5000000000001
 31
0.0
  0
INSERT
  5
14DB0
330
14154
100
AcDbEntity
  8
0
  6
Continuous
 62
     1
370
    25
100
AcDbBlockReference
  2
_OPEN15
 10
78.25000000000102
 20
122.5000000000001
 30
0.0
 41
3.72
 42
3.72
 43
3.72
  0
INSERT
  5
14DB1
330
14154
100
AcDbEntity
  8
0
  6
Continuous
 62
     1
370
    25
100
AcDbBlockReference
  2
_OPEN15
 10
53.85000000000036
 20
122.5000000000001
 30
0.0
 41
3.72
 42
3.72
 43
3.72
 50
180.0
  0
MTEXT
  5
14DB2
330
14154
100
AcDbEntity
  8
0
  6
Continuous
 62
     5
370
    50
100
AcDbMText
 10
65.9971435738794
 20
124.1502460629922
 30
0.0
 40
2.5
 41
0.0
 71
     5
 72
     1
  1
\A1;24.4
 73
     1
 44
1.0
1001
ACAD
1000
MTEXTBEGIN
1070
    73
1070
     1
1070
    44
1040
1.0
1070
    74
1070
     0
1000
MTEXTEND
  0
POINT
  5
14DB3
330
14154
100
AcDbEntity
  8
Defpoints
  6
Continuous
 62
     0
370
    50
100
AcDbPoint
 10
78.25000000000102
 20
146.1
 30
0.0
  0
POINT
  5
14DB4
330
14154
100
AcDbEntity
  8
Defpoints
  6
Continuous
 62
     0
370
    50
100
AcDbPoint
 10
53.85000000000037
 20
180.8
 30
0.0
  0
POINT
  5
14DB5
330
14154
100
AcDbEntity
  8
Defpoints
  6
Continuous
 62
     0
370
    50
100
AcDbPoint
 10
53.85000000000036
 20
122.5000000000001
 30
0.0
  0
ENDBLK
  5
14161
330
14154
100
AcDbEntity
  8
0
 62
     7
370
    50
100
AcDbBlockEnd
  0
BLOCK
  5
147D0
330
147C4
100
AcDbEntity
  8
0
 62
     7
370
    50
100
AcDbBlockBegin
  2
*D25
 70
     1
 10
0.0
 20
0.0
 30
0.0
  3
*D25
  1

  0
LINE
  5
14DD1
330
147C4
100
AcDbEntity
  8
0
  6
Continuous
 62
     1
370
    25
100
AcDbLine
 10
76.25000000000111
 20
205.4002479013423
 30
0.0
 11
76.25000000000111
 21
211.663989407344
 31
0.0
  0
LINE
  5
14DD2
330
147C4
100
AcDbEntity
  8
0
  6
Continuous
 62
     1
370
    25
100
AcDbLine
 10
57.35000000000036
 20
207.4999999999999
 30
0.0
 11
57.35000000000036
 21
211.663989407344
 31
0.0
  0
LINE
  5
14DD3
330
147C4
100
AcDbEntity
  8
0
  6
Continuous
 62
     1
370
    25
100
AcDbLine
 10
72.53000000000111
 20
210.1639894073441
 30
0.0
 11
61.07000000000036
 21
210.1639894073441
 31
0.0
  0
INSERT
  5
14DD4
330
147C4
100
AcDbEntity
  8
0
  6
Continuous
 62
     1
370
    25
100
AcDbBlockReference
  2
_OPEN15
 10
76.25000000000111
 20
210.1639894073441
 30
0.0
 41
3.72
 42
3.72
 43
3.72
  0
INSERT
  5
14DD5
330
147C4
100
AcDbEntity
  8
0
  6
Continuous
 62
     1
370
    25
100
AcDbBlockReference
  2
_OPEN15
 10
57.35000000000036
 20
210.1639894073441
 30
0.0
 41
3.72
 42
3.72
 43
3.72
 50
180.0
  0
MTEXT
  5
14DD6
330
147C4
100
AcDbEntity
  8
0
  6
Continuous
 62
     5
370
    50
100
AcDbMText
 10
66.59346342317076
 20
211.813989407344
 30
0.0
 40
2.5
 41
0.0
 71
     5
 72
     1
  1
\A1;18.9
 73
     1
 44
1.0
1001
ACAD
1000
MTEXTBEGIN
1070
    73
1070
     1
1070
    44
1040
1.0
1070
    74
1070
     0
1000
MTEXTEND
  0
POINT
  5
14DD7
330
147C4
100
AcDbEntity
  8
Defpoints
  6
Continuous
 62
     0
370
    50
100
AcDbPoint
 10
76.25000000000111
 20
205.4002479013423
 30
0.0
  0
POINT
  5
14DD8
330
147C4
100
AcDbEntity
  8
Defpoints
  6
Continuous
 62
     0
370
    50
100
AcDbPoint
 10
57.35000000000036
 20
207.4999999999999
 30
0.0
  0
POINT
  5
14DD9
330
147C4
100
AcDbEntity
  8
Defpoints
  6
Continuous
 62
     0
370
    50
100
AcDbPoint
 10
57.35000000000036
 20
210.1639894073441
 30
0.0
  0
ENDBLK
  5
147D1
330
147C4
100
AcDbEntity
  8
0
 62
     7
370
    50
100
AcDbBlockEnd
  0
ENDSEC
  0
SECTION
  2
ENTITIES
  0
MTEXT
  5
3A2C
102
{ACAD_REACTORS
330
14F7B
102
}
330
1F
100
AcDbEntity
  8
0
  6
Continuous
 62
     5
370
    25
100
AcDbMText
 10
124.9006671205018
 20
222.0608224229887
 30
0.0
 40
2.5
 41
35.0
 71
     1
 72
     5
  1
Modell/{\Q20;model}\PARP 105/31-52.5\PARP 105/31-70\PARP 105/31-105\PARP 105/31-140\PARP 105/31-175\PARP 105/31-210\PARP 105/31-245\PARP 105/31-1000
 73
     1
 44
1.0
1001
PHOENIX7010
1002
{
1070
    41
1040
1.0
1002
}
1001
ACAD
1000
MTEXTBEGIN
1070
    73
1070
     1
1070
    44
1040
1.0
1070
    74
1070
     0
1000
MTEXTEND
  0
LINE
  5
3A33
102
{ACAD_REACTORS
330
14F7B
102
}
330
1F
100
AcDbEntity
  8
0
  6
Continuous
 62
     1
370
    25
100
AcDbLine
 10
122.2828159023747
 20
189.3077221726479
 30
0.0
 11
197.5185134793992
 21
189.3077221726479
 31
0.0
1001
PHOENIX7010
1002
{
1070
    41
1040
1.0
1002
}
  0
LINE
  5
3A34
102
{ACAD_REACTORS
330
14F7B
102
}
330
1F
100
AcDbEntity
  8
0
  6
Continuous
 62
     1
370
    25
100
AcDbLine
 10
122.2828159023747
 20
193.467722172648
 30
0.0
 11
197.5185134793992
 21
193.467722172648
 31
0.0
1001
PHOENIX7010
1002
{
1070
    41
1040
1.0
1002
}
  0
LINE
  5
3A35
102
{ACAD_REACTORS
330
14F7B
102
}
330
1F
100
AcDbEntity
  8
0
  6
Continuous
 62
     1
370
    25
100
AcDbLine
 10
122.2828159023747
 20
197.6277221726478
 30
0.0
 11
197.5185134793992
 21
197.6277221726478
 31
0.0
1001
PHOENIX7010
1002
{
1070
    41
1040
1.0
1002
}
  0
LINE
  5
3A36
102
{ACAD_REACTORS
330
14F7B
102
}
330
1F
100
AcDbEntity
  8
0
  6
Continuous
 62
     1
370
    25
100
AcDbLine
 10
122.2828159023747
 20
201.7877221726479
 30
0.0
 11
197.5185134793992
 21
201.7877221726479
 31
0.0
1001
PHOENIX7010
1002
{
1070
    41
1040
1.0
1002
}
  0
LINE
  5
3A37
102
{ACAD_REACTORS
330
14F7B
102
}
330
1F
100
AcDbEntity
  8
0
  6
Continuous
 62
     1
370
    25
100
AcDbLine
 10
122.2828159023747
 20
205.947722172648
 30
0.0
 11
197.5185134793992
 21
205.947722172648
 31
0.0
1001
PHOENIX7010
1002
{
1070
    41
1040
1.0
1002
}
  0
LINE
  5
3A38
102
{ACAD_REACTORS
330
14F7B
102
}
330
1F
100
AcDbEntity
  8
0
  6
Continuous
 62
     1
370
    25
100
AcDbLine
 10
122.2828159023747
 20
210.107722172648
 30
0.0
 11
197.5185134793992
 21
210.107722172648
 31
0.0
1001
PHOENIX7010
1002
{
1070
    41
1040
1.0
1002
}
  0
LINE
  5
3A39
102
{ACAD_REACTORS
330
14F7B
102
}
330
1F
100
AcDbEntity
  8
0
  6
Continuous
 62
     1
370
    25
100
AcDbLine
 10
122.2828159023747
 20
214.2677221726479
 30
0.0
 11
197.5185134793992
 21
214.2677221726479
 31
0.0
1001
PHOENIX7010
1002
{
1070
    41
1040
1.0
1002
}
  0
LINE
  5
3A3A
102
{ACAD_REACTORS
330
14F7B
102
}
330
1F
100
AcDbEntity
  8
0
  6
Continuous
 62
     1
370
    25
100
AcDbLine
 10
122.2828159023747
 20
218.427722172648
 30
0.0
 11
197.5185134793992
 21
218.427722172648
 31
0.0
1001
PHOENIX7010
1002
{
1070
    41
1040
1.0
1002
}
  0
MTEXT
  5
3A3B
102
{ACAD_REACTORS
330
14F7B
102
}
330
1F
100
AcDbEntity
  8
0
  6
Continuous
 62
     5
370
    25
100
AcDbMText
 10
158.696589131174
 20
230.484928603492
 30
0.0
 40
2.5
 41
42.94689699906666
 71
     1
 72
     5
  1
LG=Grundprofillänge/\P{\Q20;LG=basic profile \P     length}\P            42.5\P            60.0\P            95.0\P           130.0\P           165.0\P           200.0\P           235.0\P           990.0
 73
     1
 44
1.0
1001
PHOENIX7010
1002
{
1070
    41
1040
1.0
1002
}
1001
ACAD
1000
MTEXTBEGIN
1070
    73
1070
     1
1070
    44
1040
1.0
1070
    74
1070
     0
1000
MTEXTEND
  0
LINE
  5
3A4B
102
{ACAD_REACTORS
330
14F7B
102
}
330
1F
100
AcDbEntity
  8
0
  6
Continuous
 62
     1
370
    25
100
AcDbLine
 10
157.2828159023747
 20
185.1477221726478
 30
0.0
 11
157.2828159023747
 21
230.8945711361803
 31
0.0
1001
PHOENIX7010
1002
{
1070
    41
1040
1.0
1002
}
  0
LINE
  5
3A4E
102
{ACAD_REACTORS
330
14F7B
102
}
330
1F
100
AcDbEntity
  8
0
  6
Continuous
 62
     1
370
    25
100
AcDbLine
 10
197.5185134793992
 20
185.1477221726478
 30
0.0
 11
197.5185134793992
 21
230.8945711361803
 31
0.0
1001
PHOENIX7010
1002
{
1070
    41
1040
1.0
1002
}
  0
LINE
  5
420E
102
{ACAD_REACTORS
330
424F
102
}
330
1F
100
AcDbEntity
  8
0
  6
Continuous
 62
     1
370
    50
100
AcDbLine
 10
52.85000000000002
 20
214.5
 30
0.0
 11
52.85000000000002
 21
211.2999999999999
 31
0.0
1001
PHOENIX7010
1002
{
1070
    41
1040
1.0
1002
}
  0
LINE
  5
420F
102
{ACAD_REACTORS
330
424F
102
}
330
1F
100
AcDbEntity
  8
0
  6
Continuous
 62
     1
370
    50
100
AcDbLine
 10
52.85000000000014
 20
214.4999999999998
 30
0.0
 11
53.85000000000013
 21
214.4999999999998
 31
0.0
1001
PHOENIX7010
1002
{
1070
    41
1040
1.0
1002
}
  0
ARC
  5
4210
102
{ACAD_REACTORS
330
424F
102
}
330
1F
100
AcDbEntity
  8
0
  6
Continuous
 62
     1
370
    50
100
AcDbCircle
 10
52.04999999999995
 20
211.2999999999999
 30
0.0
 40
1.799999999999999
100
AcDbArc
 50
270.0
 51
0.0
1001
PHOENIX7010
1002
{
1070
    41
1040
1.0
1002
}
  0
LINE
  5
4211
102
{ACAD_REACTORS
330
424F
102
}
330
1F
100
AcDbEntity
  8
0
  6
Continuous
 62
     1
370
    50
100
AcDbLine
 10
52.05000000000007
 20
209.4999999999998
 30
0.0
 11
48.15000000000009
 21
209.5
 31
0.0
1001
PHOENIX7010
1002
{
1070
    41
1040
1.0
1002
}
  0
LINE
  5
4212
102
{ACAD_REACTORS
330
424F
102
}
330
1F
100
AcDbEntity
  8
0
  6
Continuous
 62
     1
370
    50
100
AcDbLine
 10
52.05000000000007
 20
210.5
 30
0.0
 11
48.15000000000009
 21
210.5
 31
0.0
1001
PHOENIX7010
1002
{
1070
    41
1040
1.0
1002
}
  0
ARC
  5
4213
102
{ACAD_REACTORS
330
424F
102
}
330
1F
100
AcDbEntity
  8
0
  6
Continuous
 62
     1
370
    50
100
AcDbCircle
 10
52.04999999999995
 20
211.2999999999999
 30
0.0
 40
0.8
100
AcDbArc
 50
270.0
 51
0.0
1001
PHOENIX7010
1002
{
1070
    41
1040
1.0
1002
}
  0
ARC
  5
4214
102
{ACAD_REACTORS
330
424F
102
}
330
1F
100
AcDbEntity
  8
0
  6
Continuous
 62
     1
370
    50
100
AcDbCircle
 10
48.15000000000009
 20
208.7000000000001
 30
0.0
 40
1.799999999999999
100
AcDbArc
 50
90.0
 51
180.0
1001
PHOENIX7010
1002
{
1070
    41
1040
1.0
1002
}
  0
ARC
  5
4215
102
{ACAD_REACTORS
330
424F
102
}
330
1F
100
AcDbEntity
  8
0
  6
Continuous
 62
     1
370
    50
100
AcDbCircle
 10
48.15000000000009
 20
208.7000000000001
 30
0.0
 40
0.8
100
AcDbArc
 50
90.0
 51
180.0
1001
PHOENIX7010
1002
{
1070
    41
1040
1.0
1002
}
  0
LINE
  5
4216
102
{ACAD_REACTORS
330
424F
102
}
330
1F
100
AcDbEntity
  8
0
  6
Continuous
 62
     1
370
    50
100
AcDbLine
 10
47.35000000000002
 20
185.2999999999999
 30
0.0
 11
47.35000000000002
 21
208.6999999999998
 31
0.0
1001
PHOENIX7010
1002
{
1070
    41
1040
1.0
1002
}
  0
LINE
  5
4217
102
{ACAD_REACTORS
330
424F
330
109AE
102
}
330
1F
100
AcDbEntity
  8
0
  6
Continuous
 62
     1
370
    50
100
AcDbLine
 10
46.35000000000002
 20
185.2999999999999
 30
0.0
 11
46.35000000000002
 21
208.7000000000001
 31
0.0
1001
PHOENIX7010
1002
{
1070
    41
1040
1.0
1002
}
  0
ARC
  5
4218
102
{ACAD_REACTORS
330
424F
102
}
330
1F
100
AcDbEntity
  8
0
  6
Continuous
 62
     1
370
    50
100
AcDbCircle
 10
48.15000000000009
 20
185.2999999999999
 30
0.0
 40
1.800000000000011
100
AcDbArc
 50
180.0
 51
270.0
1001
PHOENIX7010
1002
{
1070
    41
1040
1.0
1002
}
  0
ARC
  5
4219
102
{ACAD_REACTORS
330
424F
102
}
330
1F
100
AcDbEntity
  8
0
  6
Continuous
 62
     1
370
    50
100
AcDbCircle
 10
48.15000000000009
 20
185.2999999999999
 30
0.0
 40
0.8000000000000111
100
AcDbArc
 50
180.0
 51
270.0
1001
PHOENIX7010
1002
{
1070
    41
1040
1.0
1002
}
  0
LINE
  5
421A
102
{ACAD_REACTORS
330
424F
102
}
330
1F
100
AcDbEntity
  8
0
  6
Continuous
 62
     1
370
    50
100
AcDbLine
 10
52.05000000000007
 20
184.5
 30
0.0
 11
48.14999999999997
 21
184.5
 31
0.0
1001
PHOENIX7010
1002
{
1070
    41
1040
1.0
1002
}
  0
LINE
  5
421B
102
{ACAD_REACTORS
330
424F
102
}
330
1F
100
AcDbEntity
  8
0
  6
Continuous
 62
     1
370
    50
100
AcDbLine
 10
52.04999999999995
 20
183.5
 30
0.0
 11
48.15000000000009
 21
183.5
 31
0.0
1001
PHOENIX7010
1002
{
1070
    41
1040
1.0
1002
}
  0
ARC
  5
421C
102
{ACAD_REACTORS
330
424F
102
}
330
1F
100
AcDbEntity
  8
0
  6
Continuous
 62
     1
370
    50
100
AcDbCircle
 10
52.04999999999995
 20
182.6999999999998
 30
0.0
 40
1.800000000000011
100
AcDbArc
 50
0.0
 51
90.0
1001
PHOENIX7010
1002
{
1070
    41
1040
1.0
1002
}
  0
ARC
  5
421D
102
{ACAD_REACTORS
330
424F
102
}
330
1F
100
AcDbEntity
  8
0
  6
Continuous
 62
     1
370
    50
100
AcDbCircle
 10
52.04999999999995
 20
182.6999999999998
 30
0.0
 40
0.8000000000000111
100
AcDbArc
 50
0.0
 51
90.0
1001
PHOENIX7010
1002
{
1070
    41
1040
1.0
1002
}
  0
LINE
  5
421E
102
{ACAD_REACTORS
330
424F
102
}
330
1F
100
AcDbEntity
  8
0
  6
Continuous
 62
     1
370
    50
100
AcDbLine
 10
52.85000000000014
 20
179.5
 30
0.0
 11
52.85000000000002
 21
182.6999999999998
 31
0.0
1001
PHOENIX7010
1002
{
1070
    41
1040
1.0
1002
}
  0
LINE
  5
421F
102
{ACAD_REACTORS
330
424F
102
}
330
1F
100
AcDbEntity
  8
0
  6
Continuous
 62
     1
370
    25
100
AcDbLine
 10
53.85000000000002
 20
180.8000000000001
 30
0.0
 11
53.85000000000002
 21
179.5
 31
0.0
1001
PHOENIX7010
1002
{
1070
    41
1040
1.0
1002
}
  0
LINE
  5
4220
102
{ACAD_REACTORS
330
424F
102
}
330
1F
100
AcDbEntity
  8
0
  6
Continuous
 62
     1
370
    25
100
AcDbLine
 10
52.85000000000014
 20
179.5
 30
0.0
 11
53.85000000000002
 21
179.5
 31
0.0
1001
PHOENIX7010
1002
{
1070
    41
1040
1.0
1002
}
  0
INSERT
  5
4221
102
{ACAD_REACTORS
330
424F
102
}
330
1F
100
AcDbEntity
  8
0
  6
Continuous
 62
     1
370
    25
100
AcDbBlockReference
  2
PH_GRPBLK
 10
52.85000000000002
 20
214.5
 30
0.0
1001
PHOENIX7010
1002
{
1070
    41
1040
1.0
1002
}
  0
LINE
  5
4224
102
{ACAD_REACTORS
330
424D
102
}
330
1F
100
AcDbEntity
  8
0
 62
     1
100
AcDbLine
 10
47.42499999999973
 20
170.5126682220618
 30
0.0
 11
48.43872423142272
 21
162.8126682220622
 31
0.0
1001
PHOENIX7010
1002
{
1070
    41
1040
1.0
1002
}
  0
LINE
  5
4225
102
{ACAD_REACTORS
330
424D
102
}
330
1F
100
AcDbEntity
  8
0
 62
     1
100
AcDbLine
 10
48.76785547539111
 20
160.3126682220622
 30
0.0
 11
48.43872423142261
 21
162.8126682220622
 31
0.0
1001
PHOENIX7010
1002
{
1070
    41
1040
1.0
1002
}
  0
LINE
  5
4227
102
{ACAD_REACTORS
330
424D
102
}
330
1F
100
AcDbEntity
  8
0
 62
     1
100
AcDbLine
 10
48.76785547539111
 20
160.3126682220622
 30
0.0
 11
51.2894278768415
 21
160.3126682220622
 31
0.0
1001
PHOENIX7010
1002
{
1070
    41
1040
1.0
1002
}
  0
LINE
  5
422C
102
{ACAD_REACTORS
330
424D
102
}
330
1F
100
AcDbEntity
  8
0
 62
     1
100
AcDbLine
 10
51.77500000000009
 20
173.6126682220622
 30
0.0
 11
51.77500000000009
 21
172.4999999999998
 31
0.0
1001
PHOENIX7010
1002
{
1070
    41
1040
1.0
1002
}
  0
LINE
  5
422D
102
{ACAD_REACTORS
330
424D
102
}
330
1F
100
AcDbEntity
  8
0
 62
     1
100
AcDbLine
 10
55.27500000000009
 20
172.4999999999998
 30
0.0
 11
55.27500000000009
 21
174.8999999999997
 31
0.0
1001
PHOENIX7010
1002
{
1070
    41
1040
1.0
1002
}
  0
LINE
  5
4230
102
{ACAD_REACTORS
330
424D
102
}
330
1F
100
AcDbEntity
  8
0
 62
     1
100
AcDbLine
 10
54.27500000000009
 20
179.5
 30
0.0
 11
54.27500000000009
 21
179.5126682220618
 31
0.0
1001
PHOENIX7010
1002
{
1070
    41
1040
1.0
1002
}
  0
ARC
  5
4231
102
{ACAD_REACTORS
330
424D
102
}
330
1F
100
AcDbEntity
  8
0
 62
     1
100
AcDbCircle
 10
51.47500000000014
 20
176.9126682220618
 30
0.0
 40
0.3
100
AcDbArc
 50
80.65162064843047
 51
90.00000000009119
1001
PHOENIX7010
1002
{
1070
    41
1040
1.0
1002
}
  0
ARC
  5
4232
102
{ACAD_REACTORS
330
424D
102
}
330
1F
100
AcDbEntity
  8
0
 62
     1
100
AcDbCircle
 10
51.47500000000014
 20
176.9126682220618
 30
0.0
 40
0.3
100
AcDbArc
 50
0.0
 51
40.33730888928703
1001
PHOENIX7010
1002
{
1070
    41
1040
1.0
1002
}
  0
ARC
  5
4233
102
{ACAD_REACTORS
330
424D
102
}
330
1F
100
AcDbEntity
  8
0
 62
     1
100
AcDbCircle
 10
54.57500000000016
 20
176.3126682220618
 30
0.0
 40
0.3
100
AcDbArc
 50
180.0
 51
270.0
1001
PHOENIX7010
1002
{
1070
    41
1040
1.0
1002
}
  0
LINE
  5
4234
102
{ACAD_REACTORS
330
424D
102
}
330
1F
100
AcDbEntity
  8
0
 62
     1
100
AcDbLine
 10
54.97500000000025
 20
176.0126682220618
 30
0.0
 11
54.57500000000016
 21
176.0126682220618
 31
0.0
1001
PHOENIX7010
1002
{
1070
    41
1040
1.0
1002
}
  0
LINE
  5
4235
102
{ACAD_REACTORS
330
424D
102
}
330
1F
100
AcDbEntity
  8
0
 62
     1
100
AcDbLine
 10
55.27499999999974
 20
175.7126682220623
 30
0.0
 11
54.97500000000025
 21
176.0126682220618
 31
0.0
1001
PHOENIX7010
1002
{
1070
    41
1040
1.0
1002
}
  0
LINE
  5
4236
102
{ACAD_REACTORS
330
424D
102
}
330
1F
100
AcDbEntity
  8
0
 62
     1
100
AcDbLine
 10
55.27499999999974
 20
174.312668222062
 30
0.0
 11
55.27499999999974
 21
175.7126682220623
 31
0.0
1001
PHOENIX7010
1002
{
1070
    41
1040
1.0
1002
}
  0
LINE
  5
4237
102
{ACAD_REACTORS
330
424D
102
}
330
1F
100
AcDbEntity
  8
0
 62
     1
100
AcDbLine
 10
55.27500000000009
 20
165.7126682220621
 30
0.0
 11
55.27500000000009
 21
160.3126682220622
 31
0.0
1001
PHOENIX7010
1002
{
1070
    41
1040
1.0
1002
}
  0
ARC
  5
4238
102
{ACAD_REACTORS
330
424D
102
}
330
1F
100
AcDbEntity
  8
0
 62
     1
100
AcDbCircle
 10
52.47500000000013
 20
163.1126682220622
 30
0.0
 40
0.3
100
AcDbArc
 50
270.0
 51
0.0
1001
PHOENIX7010
1002
{
1070
    41
1040
1.0
1002
}
  0
LINE
  5
4239
102
{ACAD_REACTORS
330
424D
102
}
330
1F
100
AcDbEntity
  8
0
 62
     1
100
AcDbLine
 10
52.77500000000009
 20
163.1126682220622
 30
0.0
 11
52.77500000000009
 21
165.7126682220621
 31
0.0
1001
PHOENIX7010
1002
{
1070
    41
1040
1.0
1002
}
  0
LINE
  5
423A
102
{ACAD_REACTORS
330
424D
102
}
330
1F
100
AcDbEntity
  8
0
 62
     1
100
AcDbLine
 10
52.77500000000009
 20
165.7126682220621
 30
0.0
 11
53.07500000000016
 21
166.0126682220623
 31
0.0
1001
PHOENIX7010
1002
{
1070
    41
1040
1.0
1002
}
  0
LINE
  5
423B
102
{ACAD_REACTORS
330
424D
102
}
330
1F
100
AcDbEntity
  8
0
 62
     1
100
AcDbLine
 10
53.07500000000016
 20
166.0126682220623
 30
0.0
 11
54.97500000000013
 21
166.0126682220623
 31
0.0
1001
PHOENIX7010
1002
{
1070
    41
1040
1.0
1002
}
  0
LINE
  5
423C
102
{ACAD_REACTORS
330
424D
102
}
330
1F
100
AcDbEntity
  8
0
 62
     1
100
AcDbLine
 10
54.97500000000013
 20
166.0126682220623
 30
0.0
 11
55.27500000000009
 21
165.7126682220621
 31
0.0
1001
PHOENIX7010
1002
{
1070
    41
1040
1.0
1002
}
  0
LINE
  5
423D
102
{ACAD_REACTORS
330
424D
102
}
330
1F
100
AcDbEntity
  8
0
 62
     1
100
AcDbLine
 10
55.27500000000009
 20
160.3126682220622
 30
0.0
 11
51.2894278768415
 21
160.3126682220622
 31
0.0
1001
PHOENIX7010
1002
{
1070
    41
1040
1.0
1002
}
  0
LINE
  5
423E
102
{ACAD_REACTORS
330
424D
102
}
330
1F
100
AcDbEntity
  8
0
 62
     1
100
AcDbLine
 10
50.92595611335889
 20
163.073510364396
 30
0.0
 11
49.92499999999984
 21
170.6765268791002
 31
0.0
1001
PHOENIX7010
1002
{
1070
    41
1040
1.0
1002
}
  0
ARC
  5
423F
102
{ACAD_REACTORS
330
424D
102
}
330
1F
100
AcDbEntity
  8
0
 62
     1
100
AcDbCircle
 10
51.22338957177089
 20
163.112668222062
 30
0.0
 40
0.3
100
AcDbArc
 50
187.4999999999988
 51
270.0
1001
PHOENIX7010
1002
{
1070
    41
1040
1.0
1002
}
  0
LINE
  5
4240
102
{ACAD_REACTORS
330
424D
102
}
330
1F
100
AcDbEntity
  8
0
 62
     1
100
AcDbLine
 10
47.42499999999984
 20
178.2032671453033
 30
0.0
 11
47.42499999999984
 21
170.5126682220618
 31
0.0
1001
PHOENIX7010
1002
{
1070
    41
1040
1.0
1002
}
  0
LINE
  5
4241
102
{ACAD_REACTORS
330
424D
102
}
330
1F
100
AcDbEntity
  8
0
 62
     1
100
AcDbLine
 10
51.42500000000007
 20
180.5126682220618
 30
0.0
 11
47.42500000000018
 21
178.2032671453033
 31
0.0
1001
PHOENIX7010
1002
{
1070
    41
1040
1.0
1002
}
  0
LINE
  5
4242
102
{ACAD_REACTORS
330
424D
102
}
330
1F
100
AcDbEntity
  8
0
 62
     1
100
AcDbLine
 10
52.557050807569
 20
180.5126682220621
 30
0.0
 11
51.42499999999995
 21
180.5126682220621
 31
0.0
1001
PHOENIX7010
1002
{
1070
    41
1040
1.0
1002
}
  0
LINE
  5
4243
102
{ACAD_REACTORS
330
424D
102
}
330
1F
100
AcDbEntity
  8
0
 62
     1
100
AcDbLine
 10
52.82500000000016
 20
179.5126682220618
 30
0.0
 11
52.557050807569
 21
180.5126682220618
 31
0.0
1001
PHOENIX7010
1002
{
1070
    41
1040
1.0
1002
}
  0
LINE
  5
4244
102
{ACAD_REACTORS
330
424D
102
}
330
1F
100
AcDbEntity
  8
0
 62
     1
100
AcDbLine
 10
54.27500000000009
 20
179.5126682220618
 30
0.0
 11
52.82500000000016
 21
179.5126682220618
 31
0.0
1001
PHOENIX7010
1002
{
1070
    41
1040
1.0
1002
}
  0
LINE
  5
4246
102
{ACAD_REACTORS
330
424D
102
}
330
1F
100
AcDbEntity
  8
0
 62
     1
100
AcDbLine
 10
49.92499999999984
 20
176.4712163377345
 30
0.0
 11
51.20923233502242
 21
177.2126682220619
 31
0.0
1001
PHOENIX7010
1002
{
1070
    41
1040
1.0
1002
}
  0
LINE
  5
4247
102
{ACAD_REACTORS
330
424D
102
}
330
1F
100
AcDbEntity
  8
0
 62
     1
100
AcDbLine
 10
49.92499999999984
 20
170.6765268791002
 30
0.0
 11
49.92499999999984
 21
176.4712163377345
 31
0.0
1001
PHOENIX7010
1002
{
1070
    41
1040
1.0
1002
}
  0
LINE
  5
4249
102
{ACAD_REACTORS
330
424D
102
}
330
1F
100
AcDbEntity
  8
0
 62
     1
100
AcDbLine
 10
55.27500000000009
 20
172.4999999999998
 30
0.0
 11
51.77500000000009
 21
172.4999999999998
 31
0.0
1001
PHOENIX7010
1002
{
1070
    41
1040
1.0
1002
}
  0
LINE
  5
4256
102
{ACAD_REACTORS
330
424D
102
}
330
1F
100
AcDbEntity
  8
0
 62
     1
100
AcDbLine
 10
51.22338957177089
 20
162.8126682220622
 30
0.0
 11
52.47500000000013
 21
162.8126682220622
 31
0.0
1001
PHOENIX7010
1002
{
1070
    41
1040
1.0
1002
}
  0
LINE
  5
425B
102
{ACAD_REACTORS
330
424D
102
}
330
1F
100
AcDbEntity
  8
0
 62
     1
100
AcDbLine
 10
54.27500000000009
 20
179.5
 30
0.0
 11
52.85000000000014
 21
179.5
 31
0.0
1001
PHOENIX7010
1002
{
1070
    41
1040
1.0
1002
}
  0
LINE
  5
4264
102
{ACAD_REACTORS
330
424D
102
}
330
1F
100
AcDbEntity
  8
0
 62
     1
100
AcDbLine
 10
51.20923233502242
 20
177.2126682220619
 30
0.0
 11
51.47500000000014
 21
177.2126682220619
 31
0.0
1001
PHOENIX7010
1002
{
1070
    41
1040
1.0
1002
}
  0
ELLIPSE
  5
4266
102
{ACAD_REACTORS
330
424D
102
}
330
1F
100
AcDbEntity
  8
0
 62
     1
100
AcDbEllipse
 10
51.27500000000009
 20
176.9582623614458
 30
0.0
 11
0.5
 21
0.0000000000000587
 31
0.0
210
0.0
220
0.0
230
-1.0
 40
0.5773502691896511
 41
5.233059857680746
 42
5.742484579492522
1001
PHOENIX7010
1002
{
1070
    41
1040
1.0
1002
}
  0
LINE
  5
4268
102
{ACAD_REACTORS
330
424D
102
}
330
1F
100
AcDbEntity
  8
0
 62
     1
100
AcDbLine
 10
51.77500000000009
 20
173.6126682220622
 30
0.0
 11
51.77500000000009
 21
176.9126682220618
 31
0.0
1001
PHOENIX7010
1002
{
1070
    41
1040
1.0
1002
}
  0
LINE
  5
426B
102
{ACAD_REACTORS
330
424D
102
}
330
1F
100
AcDbEntity
  8
0
 62
     1
100
AcDbLine
 10
54.27500000000009
 20
179.5
 30
0.0
 11
54.27500000000009
 21
176.3126682220618
 31
0.0
1001
PHOENIX7010
1002
{
1070
    41
1040
1.0
1002
}
  0
ARC
  5
D34D
330
1F
100
AcDbEntity
  8
0
  6
Continuous
 62
     7
370
    50
100
AcDbCircle
 10
74.63617393793311
 20
149.1000000000002
 30
0.0
 40
0.3
100
AcDbArc
 50
209.002546026673
 51
270.0
1001
PHOENIX7010
1002
{
1070
    41
1040
1.0
1002
}
  0
ARC
  5
D34E
330
1F
100
AcDbEntity
  8
0
  6
Continuous
 62
     7
370
    50
100
AcDbCircle
 10
72.84646764766989
 20
148.7991376746189
 30
0.0
 40
0.3
100
AcDbArc
 50
149.9999999999849
 51
229.8357513782871
1001
PHOENIX7010
1002
{
1070
    41
1040
1.0
1002
}
  0
ARC
  5
D34F
330
1F
100
AcDbEntity
  8
0
  6
Continuous
 62
     7
370
    50
100
AcDbCircle
 10
70.65353235233146
 20
148.7991376746187
 30
0.0
 40
0.3
100
AcDbArc
 50
310.1642486217413
 51
29.99999999999729
1001
PHOENIX7010
1002
{
1070
    41
1040
1.0
1002
}
  0
ARC
  5
D350
330
1F
100
AcDbEntity
  8
0
  6
Continuous
 62
     7
370
    50
100
AcDbCircle
 10
71.75000000000091
 20
147.4999999999999
 30
0.0
 40
1.399999999999897
100
AcDbArc
 50
130.1642486217412
 51
49.83575137828706
1001
PHOENIX7010
1002
{
1070
    41
1040
1.0
1002
}
  0
ARC
  5
D351
330
1F
100
AcDbEntity
  8
0
  6
Continuous
 62
     7
370
    50
100
AcDbCircle
 10
71.75000000000091
 20
147.4999999999999
 30
0.0
 40
3.0
100
AcDbArc
 50
132.2054464037141
 51
179.9999999999739
1001
PHOENIX7010
1002
{
1070
    41
1040
1.0
1002
}
  0
ARC
  5
D353
330
1F
100
AcDbEntity
  8
0
  6
Continuous
 62
     7
100
AcDbCircle
 10
53.25000000000091
 20
150.7500000000001
 30
0.0
 40
2.0
100
AcDbArc
 50
180.0
 51
270.0
1001
PHOENIX7010
1002
{
1070
    41
1040
1.0
1002
}
  0
ARC
  5
D354
330
1F
100
AcDbEntity
  8
0
  6
Continuous
 62
     7
100
AcDbCircle
 10
59.150000000001
 20
149.6499999999999
 30
0.0
 40
1.0
100
AcDbArc
 50
270.0
 51
0.0
1001
PHOENIX7010
1002
{
1070
    41
1040
1.0
1002
}
  0
LINE
  5
D355
330
1F
100
AcDbEntity
  8
0
  6
Continuous
 62
     7
370
    50
100
AcDbLine
 10
75.55000000000086
 20
145.9999999999999
 30
0.0
 11
78.05000000000109
 21
146.0000000000001
 31
0.0
1001
PHOENIX7010
1002
{
1070
    41
1040
1.0
1002
}
  0
LINE
  5
D356
330
1F
100
AcDbEntity
  8
0
  6
Continuous
 62
     7
370
    50
100
AcDbLine
 10
78.35000000000104
 20
144.5000000000001
 30
0.0
 11
53.64428714775749
 21
144.5000000000001
 31
0.0
1001
PHOENIX7010
1002
{
1070
    41
1040
1.0
1002
}
  0
LINE
  5
D357
330
1F
100
AcDbEntity
  8
0
  6
Continuous
 62
     7
370
    50
100
AcDbLine
 10
63.35000000000104
 20
148.2499999999999
 30
0.0
 11
62.35000000000105
 21
148.2499999999999
 31
0.0
1001
PHOENIX7010
1002
{
1070
    41
1040
1.0
1002
}
  0
LINE
  5
D358
330
1F
100
AcDbEntity
  8
0
  6
Continuous
 62
     7
370
    50
100
AcDbLine
 10
62.35000000000105
 20
146.7499999999999
 30
0.0
 11
62.35000000000105
 21
148.2499999999999
 31
0.0
1001
PHOENIX7010
1002
{
1070
    41
1040
1.0
1002
}
  0
ARC
  5
D359
330
1F
100
AcDbEntity
  8
0
  6
Continuous
 62
     7
370
    50
100
AcDbCircle
 10
57.65000000000032
 20
147.0500000000001
 30
0.0
 40
0.3
100
AcDbArc
 50
180.0
 51
270.0
1001
PHOENIX7010
1002
{
1070
    41
1040
1.0
1002
}
  0
LINE
  5
D35A
330
1F
100
AcDbEntity
  8
0
  6
Continuous
 62
     7
370
    50
100
AcDbLine
 10
57.35000000000036
 20
148.15
 30
0.0
 11
57.35000000000036
 21
147.0500000000001
 31
0.0
1001
PHOENIX7010
1002
{
1070
    41
1040
1.0
1002
}
  0
LINE
  5
D35B
330
1F
100
AcDbEntity
  8
0
  6
Continuous
 62
     7
100
AcDbLine
 10
57.85000000000036
 20
148.6499999999999
 30
0.0
 11
59.150000000001
 21
148.6499999999999
 31
0.0
1001
PHOENIX7010
1002
{
1070
    41
1040
1.0
1002
}
  0
ARC
  5
D35C
330
1F
100
AcDbEntity
  8
0
  6
Continuous
 62
     7
370
    50
100
AcDbCircle
 10
57.85000000000036
 20
148.15
 30
0.0
 40
0.5
100
AcDbArc
 50
90.0
 51
180.0
1001
PHOENIX7010
1002
{
1070
    41
1040
1.0
1002
}
  0
LINE
  5
D35D
330
1F
100
AcDbEntity
  8
0
  6
Continuous
 62
     7
370
    50
100
AcDbLine
 10
55.35000000000036
 20
148.2499999999999
 30
0.0
 11
55.35000000000036
 21
146.3
 31
0.0
1001
PHOENIX7010
1002
{
1070
    41
1040
1.0
1002
}
  0
LINE
  5
D35E
330
1F
100
AcDbEntity
  8
0
  6
Continuous
 62
     7
370
    50
100
AcDbLine
 10
53.25000000000068
 20
148.7499999999999
 30
0.0
 11
54.85000000000036
 21
148.7499999999999
 31
0.0
1001
PHOENIX7010
1002
{
1070
    41
1040
1.0
1002
}
  0
ARC
  5
D35F
330
1F
100
AcDbEntity
  8
0
  6
Continuous
 62
     7
370
    50
100
AcDbCircle
 10
52.29999999999995
 20
145.7000000000001
 30
0.0
 40
0.3
100
AcDbArc
 50
90.0
 51
180.0
1001
PHOENIX7010
1002
{
1070
    41
1040
1.0
1002
}
  0
LINE
  5
D360
330
1F
100
AcDbEntity
  8
0
  6
Continuous
 62
     7
370
    50
100
AcDbLine
 10
52.0
 20
145.7000000000001
 30
0.0
 11
52.0
 21
145.5676614336802
 31
0.0
1001
PHOENIX7010
1002
{
1070
    41
1040
1.0
1002
}
  0
LINE
  5
D361
330
1F
100
AcDbEntity
  8
0
  6
Continuous
 62
     7
370
    50
100
AcDbLine
 10
52.29999999999995
 20
146.0000000000001
 30
0.0
 11
55.05000000000041
 21
146.0000000000001
 31
0.0
1001
PHOENIX7010
1002
{
1070
    41
1040
1.0
1002
}
  0
ARC
  5
D362
330
1F
100
AcDbEntity
  8
0
  6
Continuous
 62
     7
370
    50
100
AcDbCircle
 10
53.64428714775749
 20
146.3000000000003
 30
0.0
 40
1.8
100
AcDbArc
 50
204.0074082165742
 51
270.0
1001
PHOENIX7010
1002
{
1070
    41
1040
1.0
1002
}
  0
ARC
  5
D363
330
1F
100
AcDbEntity
  8
0
  6
Continuous
 62
     7
100
AcDbCircle
 10
54.85000000000036
 20
148.2499999999999
 30
0.0
 40
0.5
100
AcDbArc
 50
0.0
 51
90.0
1001
PHOENIX7010
1002
{
1070
    41
1040
1.0
1002
}
  0
ARC
  5
D364
330
1F
100
AcDbEntity
  8
0
  6
Continuous
 62
     7
370
    50
100
AcDbCircle
 10
55.05000000000041
 20
146.3
 30
0.0
 40
0.3
100
AcDbArc
 50
270.0
 51
0.0
1001
PHOENIX7010
1002
{
1070
    41
1040
1.0
1002
}
  0
LINE
  5
D365
102
{ACAD_REACTORS
330
11490
330
140F2
102
}
330
1F
100
AcDbEntity
  8
0
  6
Continuous
 62
     7
370
    50
100
AcDbLine
 10
62.35000000000105
 20
146.7499999999999
 30
0.0
 11
57.65000000000032
 21
146.7500000000003
 31
0.0
1001
PHOENIX7010
1002
{
1070
    41
1040
1.0
1002
}
  0
ARC
  5
D366
330
1F
100
AcDbEntity
  8
0
  6
Continuous
 62
     7
370
    50
100
AcDbCircle
 10
75.85000000000127
 20
148.2649110640674
 30
0.0
 40
0.3
100
AcDbArc
 50
256.6576362028962
 51
0.0
1001
PHOENIX7010
1002
{
1070
    41
1040
1.0
1002
}
  0
ARC
  5
D367
330
1F
100
AcDbEntity
  8
0
  6
Continuous
 62
     7
370
    50
100
AcDbCircle
 10
75.85000000000127
 20
148.5000000000001
 30
0.0
 40
0.3
100
AcDbArc
 50
0.0
 51
90.0
1001
PHOENIX7010
1002
{
1070
    41
1040
1.0
1002
}
  0
LINE
  5
D368
330
1F
100
AcDbEntity
  8
0
  6
Continuous
 62
     7
370
    50
100
AcDbLine
 10
76.15000000000122
 20
148.2649110640674
 30
0.0
 11
76.15000000000122
 21
148.5000000000001
 31
0.0
1001
PHOENIX7010
1002
{
1070
    41
1040
1.0
1002
}
  0
LINE
  5
D369
330
1F
100
AcDbEntity
  8
0
  6
Continuous
 62
     7
370
    50
100
AcDbLine
 10
68.75000000000091
 20
147.5000000000001
 30
0.0
 11
68.75000000000091
 21
146.7500000000001
 31
0.0
1001
PHOENIX7010
1002
{
1070
    41
1040
1.0
1002
}
  0
LINE
  5
D36B
330
1F
100
AcDbEntity
  8
0
  6
Continuous
 62
     7
370
    50
100
AcDbLine
 10
65.55000000000086
 20
146.7499999999999
 30
0.0
 11
65.55000000000086
 21
148.2499999999999
 31
0.0
1001
PHOENIX7010
1002
{
1070
    41
1040
1.0
1002
}
  0
LINE
  5
D36C
102
{ACAD_REACTORS
330
EE63
102
}
330
1F
100
AcDbEntity
  8
0
  6
Continuous
 62
     7
370
    50
100
AcDbLine
 10
66.55000000000064
 20
148.2499999999999
 30
0.0
 11
65.55000000000086
 21
148.2499999999999
 31
0.0
1001
PHOENIX7010
1002
{
1070
    41
1040
1.0
1002
}
  0
LINE
  5
D36D
330
1F
100
AcDbEntity
  8
0
  6
Continuous
 62
     7
370
    50
100
AcDbLine
 10
66.55000000000086
 20
146.7499999999999
 30
0.0
 11
66.55000000000064
 21
148.2499999999999
 31
0.0
1001
PHOENIX7010
1002
{
1070
    41
1040
1.0
1002
}
  0
LINE
  5
D36E
102
{ACAD_REACTORS
330
EE62
102
}
330
1F
100
AcDbEntity
  8
0
  6
Continuous
 62
     7
370
    50
100
AcDbLine
 10
63.35000000000104
 20
146.7500000000001
 30
0.0
 11
63.35000000000104
 21
148.2499999999999
 31
0.0
1001
PHOENIX7010
1002
{
1070
    41
1040
1.0
1002
}
  0
LINE
  5
D36F
102
{ACAD_REACTORS
330
13AEB
102
}
330
1F
100
AcDbEntity
  8
0
  6
Continuous
 62
     7
370
    50
100
AcDbLine
 10
65.55000000000086
 20
146.7499999999999
 30
0.0
 11
63.35000000000104
 21
146.7500000000001
 31
0.0
1001
PHOENIX7010
1002
{
1070
    41
1040
1.0
1002
}
  0
LINE
  5
D370
102
{ACAD_REACTORS
330
13464
102
}
330
1F
100
AcDbEntity
  8
0
  6
Continuous
 62
     7
370
    50
100
AcDbLine
 10
66.55000000000086
 20
146.7499999999999
 30
0.0
 11
68.75000000000091
 21
146.7500000000001
 31
0.0
1001
PHOENIX7010
1002
{
1070
    41
1040
1.0
1002
}
  0
LINE
  5
D371
330
1F
100
AcDbEntity
  8
0
  6
Continuous
 62
     7
370
    50
100
AcDbLine
 10
74.63617393793311
 20
148.8
 30
0.0
 11
75.85000000000127
 21
148.8
 31
0.0
1001
PHOENIX7010
1002
{
1070
    41
1040
1.0
1002
}
  0
ARC
  5
D372
330
1F
100
AcDbEntity
  8
0
  6
Continuous
 62
     7
370
    50
100
AcDbCircle
 10
75.55000000000086
 20
146.9999999999999
 30
0.0
 40
1.0
100
AcDbArc
 50
76.65763620289623
 51
270.0
1001
PHOENIX7010
1002
{
1070
    41
1040
1.0
1002
}
  0
ARC
  5
D373
330
1F
100
AcDbEntity
  8
0
  6
Continuous
 62
     7
370
    50
100
AcDbCircle
 10
78.85000000000082
 20
147.0000000000001
 30
0.0
 40
0.5
100
AcDbArc
 50
0.0
 51
90.0
1001
PHOENIX7010
1002
{
1070
    41
1040
1.0
1002
}
  0
LINE
  5
D374
102
{ACAD_REACTORS
330
1233D
102
}
330
1F
100
AcDbEntity
  8
0
  6
Continuous
 62
     7
370
    50
100
AcDbLine
 10
78.85000000000104
 20
147.5000000000001
 30
0.0
 11
78.35000000000104
 21
147.5000000000001
 31
0.0
1001
PHOENIX7010
1002
{
1070
    41
1040
1.0
1002
}
  0
LINE
  5
D375
330
1F
100
AcDbEntity
  8
0
  6
Continuous
 62
     7
370
    50
100
AcDbLine
 10
78.35000000000104
 20
146.3
 30
0.0
 11
78.35000000000104
 21
147.5000000000001
 31
0.0
1001
PHOENIX7010
1002
{
1070
    41
1040
1.0
1002
}
  0
ARC
  5
D376
102
{ACAD_REACTORS
330
12AB7
102
}
330
1F
100
AcDbEntity
  8
0
  6
Continuous
 62
     7
370
    50
100
AcDbCircle
 10
78.35000000000104
 20
144.8
 30
0.0
 40
0.3
100
AcDbArc
 50
270.0
 51
0.0
1001
PHOENIX7010
1002
{
1070
    41
1040
1.0
1002
}
  0
ARC
  5
D377
330
1F
100
AcDbEntity
  8
0
  6
Continuous
 62
     7
370
    50
100
AcDbCircle
 10
78.95000000000095
 20
144.8467437405328
 30
0.0
 40
0.3
100
AcDbArc
 50
117.4864262503747
 51
180.0
1001
PHOENIX7010
1002
{
1070
    41
1040
1.0
1002
}
  0
ARC
  5
D378
330
1F
100
AcDbEntity
  8
0
  6
Continuous
 62
     7
370
    50
100
AcDbCircle
 10
78.35000000000104
 20
146.0000000000001
 30
0.0
 40
0.9999999999998578
100
AcDbArc
 50
297.4864262503747
 51
0.0
1001
PHOENIX7010
1002
{
1070
    41
1040
1.0
1002
}
  0
LINE
  5
D379
330
1F
100
AcDbEntity
  8
0
  6
Continuous
 62
     7
370
    50
100
AcDbLine
 10
78.650000000001
 20
144.8467437405328
 30
0.0
 11
78.650000000001
 21
144.8
 31
0.0
1001
PHOENIX7010
1002
{
1070
    41
1040
1.0
1002
}
  0
ARC
  5
D37A
330
1F
100
AcDbEntity
  8
0
  6
Continuous
 62
     7
370
    50
100
AcDbCircle
 10
78.05000000000109
 20
146.3
 30
0.0
 40
0.3
100
AcDbArc
 50
270.0
 51
0.0
1001
PHOENIX7010
1002
{
1070
    41
1040
1.0
1002
}
  0
LINE
  5
D37B
330
1F
100
AcDbEntity
  8
0
  6
Continuous
 62
     7
370
    50
100
AcDbLine
 10
79.35000000000082
 20
147.0000000000001
 30
0.0
 11
79.35000000000105
 21
146.0000000000001
 31
0.0
1001
PHOENIX7010
1002
{
1070
    41
1040
1.0
1002
}
  0
LINE
  5
D37C
330
1F
100
AcDbEntity
  8
0
  6
Continuous
 62
     7
370
    50
100
AcDbLine
 10
75.55000000000086
 20
248.0000000000001
 30
0.0
 11
78.05000000000109
 21
247.9999999999999
 31
0.0
1001
PHOENIX7010
1002
{
1070
    41
1040
1.0
1002
}
  0
LINE
  5
D37D
330
1F
100
AcDbEntity
  8
0
  6
Continuous
 62
     7
370
    50
100
AcDbLine
 10
78.35000000000104
 20
249.4999999999999
 30
0.0
 11
53.64428714775749
 21
249.4999999999999
 31
0.0
1001
PHOENIX7010
1002
{
1070
    41
1040
1.0
1002
}
  0
LINE
  5
D37E
330
1F
100
AcDbEntity
  8
0
  6
ACAD_ISO04W100
 62
     1
370
    25
100
AcDbLine
 10
44.35000000000003
 20
196.9999999999999
 30
0.0
 11
80.25000000000103
 21
196.9999999999999
 31
0.0
1001
PHOENIX7010
1002
{
1070
    41
1040
1.0
1002
}
  0
LINE
  5
D37F
330
1F
100
AcDbEntity
  8
0
  6
Continuous
 62
     7
370
    50
100
AcDbLine
 10
55.35000000000036
 20
205.9999999999999
 30
0.0
 11
55.35000000000036
 21
187.9999999999999
 31
0.0
1001
PHOENIX7010
1002
{
1070
    41
1040
1.0
1002
}
  0
LINE
  5
D380
102
{ACAD_REACTORS
330
14A5A
102
}
330
1F
100
AcDbEntity
  8
0
  6
Continuous
 62
     7
370
    50
100
AcDbLine
 10
57.35000000000036
 20
207.4999999999999
 30
0.0
 11
57.35000000000036
 21
186.4999999999999
 31
0.0
1001
PHOENIX7010
1002
{
1070
    41
1040
1.0
1002
}
  0
LINE
  5
D381
330
1F
100
AcDbEntity
  8
0
  6
Continuous
 62
     7
370
    50
100
AcDbLine
 10
55.35000000000036
 20
172.7999999999998
 30
0.0
 11
55.35000000000036
 21
176.1999999999999
 31
0.0
1001
PHOENIX7010
1002
{
1070
    41
1040
1.0
1002
}
  0
LINE
  5
D382
330
1F
100
AcDbEntity
  8
0
  6
Continuous
 62
     7
370
    50
100
AcDbLine
 10
51.70000000000027
 20
172.7999999999998
 30
0.0
 11
51.70000000000027
 21
175.3999999999997
 31
0.0
1001
PHOENIX7010
1002
{
1070
    41
1040
1.0
1002
}
  0
LINE
  5
D383
330
1F
100
AcDbEntity
  8
0
  6
Continuous
 62
     7
370
    50
100
AcDbLine
 10
50.00000000000023
 20
171.65
 30
0.0
 11
50.00000000000023
 21
175.1226497308099
 31
0.0
1001
PHOENIX7010
1002
{
1070
    41
1040
1.0
1002
}
  0
LINE
  5
D384
330
1F
100
AcDbEntity
  8
0
  6
Continuous
 62
     7
370
    50
100
AcDbLine
 10
57.35000000000036
 20
177.5000000000001
 30
0.0
 11
57.35000000000036
 21
156.9499999999999
 31
0.0
1001
PHOENIX7010
1002
{
1070
    41
1040
1.0
1002
}
  0
LINE
  5
D385
330
1F
100
AcDbEntity
  8
0
  6
Continuous
 62
     7
100
AcDbLine
 10
60.150000000001
 20
154.3499999999998
 30
0.0
 11
59.45000000000096
 21
154.3499999999998
 31
0.0
1001
PHOENIX7010
1002
{
1070
    41
1040
1.0
1002
}
  0
LINE
  5
D386
330
1F
100
AcDbEntity
  8
0
  6
Continuous
 62
     7
100
AcDbLine
 10
59.45000000000096
 20
149.8499999999998
 30
0.0
 11
59.45000000000096
 21
150.7499999999999
 31
0.0
1001
PHOENIX7010
1002
{
1070
    41
1040
1.0
1002
}
  0
LINE
  5
D387
330
1F
100
AcDbEntity
  8
0
  6
Continuous
 62
     7
100
AcDbLine
 10
60.150000000001
 20
150.7499999999999
 30
0.0
 11
60.150000000001
 21
149.6499999999999
 31
0.0
1001
PHOENIX7010
1002
{
1070
    41
1040
1.0
1002
}
  0
LINE
  5
D388
330
1F
100
AcDbEntity
  8
0
  6
Continuous
 62
     7
100
AcDbLine
 10
59.45000000000096
 20
150.7499999999999
 30
0.0
 11
60.150000000001
 21
150.7499999999999
 31
0.0
1001
PHOENIX7010
1002
{
1070
    41
1040
1.0
1002
}
  0
LINE
  5
D389
330
1F
100
AcDbEntity
  8
0
  6
Continuous
 62
     7
100
AcDbLine
 10
60.150000000001
 20
154.3499999999998
 30
0.0
 11
60.150000000001
 21
155.4499999999999
 31
0.0
1001
PHOENIX7010
1002
{
1070
    41
1040
1.0
1002
}
  0
LINE
  5
D38A
330
1F
100
AcDbEntity
  8
0
  6
Continuous
 62
     7
100
AcDbLine
 10
59.45000000000096
 20
154.3499999999998
 30
0.0
 11
59.45000000000096
 21
155.2499999999999
 31
0.0
1001
PHOENIX7010
1002
{
1070
    41
1040
1.0
1002
}
  0
ARC
  5
D38B
330
1F
100
AcDbEntity
  8
0
  6
Continuous
 62
     7
370
    50
100
AcDbCircle
 10
52.00000000000023
 20
172.7999999999998
 30
0.0
 40
0.3
100
AcDbArc
 50
180.0
 51
270.0
1001
PHOENIX7010
1002
{
1070
    41
1040
1.0
1002
}
  0
LINE
  5
D38C
330
1F
100
AcDbEntity
  8
0
  6
Continuous
 62
     7
370
    50
100
AcDbLine
 10
55.05000000000018
 20
172.4999999999999
 30
0.0
 11
52.00000000000023
 21
172.4999999999999
 31
0.0
1001
PHOENIX7010
1002
{
1070
    41
1040
1.0
1002
}
  0
ARC
  5
D38D
330
1F
100
AcDbEntity
  8
0
  6
Continuous
 62
     7
370
    50
100
AcDbCircle
 10
55.05000000000018
 20
172.7999999999998
 30
0.0
 40
0.3
100
AcDbArc
 50
270.0
 51
0.0
1001
PHOENIX7010
1002
{
1070
    41
1040
1.0
1002
}
  0
LINE
  5
D38E
330
1F
100
AcDbEntity
  8
0
  6
Continuous
 62
     7
370
    50
100
AcDbLine
 10
52.30086232538133
 20
170.3366600265341
 30
0.0
 11
51.75814157129593
 21
170.65
 31
0.0
1001
PHOENIX7010
1002
{
1070
    41
1040
1.0
1002
}
  0
ARC
  5
D38F
330
1F
100
AcDbEntity
  8
0
  6
Continuous
 62
     7
370
    50
100
AcDbCircle
 10
52.45086232538131
 20
170.5964676476695
 30
0.0
 40
0.3
100
AcDbArc
 50
240.0000000000027
 51
319.835751378287
1001
PHOENIX7010
1002
{
1070
    41
1040
1.0
1002
}
  0
LINE
  5
D390
330
1F
100
AcDbEntity
  8
0
  6
Continuous
 62
     7
370
    50
100
AcDbLine
 10
52.30086232538133
 20
168.6633399734659
 30
0.0
 11
51.75814157129593
 21
168.35
 31
0.0
1001
PHOENIX7010
1002
{
1070
    41
1040
1.0
1002
}
  0
ARC
  5
D391
330
1F
100
AcDbEntity
  8
0
  6
Continuous
 62
     7
370
    50
100
AcDbCircle
 10
52.45086232538131
 20
168.4035323523306
 30
0.0
 40
0.3
100
AcDbArc
 50
40.16424862171298
 51
119.9999999999973
1001
PHOENIX7010
1002
{
1070
    41
1040
1.0
1002
}
  0
ARC
  5
D392
330
1F
100
AcDbEntity
  8
0
  6
Continuous
 62
     7
370
    50
100
AcDbCircle
 10
53.75000000000023
 20
169.5000000000001
 30
0.0
 40
1.400000000000005
100
AcDbArc
 50
220.164248621713
 51
139.835751378287
1001
PHOENIX7010
1002
{
1070
    41
1040
1.0
1002
}
  0
ARC
  5
D395
330
1F
100
AcDbEntity
  8
0
  6
Continuous
 62
     7
370
    50
100
AcDbCircle
 10
51.00000000000022
 20
171.65
 30
0.0
 40
1.0
100
AcDbArc
 50
180.0
 51
270.0
1001
PHOENIX7010
1002
{
1070
    41
1040
1.0
1002
}
  0
ARC
  5
D396
330
1F
100
AcDbEntity
  8
0
  6
Continuous
 62
     7
370
    50
100
AcDbCircle
 10
50.94188659322776
 20
167.85
 30
0.0
 40
0.5
100
AcDbArc
 50
90.0
 51
187.4999999999861
1001
PHOENIX7010
1002
{
1070
    41
1040
1.0
1002
}
  0
LINE
  5
D397
330
1F
100
AcDbEntity
  8
0
  6
Continuous
 62
     7
370
    50
100
AcDbLine
 10
51.00000000000022
 20
170.65
 30
0.0
 11
51.75814157129593
 21
170.65
 31
0.0
1001
PHOENIX7010
1002
{
1070
    41
1040
1.0
1002
}
  0
LINE
  5
D398
330
1F
100
AcDbEntity
  8
0
  6
Continuous
 62
     7
370
    50
100
AcDbLine
 10
50.94188659322776
 20
168.35
 30
0.0
 11
51.75814157129593
 21
168.35
 31
0.0
1001
PHOENIX7010
1002
{
1070
    41
1040
1.0
1002
}
  0
ARC
  5
D399
330
1F
100
AcDbEntity
  8
0
  6
Continuous
 62
     7
370
    50
100
AcDbCircle
 10
53.00000000000022
 20
166.2000000000001
 30
0.0
 40
0.3
100
AcDbArc
 50
90.0
 51
180.0
1001
PHOENIX7010
1002
{
1070
    41
1040
1.0
1002
}
  0
LINE
  5
D39A
330
1F
100
AcDbEntity
  8
0
  6
Continuous
 62
     7
370
    50
100
AcDbLine
 10
55.05000000000018
 20
166.5000000000003
 30
0.0
 11
53.00000000000022
 21
166.5000000000001
 31
0.0
1001
PHOENIX7010
1002
{
1070
    41
1040
1.0
1002
}
  0
LINE
  5
D39B
330
1F
100
AcDbEntity
  8
0
  6
Continuous
 62
     7
370
    50
100
AcDbLine
 10
52.40000000000032
 20
163.3000000000003
 30
0.0
 11
51.47507920845533
 21
163.3000000000003
 31
0.0
1001
PHOENIX7010
1002
{
1070
    41
1040
1.0
1002
}
  0
ARC
  5
D39C
330
1F
100
AcDbEntity
  8
0
  6
Continuous
 62
     7
370
    50
100
AcDbCircle
 10
52.40000000000032
 20
163.6000000000002
 30
0.0
 40
0.3
100
AcDbArc
 50
270.0
 51
0.0
1001
PHOENIX7010
1002
{
1070
    41
1040
1.0
1002
}
  0
LINE
  5
D39D
330
1F
100
AcDbEntity
  8
0
  6
Continuous
 62
     7
370
    50
100
AcDbLine
 10
52.70000000000027
 20
163.6000000000002
 30
0.0
 11
52.70000000000027
 21
166.2000000000001
 31
0.0
1001
PHOENIX7010
1002
{
1070
    41
1040
1.0
1002
}
  0
ARC
  5
D39E
330
1F
100
AcDbEntity
  8
0
  6
Continuous
 62
     7
370
    50
100
AcDbCircle
 10
55.05000000000018
 20
166.2000000000001
 30
0.0
 40
0.3
100
AcDbArc
 50
0.0
 51
90.0
1001
PHOENIX7010
1002
{
1070
    41
1040
1.0
1002
}
  0
LINE
  5
D39F
330
1F
100
AcDbEntity
  8
0
  6
Continuous
 62
     7
100
AcDbLine
 10
59.150000000001
 20
156.4499999999999
 30
0.0
 11
57.85000000000036
 21
156.4499999999999
 31
0.0
1001
PHOENIX7010
1002
{
1070
    41
1040
1.0
1002
}
  0
ARC
  5
D3A0
330
1F
100
AcDbEntity
  8
0
  6
Continuous
 62
     7
100
AcDbCircle
 10
57.85000000000036
 20
156.9499999999999
 30
0.0
 40
0.5
100
AcDbArc
 50
180.0
 51
270.0
1001
PHOENIX7010
1002
{
1070
    41
1040
1.0
1002
}
  0
LINE
  5
D3A1
330
1F
100
AcDbEntity
  8
0
  6
Continuous
 62
     7
100
AcDbLine
 10
54.85000000000036
 20
156.3499999999998
 30
0.0
 11
53.25000000000091
 21
156.35
 31
0.0
1001
PHOENIX7010
1002
{
1070
    41
1040
1.0
1002
}
  0
ARC
  5
D3A2
330
1F
100
AcDbEntity
  8
0
  6
Continuous
 62
     7
100
AcDbCircle
 10
54.85000000000036
 20
156.8499999999998
 30
0.0
 40
0.5
100
AcDbArc
 50
270.0
 51
0.0
1001
PHOENIX7010
1002
{
1070
    41
1040
1.0
1002
}
  0
LINE
  5
D3A3
330
1F
100
AcDbEntity
  8
0
  6
Continuous
 62
     7
370
    50
100
AcDbLine
 10
55.35000000000036
 20
166.2000000000001
 30
0.0
 11
55.35000000000036
 21
156.8499999999998
 31
0.0
1001
PHOENIX7010
1002
{
1070
    41
1040
1.0
1002
}
  0
ARC
  5
D3A4
330
1F
100
AcDbEntity
  8
0
  6
Continuous
 62
     7
370
    50
100
AcDbCircle
 10
51.47507920845533
 20
163.8000000000003
 30
0.0
 40
0.5
100
AcDbArc
 50
187.4999999999861
 51
270.0
1001
PHOENIX7010
1002
{
1070
    41
1040
1.0
1002
}
  0
LINE
  5
D3A5
330
1F
100
AcDbEntity
  8
0
  6
Continuous
 62
     7
100
AcDbLine
 10
57.25000000000091
 20
150.7499999999999
 30
0.0
 11
57.25000000000091
 21
149.8499999999998
 31
0.0
1001
PHOENIX7010
1002
{
1070
    41
1040
1.0
1002
}
  0
ARC
  5
D3A6
330
1F
100
AcDbEntity
  8
0
  6
Continuous
 62
     7
100
AcDbCircle
 10
53.75000000000091
 20
153.85
 30
0.0
 40
0.5
100
AcDbArc
 50
90.0
 51
180.0
1001
PHOENIX7010
1002
{
1070
    41
1040
1.0
1002
}
  0
ARC
  5
D3A7
330
1F
100
AcDbEntity
  8
0
  6
Continuous
 62
     7
100
AcDbCircle
 10
53.75000000000091
 20
151.2500000000001
 30
0.0
 40
0.5
100
AcDbArc
 50
180.0
 51
270.0
1001
PHOENIX7010
1002
{
1070
    41
1040
1.0
1002
}
  0
LINE
  5
D3A8
330
1F
100
AcDbEntity
  8
0
  6
Continuous
 62
     7
100
AcDbLine
 10
53.25000000000091
 20
153.85
 30
0.0
 11
53.25000000000091
 21
151.2500000000001
 31
0.0
1001
PHOENIX7010
1002
{
1070
    41
1040
1.0
1002
}
  0
LINE
  5
D3A9
330
1F
100
AcDbEntity
  8
0
  6
Continuous
 62
     7
100
AcDbLine
 10
51.25000000000091
 20
154.3638463105518
 30
0.0
 11
51.25000000000091
 21
150.7500000000001
 31
0.0
1001
PHOENIX7010
1002
{
1070
    41
1040
1.0
1002
}
  0
LINE
  5
D3AA
330
1F
100
AcDbEntity
  8
0
  6
Continuous
 62
     7
100
AcDbLine
 10
57.25000000000091
 20
154.3499999999998
 30
0.0
 11
53.75000000000091
 21
154.35
 31
0.0
1001
PHOENIX7010
1002
{
1070
    41
1040
1.0
1002
}
  0
LINE
  5
D3AB
330
1F
100
AcDbEntity
  8
0
  6
Continuous
 62
     7
100
AcDbLine
 10
53.75000000000068
 20
150.7500000000001
 30
0.0
 11
57.25000000000091
 21
150.7499999999999
 31
0.0
1001
PHOENIX7010
1002
{
1070
    41
1040
1.0
1002
}
  0
ARC
  5
D3AC
330
1F
100
AcDbEntity
  8
0
  6
Continuous
 62
     7
100
AcDbCircle
 10
53.25000000000091
 20
154.35
 30
0.0
 40
2.0
100
AcDbArc
 50
90.0
 51
180.0
1001
PHOENIX7010
1002
{
1070
    41
1040
1.0
1002
}
  0
LINE
  5
D3AD
330
1F
100
AcDbEntity
  8
0
  6
Continuous
 62
     7
100
AcDbLine
 10
57.25000000000091
 20
155.2499999999999
 30
0.0
 11
57.25000000000091
 21
154.3499999999998
 31
0.0
1001
PHOENIX7010
1002
{
1070
    41
1040
1.0
1002
}
  0
LINE
  5
D3AE
330
1F
100
AcDbEntity
  8
0
  6
Continuous
 62
     7
370
    50
100
AcDbLine
 10
50.44616416254029
 20
167.7847369038899
 30
0.0
 11
50.97935677776831
 21
163.7347369038901
 31
0.0
1001
PHOENIX7010
1002
{
1070
    41
1040
1.0
1002
}
  0
LINE
  5
D3AF
330
1F
100
AcDbEntity
  8
0
  6
Continuous
 62
     7
100
AcDbLine
 10
59.45000000000096
 20
155.2499999999999
 30
0.0
 11
57.25000000000091
 21
155.2499999999999
 31
0.0
1001
PHOENIX7010
1002
{
1070
    41
1040
1.0
1002
}
  0
ARC
  5
D3B0
330
1F
100
AcDbEntity
  8
0
  6
Continuous
 62
     7
100
AcDbCircle
 10
59.150000000001
 20
155.4499999999999
 30
0.0
 40
1.0
100
AcDbArc
 50
0.0
 51
90.0
1001
PHOENIX7010
1002
{
1070
    41
1040
1.0
1002
}
  0
LINE
  5
D3B1
330
1F
100
AcDbEntity
  8
0
  6
Continuous
 62
     7
100
AcDbLine
 10
57.25000000000091
 20
149.8499999999998
 30
0.0
 11
59.45000000000096
 21
149.8499999999998
 31
0.0
1001
PHOENIX7010
1002
{
1070
    41
1040
1.0
1002
}
  0
LINE
  5
D3B2
102
{ACAD_REACTORS
330
10D55
102
}
330
1F
100
AcDbEntity
  8
0
  6
ACAD_ISO04W100
 62
     1
 48
0.4095238095238125
370
    25
100
AcDbLine
 10
49.25000000000091
 20
152.5499999999998
 30
0.0
 11
62.150000000001
 21
152.5499999999998
 31
0.0
1001
PHOENIX7010
1002
{
1070
    41
1040
1.0
1002
}
  0
ARC
  5
D3B3
330
1F
100
AcDbEntity
  8
0
  6
Continuous
 62
     7
370
    50
100
AcDbCircle
 10
73.25111069989384
 20
149.4999999999999
 30
0.0
 40
0.3
100
AcDbArc
 50
90.0
 51
149.9999999999849
1001
PHOENIX7010
1002
{
1070
    41
1040
1.0
1002
}
  0
LINE
  5
D3B4
330
1F
100
AcDbEntity
  8
0
  6
Continuous
 62
     7
370
    50
100
AcDbLine
 10
73.5638357147227
 20
149.7999999999998
 30
0.0
 11
73.25111069989384
 21
149.7999999999998
 31
0.0
1001
PHOENIX7010
1002
{
1070
    41
1040
1.0
1002
}
  0
ARC
  5
D3B5
102
{ACAD_REACTORS
330
11BCA
102
}
330
1F
100
AcDbEntity
  8
0
  6
Continuous
 62
     7
370
    50
100
AcDbCircle
 10
73.56383571472292
 20
149.4999999999999
 30
0.0
 40
0.3
100
AcDbArc
 50
47.79455359624906
 51
90.0
1001
PHOENIX7010
1002
{
1070
    41
1040
1.0
1002
}
  0
ARC
  5
D3B6
330
1F
100
AcDbEntity
  8
0
  6
Continuous
 62
     7
370
    50
100
AcDbCircle
 10
70.24888930010752
 20
149.5000000000003
 30
0.0
 40
0.3
100
AcDbArc
 50
29.99999999999729
 51
90.0
1001
PHOENIX7010
1002
{
1070
    41
1040
1.0
1002
}
  0
ARC
  5
D3B7
330
1F
100
AcDbEntity
  8
0
  6
Continuous
 62
     7
370
    50
100
AcDbCircle
 10
69.93616428527935
 20
149.5000000000003
 30
0.0
 40
0.3
100
AcDbArc
 50
90.0
 51
132.2054464037141
1001
PHOENIX7010
1002
{
1070
    41
1040
1.0
1002
}
  0
LINE
  5
D3B8
330
1F
100
AcDbEntity
  8
0
  6
Continuous
 62
     7
370
    50
100
AcDbLine
 10
70.24888930010752
 20
149.8000000000003
 30
0.0
 11
69.93616428527935
 21
149.8000000000003
 31
0.0
1001
PHOENIX7010
1002
{
1070
    41
1040
1.0
1002
}
  0
LINE
  5
D3B9
330
1F
100
AcDbEntity
  8
0
  6
Continuous
 62
     7
370
    50
100
AcDbLine
 10
70.91333997346669
 20
148.9491376746185
 30
0.0
 11
70.50869692124274
 21
149.6500000000002
 31
0.0
1001
PHOENIX7010
1002
{
1070
    41
1040
1.0
1002
}
  0
LINE
  5
D3BA
330
1F
100
AcDbEntity
  8
0
  6
Continuous
 62
     7
370
    50
100
AcDbLine
 10
72.58666002653467
 20
148.949137674619
 30
0.0
 11
72.99130307875862
 21
149.6499999999999
 31
0.0
1001
PHOENIX7010
1002
{
1070
    41
1040
1.0
1002
}
  0
ARC
  5
D3BB
330
1F
100
AcDbEntity
  8
0
  6
Continuous
 62
     7
370
    50
100
AcDbCircle
 10
71.75000000000091
 20
147.4999999999999
 30
0.0
 40
3.0
100
AcDbArc
 50
29.00254602667303
 51
47.79455359624906
1001
PHOENIX7010
1002
{
1070
    41
1040
1.0
1002
}
  0
LINE
  5
D3BC
330
1F
100
AcDbEntity
  8
0
  6
Continuous
 62
     7
370
    50
100
AcDbLine
 10
56.35000000000037
 20
185.4999999999999
 30
0.0
 11
57.35000000000036
 21
186.4999999999999
 31
0.0
1001
PHOENIX7010
1002
{
1070
    41
1040
1.0
1002
}
  0
LINE
  5
D3BD
330
1F
100
AcDbEntity
  8
0
  6
Continuous
 62
     7
370
    50
100
AcDbLine
 10
54.35000000000036
 20
187.9999999999999
 30
0.0
 11
54.35000000000036
 21
188.9999999999998
 31
0.0
1001
PHOENIX7010
1002
{
1070
    41
1040
1.0
1002
}
  0
LINE
  5
D3BE
330
1F
100
AcDbEntity
  8
0
  6
Continuous
 62
     7
370
    50
100
AcDbLine
 10
53.35000000000036
 20
188.9999999999998
 30
0.0
 11
54.35000000000036
 21
188.9999999999998
 31
0.0
1001
PHOENIX7010
1002
{
1070
    41
1040
1.0
1002
}
  0
LINE
  5
D3BF
330
1F
100
AcDbEntity
  8
0
  6
Continuous
 62
     7
370
    50
100
AcDbLine
 10
53.35000000000036
 20
187.9999999999999
 30
0.0
 11
53.35000000000036
 21
188.9999999999998
 31
0.0
1001
PHOENIX7010
1002
{
1070
    41
1040
1.0
1002
}
  0
LINE
  5
D3C0
330
1F
100
AcDbEntity
  8
0
  6
Continuous
 62
     7
370
    50
100
AcDbLine
 10
53.35000000000014
 20
187.9999999999999
 30
0.0
 11
53.85000000000013
 21
186.1339745962158
 31
0.0
1001
PHOENIX7010
1002
{
1070
    41
1040
1.0
1002
}
  0
LINE
  5
D3C1
330
1F
100
AcDbEntity
  8
0
  6
Continuous
 62
     7
370
    50
100
AcDbLine
 10
55.35000000000014
 20
187.9999999999999
 30
0.0
 11
54.35000000000013
 21
187.9999999999999
 31
0.0
1001
PHOENIX7010
1002
{
1070
    41
1040
1.0
1002
}
  0
LINE
  5
D3C2
102
{ACAD_REACTORS
330
14775
102
}
330
1F
100
AcDbEntity
  8
0
  6
Continuous
 62
     7
370
    50
100
AcDbLine
 10
54.35000000000036
 20
179.933974596226
 30
0.0
 11
53.85000000000037
 21
180.8
 31
0.0
1001
PHOENIX7010
1002
{
1070
    41
1040
1.0
1002
}
  0
LINE
  5
D3C3
330
1F
100
AcDbEntity
  8
0
  6
Continuous
 62
     7
370
    50
100
AcDbLine
 10
56.35000000000037
 20
178.4999999999999
 30
0.0
 11
56.35000000000037
 21
185.4999999999999
 31
0.0
1001
PHOENIX7010
1002
{
1070
    41
1040
1.0
1002
}
  0
LINE
  5
D3C4
330
1F
100
AcDbEntity
  8
0
  6
Continuous
 62
     7
370
    50
100
AcDbLine
 10
53.85000000000013
 20
180.8000000000003
 30
0.0
 11
53.85000000000013
 21
186.1339745962158
 31
0.0
1001
PHOENIX7010
1002
{
1070
    41
1040
1.0
1002
}
  0
LINE
  5
D3C5
330
1F
100
AcDbEntity
  8
0
  6
Continuous
 62
     7
370
    50
100
AcDbLine
 10
55.05000000000018
 20
176.4999999999998
 30
0.0
 11
54.65000000000031
 21
176.4999999999998
 31
0.0
1001
PHOENIX7010
1002
{
1070
    41
1040
1.0
1002
}
  0
ARC
  5
D3C6
330
1F
100
AcDbEntity
  8
0
  6
Continuous
 62
     7
370
    50
100
AcDbCircle
 10
54.65000000000031
 20
176.7999999999998
 30
0.0
 40
0.3
100
AcDbArc
 50
180.0
 51
270.0
1001
PHOENIX7010
1002
{
1070
    41
1040
1.0
1002
}
  0
ARC
  5
D3C7
330
1F
100
AcDbEntity
  8
0
  6
Continuous
 62
     7
370
    50
100
AcDbCircle
 10
51.40000000000032
 20
175.3999999999997
 30
0.0
 40
0.3
100
AcDbArc
 50
0.0
 51
90.0
1001
PHOENIX7010
1002
{
1070
    41
1040
1.0
1002
}
  0
ARC
  5
D3C8
330
1F
100
AcDbEntity
  8
0
  6
Continuous
 62
     7
370
    50
100
AcDbCircle
 10
55.05000000000018
 20
176.1999999999999
 30
0.0
 40
0.3
100
AcDbArc
 50
0.0
 51
90.0
1001
PHOENIX7010
1002
{
1070
    41
1040
1.0
1002
}
  0
LINE
  5
D3C9
330
1F
100
AcDbEntity
  8
0
  6
Continuous
 62
     7
370
    50
100
AcDbLine
 10
51.00000000000022
 20
175.6999999999999
 30
0.0
 11
50.00000000000023
 21
175.1226497308092
 31
0.0
1001
PHOENIX7010
1002
{
1070
    41
1040
1.0
1002
}
  0
LINE
  5
D3CA
330
1F
100
AcDbEntity
  8
0
  6
Continuous
 62
     7
370
    50
100
AcDbLine
 10
51.40000000000032
 20
175.6999999999997
 30
0.0
 11
51.00000000000022
 21
175.6999999999999
 31
0.0
1001
PHOENIX7010
1002
{
1070
    41
1040
1.0
1002
}
  0
LINE
  5
D3CB
330
1F
100
AcDbEntity
  8
0
  6
Continuous
 62
     7
370
    50
100
AcDbLine
 10
54.35000000000036
 20
176.7999999999998
 30
0.0
 11
54.35000000000036
 21
179.933974596226
 31
0.0
1001
PHOENIX7010
1002
{
1070
    41
1040
1.0
1002
}
  0
LINE
  5
D3CC
330
1F
100
AcDbEntity
  8
0
  6
Continuous
 62
     7
370
    50
100
AcDbLine
 10
56.35000000000037
 20
178.4999999999999
 30
0.0
 11
57.35000000000036
 21
177.5000000000001
 31
0.0
1001
PHOENIX7010
1002
{
1070
    41
1040
1.0
1002
}
  0
LINE
  5
D3CD
330
1F
100
AcDbEntity
  8
0
  6
Continuous
 62
     7
370
    35
100
AcDbLine
 10
52.30086232538133
 20
225.3366600265339
 30
0.0
 11
51.35000000000037
 21
225.8856406460548
 31
0.0
1001
PHOENIX7010
1002
{
1070
    41
1040
1.0
1002
}
  0
ARC
  5
D3CE
330
1F
100
AcDbEntity
  8
0
  6
Continuous
 62
     7
370
    50
100
AcDbCircle
 10
53.75000000000023
 20
224.4999999999999
 30
0.0
 40
1.400000000000005
100
AcDbArc
 50
220.164248621713
 51
139.835751378287
1001
PHOENIX7010
1002
{
1070
    41
1040
1.0
1002
}
  0
LINE
  5
D3D0
330
1F
100
AcDbEntity
  8
0
  6
Continuous
 62
     7
370
    50
100
AcDbLine
 10
57.35000000000036
 20
237.0500000000001
 30
0.0
 11
57.35000000000036
 21
216.4999999999999
 31
0.0
1001
PHOENIX7010
1002
{
1070
    41
1040
1.0
1002
}
  0
ARC
  5
D3D1
330
1F
100
AcDbEntity
  8
0
  6
Continuous
 62
     7
370
    50
100
AcDbCircle
 10
52.45086232538131
 20
225.5964676476692
 30
0.0
 40
0.3
100
AcDbArc
 50
240.0000000000027
 51
319.835751378287
1001
PHOENIX7010
1002
{
1070
    41
1040
1.0
1002
}
  0
LINE
  5
D3D2
330
1F
100
AcDbEntity
  8
0
  6
Continuous
 62
     7
370
    50
100
AcDbLine
 10
55.35000000000036
 20
221.1999999999999
 30
0.0
 11
55.35000000000036
 21
220.2249999999999
 31
0.0
1001
PHOENIX7010
1002
{
1070
    41
1040
1.0
1002
}
  0
ARC
  5
D3D3
330
1F
100
AcDbEntity
  8
0
  6
Continuous
 62
     7
370
    50
100
AcDbCircle
 10
51.87867965644045
 20
222.8422424267163
 30
0.0
 40
0.5
100
AcDbArc
 50
119.9999999999973
 51
221.5369590328283
1001
PHOENIX7010
1002
{
1070
    41
1040
1.0
1002
}
  0
LINE
  5
D3D4
330
1F
100
AcDbEntity
  8
0
  6
Continuous
 62
     7
370
    50
100
AcDbLine
 10
52.30086232538145
 20
223.663339973466
 30
0.0
 11
51.62867965644045
 21
223.2752551286086
 31
0.0
1001
PHOENIX7010
1002
{
1070
    41
1040
1.0
1002
}
  0
ARC
  5
D3D5
330
1F
100
AcDbEntity
  8
0
  6
Continuous
 62
     7
370
    50
100
AcDbCircle
 10
52.45086232538142
 20
223.4035323523307
 30
0.0
 40
0.3
100
AcDbArc
 50
40.16424862171298
 51
119.9999999999973
1001
PHOENIX7010
1002
{
1070
    41
1040
1.0
1002
}
  0
LINE
  5
D3D6
330
1F
100
AcDbEntity
  8
0
  6
Continuous
 62
     7
370
    50
100
AcDbLine
 10
53.75000000000023
 20
221.4999999999999
 30
0.0
 11
55.05000000000041
 21
221.4999999999999
 31
0.0
1001
PHOENIX7010
1002
{
1070
    41
1040
1.0
1002
}
  0
ARC
  5
D3D7
330
1F
100
AcDbEntity
  8
0
  6
Continuous
 62
     7
370
    50
100
AcDbCircle
 10
53.75000000000023
 20
224.4999999999999
 30
0.0
 40
3.0
100
AcDbArc
 50
221.5369590328283
 51
270.0
1001
PHOENIX7010
1002
{
1070
    41
1040
1.0
1002
}
  0
ARC
  5
D3D8
330
1F
100
AcDbEntity
  8
0
  6
Continuous
 62
     7
370
    50
100
AcDbCircle
 10
55.05000000000041
 20
221.1999999999999
 30
0.0
 40
0.3
100
AcDbArc
 50
0.0
 51
90.0
1001
PHOENIX7010
1002
{
1070
    41
1040
1.0
1002
}
  0
ARC
  5
D3DA
330
1F
100
AcDbEntity
  8
0
  6
Continuous
 62
     7
370
    50
100
AcDbCircle
 10
55.35000000000036
 20
219.925
 30
0.0
 40
0.2999999999999971
100
AcDbArc
 50
90.0
 51
270.0
1001
PHOENIX7010
1002
{
1070
    41
1040
1.0
1002
}
  0
LINE
  5
D3DB
330
1F
100
AcDbEntity
  8
0
  6
Continuous
 62
     7
370
    50
100
AcDbLine
 10
56.35000000000037
 20
215.4999999999999
 30
0.0
 11
57.35000000000036
 21
216.4999999999999
 31
0.0
1001
PHOENIX7010
1002
{
1070
    41
1040
1.0
1002
}
  0
LINE
  5
D3DC
330
1F
100
AcDbEntity
  8
0
  6
Continuous
 62
     7
370
    50
100
AcDbLine
 10
53.45000000000027
 20
217.65
 30
0.0
 11
54.35000000000036
 21
217.65
 31
0.0
1001
PHOENIX7010
1002
{
1070
    41
1040
1.0
1002
}
  0
LINE
  5
D3DD
330
1F
100
AcDbEntity
  8
0
  6
Continuous
 62
     7
370
    50
100
AcDbLine
 10
52.75000000000023
 20
214.65
 30
0.0
 11
52.25294372515236
 21
213.4499999999999
 31
0.0
1001
PHOENIX7010
1002
{
1070
    41
1040
1.0
1002
}
  0
LINE
  5
D3DE
330
1F
100
AcDbEntity
  8
0
  6
Continuous
 62
     7
370
    50
100
AcDbLine
 10
51.45000000000027
 20
215.6499999999995
 30
0.0
 11
51.45000000000027
 21
213.4499999999999
 31
0.0
1001
PHOENIX7010
1002
{
1070
    41
1040
1.0
1002
}
  0
LINE
  5
D3DF
330
1F
100
AcDbEntity
  8
0
  6
Continuous
 62
     7
370
    50
100
AcDbLine
 10
51.45000000000027
 20
213.4499999999999
 30
0.0
 11
52.25294372515236
 21
213.4499999999999
 31
0.0
1001
PHOENIX7010
1002
{
1070
    41
1040
1.0
1002
}
  0
LINE
  5
D3E0
330
1F
100
AcDbEntity
  8
0
  6
Continuous
 62
     7
370
    50
100
AcDbLine
 10
52.75000000000023
 20
214.65
 30
0.0
 11
53.85000000000013
 21
214.65
 31
0.0
1001
PHOENIX7010
1002
{
1070
    41
1040
1.0
1002
}
  0
ARC
  5
D3E1
330
1F
100
AcDbEntity
  8
0
  6
Continuous
 62
     7
370
    50
100
AcDbCircle
 10
54.35000000000036
 20
218.65
 30
0.0
 40
1.0
100
AcDbArc
 50
270.0
 51
0.0
1001
PHOENIX7010
1002
{
1070
    41
1040
1.0
1002
}
  0
LINE
  5
D3E2
330
1F
100
AcDbEntity
  8
0
  6
Continuous
 62
     7
370
    50
100
AcDbLine
 10
55.35000000000036
 20
219.625
 30
0.0
 11
55.35000000000036
 21
218.65
 31
0.0
1001
PHOENIX7010
1002
{
1070
    41
1040
1.0
1002
}
  0
ARC
  5
D3E3
330
1F
100
AcDbEntity
  8
0
  6
Continuous
 62
     7
370
    50
100
AcDbCircle
 10
53.45000000000027
 20
215.65
 30
0.0
 40
2.0
100
AcDbArc
 50
90.0
 51
180.0
1001
PHOENIX7010
1002
{
1070
    41
1040
1.0
1002
}
  0
LINE
  5
D3E4
330
1F
100
AcDbEntity
  8
0
  6
Continuous
 62
     7
370
    50
100
AcDbLine
 10
56.35000000000037
 20
208.4999999999999
 30
0.0
 11
57.35000000000036
 21
207.4999999999999
 31
0.0
1001
PHOENIX7010
1002
{
1070
    41
1040
1.0
1002
}
  0
LINE
  5
D3E5
330
1F
100
AcDbEntity
  8
0
  6
Continuous
 62
     7
370
    50
100
AcDbLine
 10
54.35000000000036
 20
205.9999999999999
 30
0.0
 11
54.35000000000036
 21
204.9999999999999
 31
0.0
1001
PHOENIX7010
1002
{
1070
    41
1040
1.0
1002
}
  0
LINE
  5
D3E6
330
1F
100
AcDbEntity
  8
0
  6
Continuous
 62
     7
370
    50
100
AcDbLine
 10
53.35000000000036
 20
204.9999999999999
 30
0.0
 11
54.35000000000036
 21
204.9999999999999
 31
0.0
1001
PHOENIX7010
1002
{
1070
    41
1040
1.0
1002
}
  0
LINE
  5
D3E7
330
1F
100
AcDbEntity
  8
0
  6
Continuous
 62
     7
370
    50
100
AcDbLine
 10
53.35000000000036
 20
205.9999999999999
 30
0.0
 11
53.35000000000036
 21
204.9999999999999
 31
0.0
1001
PHOENIX7010
1002
{
1070
    41
1040
1.0
1002
}
  0
LINE
  5
D3E8
330
1F
100
AcDbEntity
  8
0
  6
Continuous
 62
     7
370
    50
100
AcDbLine
 10
55.35000000000014
 20
205.9999999999999
 30
0.0
 11
54.35000000000013
 21
205.9999999999999
 31
0.0
1001
PHOENIX7010
1002
{
1070
    41
1040
1.0
1002
}
  0
LINE
  5
D3E9
330
1F
100
AcDbEntity
  8
0
  6
Continuous
 62
     7
370
    50
100
AcDbLine
 10
53.35000000000014
 20
205.9999999999999
 30
0.0
 11
53.85000000000013
 21
207.8660254037842
 31
0.0
1001
PHOENIX7010
1002
{
1070
    41
1040
1.0
1002
}
  0
LINE
  5
D3EA
330
1F
100
AcDbEntity
  8
0
  6
Continuous
 62
     7
370
    50
100
AcDbLine
 10
56.35000000000037
 20
215.4999999999999
 30
0.0
 11
56.35000000000037
 21
208.4999999999999
 31
0.0
1001
PHOENIX7010
1002
{
1070
    41
1040
1.0
1002
}
  0
LINE
  5
D3EB
330
1F
100
AcDbEntity
  8
0
  6
Continuous
 62
     7
370
    50
100
AcDbLine
 10
53.85000000000013
 20
214.65
 30
0.0
 11
53.85000000000013
 21
207.8660254037842
 31
0.0
1001
PHOENIX7010
1002
{
1070
    41
1040
1.0
1002
}
  0
LINE
  5
D3EC
330
1F
100
AcDbEntity
  8
0
  6
Continuous
 62
     7
370
    50
100
AcDbLine
 10
63.35000000000104
 20
245.7500000000001
 30
0.0
 11
62.35000000000105
 21
245.7500000000001
 31
0.0
1001
PHOENIX7010
1002
{
1070
    41
1040
1.0
1002
}
  0
LINE
  5
D3ED
330
1F
100
AcDbEntity
  8
0
  6
Continuous
 62
     7
370
    50
100
AcDbLine
 10
62.35000000000105
 20
247.2500000000001
 30
0.0
 11
62.35000000000105
 21
245.7500000000001
 31
0.0
1001
PHOENIX7010
1002
{
1070
    41
1040
1.0
1002
}
  0
LINE
  5
D3EE
330
1F
100
AcDbEntity
  8
0
  6
Continuous
 62
     7
100
AcDbLine
 10
60.150000000001
 20
243.2500000000001
 30
0.0
 11
60.150000000001
 21
244.35
 31
0.0
1001
PHOENIX7010
1002
{
1070
    41
1040
1.0
1002
}
  0
LINE
  5
D3EF
330
1F
100
AcDbEntity
  8
0
  6
Continuous
 62
     7
100
AcDbLine
 10
59.45000000000096
 20
243.2500000000001
 30
0.0
 11
60.150000000001
 21
243.2500000000001
 31
0.0
1001
PHOENIX7010
1002
{
1070
    41
1040
1.0
1002
}
  0
LINE
  5
D3F0
330
1F
100
AcDbEntity
  8
0
  6
Continuous
 62
     7
100
AcDbLine
 10
59.45000000000096
 20
244.1500000000002
 30
0.0
 11
59.45000000000096
 21
243.2500000000001
 31
0.0
1001
PHOENIX7010
1002
{
1070
    41
1040
1.0
1002
}
  0
LINE
  5
D3F1
330
1F
100
AcDbEntity
  8
0
  6
Continuous
 62
     7
100
AcDbLine
 10
60.150000000001
 20
239.6500000000002
 30
0.0
 11
59.45000000000096
 21
239.6500000000002
 31
0.0
1001
PHOENIX7010
1002
{
1070
    41
1040
1.0
1002
}
  0
LINE
  5
D3F2
330
1F
100
AcDbEntity
  8
0
  6
Continuous
 62
     7
100
AcDbLine
 10
60.150000000001
 20
239.6500000000002
 30
0.0
 11
60.150000000001
 21
238.5500000000001
 31
0.0
1001
PHOENIX7010
1002
{
1070
    41
1040
1.0
1002
}
  0
LINE
  5
D3F3
330
1F
100
AcDbEntity
  8
0
  6
Continuous
 62
     7
100
AcDbLine
 10
59.45000000000096
 20
239.6500000000002
 30
0.0
 11
59.45000000000096
 21
238.7500000000001
 31
0.0
1001
PHOENIX7010
1002
{
1070
    41
1040
1.0
1002
}
  0
ARC
  5
D3F4
330
1F
100
AcDbEntity
  8
0
  6
Continuous
 62
     7
370
    50
100
AcDbCircle
 10
52.30000000000018
 20
248.2999999999998
 30
0.0
 40
0.3
100
AcDbArc
 50
180.0
 51
270.0
1001
PHOENIX7010
1002
{
1070
    41
1040
1.0
1002
}
  0
LINE
  5
D3F5
330
1F
100
AcDbEntity
  8
0
  6
Continuous
 62
     7
370
    50
100
AcDbLine
 10
52.00000000000023
 20
248.2999999999998
 30
0.0
 11
52.00000000000023
 21
248.43233856632
 31
0.0
1001
PHOENIX7010
1002
{
1070
    41
1040
1.0
1002
}
  0
ARC
  5
D3F6
330
1F
100
AcDbEntity
  8
0
  6
Continuous
 62
     7
370
    50
100
AcDbCircle
 10
53.64428714775749
 20
247.6999999999999
 30
0.0
 40
1.8
100
AcDbArc
 50
90.0
 51
155.992591783443
1001
PHOENIX7010
1002
{
1070
    41
1040
1.0
1002
}
  0
LINE
  5
D3F7
330
1F
100
AcDbEntity
  8
0
  6
Continuous
 62
     7
370
    50
100
AcDbLine
 10
52.30000000000018
 20
247.9999999999999
 30
0.0
 11
55.05000000000041
 21
247.9999999999999
 31
0.0
1001
PHOENIX7010
1002
{
1070
    41
1040
1.0
1002
}
  0
ARC
  5
D3F8
102
{ACAD_REACTORS
330
1148F
102
}
330
1F
100
AcDbEntity
  8
0
  6
Continuous
 62
     7
370
    50
100
AcDbCircle
 10
57.65000000000032
 20
246.95
 30
0.0
 40
0.3
100
AcDbArc
 50
90.0
 51
180.0
1001
PHOENIX7010
1002
{
1070
    41
1040
1.0
1002
}
  0
ARC
  5
D3F9
330
1F
100
AcDbEntity
  8
0
  6
Continuous
 62
     7
370
    50
100
AcDbCircle
 10
57.85000000000036
 20
245.8500000000003
 30
0.0
 40
0.5
100
AcDbArc
 50
180.0
 51
270.0
1001
PHOENIX7010
1002
{
1070
    41
1040
1.0
1002
}
  0
LINE
  5
D3FA
330
1F
100
AcDbEntity
  8
0
  6
Continuous
 62
     7
100
AcDbLine
 10
57.85000000000036
 20
245.3500000000003
 30
0.0
 11
59.150000000001
 21
245.3500000000003
 31
0.0
1001
PHOENIX7010
1002
{
1070
    41
1040
1.0
1002
}
  0
LINE
  5
D3FB
330
1F
100
AcDbEntity
  8
0
  6
Continuous
 62
     7
370
    50
100
AcDbLine
 10
57.35000000000036
 20
246.95
 30
0.0
 11
57.35000000000036
 21
245.8500000000003
 31
0.0
1001
PHOENIX7010
1002
{
1070
    41
1040
1.0
1002
}
  0
LINE
  5
D3FC
330
1F
100
AcDbEntity
  8
0
  6
Continuous
 62
     7
370
    50
100
AcDbLine
 10
55.35000000000036
 20
245.7500000000001
 30
0.0
 11
55.35000000000036
 21
247.6999999999999
 31
0.0
1001
PHOENIX7010
1002
{
1070
    41
1040
1.0
1002
}
  0
LINE
  5
D3FD
330
1F
100
AcDbEntity
  8
0
  6
Continuous
 62
     7
100
AcDbLine
 10
57.25000000000091
 20
243.2500000000001
 30
0.0
 11
57.25000000000091
 21
244.1500000000002
 31
0.0
1001
PHOENIX7010
1002
{
1070
    41
1040
1.0
1002
}
  0
LINE
  5
D3FE
330
1F
100
AcDbEntity
  8
0
  6
Continuous
 62
     7
370
    50
100
AcDbLine
 10
53.25000000000068
 20
245.2500000000001
 30
0.0
 11
54.85000000000036
 21
245.2500000000001
 31
0.0
1001
PHOENIX7010
1002
{
1070
    41
1040
1.0
1002
}
  0
ARC
  5
D3FF
330
1F
100
AcDbEntity
  8
0
  6
Continuous
 62
     7
100
AcDbCircle
 10
53.75000000000091
 20
242.7499999999999
 30
0.0
 40
0.5
100
AcDbArc
 50
90.0
 51
180.0
1001
PHOENIX7010
1002
{
1070
    41
1040
1.0
1002
}
  0
LINE
  5
D400
330
1F
100
AcDbEntity
  8
0
  6
Continuous
 62
     7
100
AcDbLine
 10
53.75000000000068
 20
243.2499999999999
 30
0.0
 11
57.25000000000091
 21
243.2500000000001
 31
0.0
1001
PHOENIX7010
1002
{
1070
    41
1040
1.0
1002
}
  0
ARC
  5
D401
330
1F
100
AcDbEntity
  8
0
  6
Continuous
 62
     7
100
AcDbCircle
 10
54.85000000000036
 20
245.7500000000001
 30
0.0
 40
0.5
100
AcDbArc
 50
270.0
 51
0.0
1001
PHOENIX7010
1002
{
1070
    41
1040
1.0
1002
}
  0
ARC
  5
D402
330
1F
100
AcDbEntity
  8
0
  6
Continuous
 62
     7
100
AcDbCircle
 10
57.85000000000036
 20
237.0500000000001
 30
0.0
 40
0.5
100
AcDbArc
 50
90.0
 51
180.0
1001
PHOENIX7010
1002
{
1070
    41
1040
1.0
1002
}
  0
LINE
  5
D403
330
1F
100
AcDbEntity
  8
0
  6
Continuous
 62
     7
100
AcDbLine
 10
59.150000000001
 20
237.5500000000001
 30
0.0
 11
57.85000000000036
 21
237.5500000000001
 31
0.0
1001
PHOENIX7010
1002
{
1070
    41
1040
1.0
1002
}
  0
LINE
  5
D404
330
1F
100
AcDbEntity
  8
0
  6
Continuous
 62
     7
100
AcDbLine
 10
57.25000000000091
 20
238.7500000000001
 30
0.0
 11
57.25000000000091
 21
239.6500000000002
 31
0.0
1001
PHOENIX7010
1002
{
1070
    41
1040
1.0
1002
}
  0
ARC
  5
D405
330
1F
100
AcDbEntity
  8
0
  6
Continuous
 62
     7
100
AcDbCircle
 10
53.75000000000091
 20
240.1500000000002
 30
0.0
 40
0.5
100
AcDbArc
 50
180.0
 51
270.0
1001
PHOENIX7010
1002
{
1070
    41
1040
1.0
1002
}
  0
LINE
  5
D406
330
1F
100
AcDbEntity
  8
0
  6
Continuous
 62
     7
100
AcDbLine
 10
54.85000000000036
 20
237.6500000000002
 30
0.0
 11
53.25000000000091
 21
237.6500000000002
 31
0.0
1001
PHOENIX7010
1002
{
1070
    41
1040
1.0
1002
}
  0
LINE
  5
D407
330
1F
100
AcDbEntity
  8
0
  6
Continuous
 62
     7
100
AcDbLine
 10
57.25000000000091
 20
239.6500000000002
 30
0.0
 11
53.75000000000091
 21
239.6500000000002
 31
0.0
1001
PHOENIX7010
1002
{
1070
    41
1040
1.0
1002
}
  0
ARC
  5
D408
330
1F
100
AcDbEntity
  8
0
  6
Continuous
 62
     7
100
AcDbCircle
 10
54.85000000000036
 20
237.1500000000002
 30
0.0
 40
0.5
100
AcDbArc
 50
0.0
 51
90.0
1001
PHOENIX7010
1002
{
1070
    41
1040
1.0
1002
}
  0
LINE
  5
D409
330
1F
100
AcDbEntity
  8
0
  6
Continuous
 62
     7
100
AcDbLine
 10
53.25000000000091
 20
240.1500000000002
 30
0.0
 11
53.25000000000091
 21
242.7499999999999
 31
0.0
1001
PHOENIX7010
1002
{
1070
    41
1040
1.0
1002
}
  0
LINE
  5
D40A
330
1F
100
AcDbEntity
  8
0
  6
Continuous
 62
     7
100
AcDbLine
 10
51.25000000000091
 20
239.6361536894482
 30
0.0
 11
51.25000000000091
 21
243.2500000000001
 31
0.0
1001
PHOENIX7010
1002
{
1070
    41
1040
1.0
1002
}
  0
ARC
  5
D40B
330
1F
100
AcDbEntity
  8
0
  6
Continuous
 62
     7
100
AcDbCircle
 10
53.25000000000091
 20
243.2500000000001
 30
0.0
 40
2.0
100
AcDbArc
 50
90.0
 51
180.0
1001
PHOENIX7010
1002
{
1070
    41
1040
1.0
1002
}
  0
ARC
  5
D40C
330
1F
100
AcDbEntity
  8
0
  6
Continuous
 62
     7
100
AcDbCircle
 10
53.25000000000091
 20
239.65
 30
0.0
 40
2.0
100
AcDbArc
 50
180.0
 51
270.0
1001
PHOENIX7010
1002
{
1070
    41
1040
1.0
1002
}
  0
ARC
  5
D40D
330
1F
100
AcDbEntity
  8
0
  6
Continuous
 62
     7
370
    50
100
AcDbCircle
 10
55.05000000000041
 20
247.6999999999999
 30
0.0
 40
0.3
100
AcDbArc
 50
0.0
 51
90.0
1001
PHOENIX7010
1002
{
1070
    41
1040
1.0
1002
}
  0
ARC
  5
D40E
330
1F
100
AcDbEntity
  8
0
  6
Continuous
 62
     7
370
    50
100
AcDbCircle
 10
51.50000000000023
 20
230.3999999999998
 30
0.0
 40
0.3
100
AcDbArc
 50
90.0
 51
180.0
1001
PHOENIX7010
1002
{
1070
    41
1040
1.0
1002
}
  0
LINE
  5
D40F
330
1F
100
AcDbEntity
  8
0
  6
Continuous
 62
     7
370
    50
100
AcDbLine
 10
52.40000000000032
 20
230.6999999999997
 30
0.0
 11
51.50000000000023
 21
230.6999999999999
 31
0.0
1001
PHOENIX7010
1002
{
1070
    41
1040
1.0
1002
}
  0
ARC
  5
D410
330
1F
100
AcDbEntity
  8
0
  6
Continuous
 62
     7
370
    50
100
AcDbCircle
 10
52.40000000000032
 20
230.3999999999998
 30
0.0
 40
0.3
100
AcDbArc
 50
0.0
 51
90.0
1001
PHOENIX7010
1002
{
1070
    41
1040
1.0
1002
}
  0
LINE
  5
D411
330
1F
100
AcDbEntity
  8
0
  6
Continuous
 62
     7
370
    35
100
AcDbLine
 10
53.00000000000022
 20
227.4999999999999
 30
0.0
 11
55.05000000000041
 21
227.4999999999999
 31
0.0
1001
PHOENIX7010
1002
{
1070
    41
1040
1.0
1002
}
  0
ARC
  5
D412
330
1F
100
AcDbEntity
  8
0
  6
Continuous
 62
     7
370
    50
100
AcDbCircle
 10
51.50000000000023
 20
226.1454482671903
 30
0.0
 40
0.3
100
AcDbArc
 50
180.0
 51
240.0000000000027
1001
PHOENIX7010
1002
{
1070
    41
1040
1.0
1002
}
  0
ARC
  5
D413
330
1F
100
AcDbEntity
  8
0
  6
Continuous
 62
     7
370
    50
100
AcDbCircle
 10
53.00000000000022
 20
227.7999999999996
 30
0.0
 40
0.3
100
AcDbArc
 50
180.0
 51
270.0
1001
PHOENIX7010
1002
{
1070
    41
1040
1.0
1002
}
  0
ARC
  5
D414
330
1F
100
AcDbEntity
  8
0
  6
Continuous
 62
     7
370
    50
100
AcDbCircle
 10
55.05000000000018
 20
227.7999999999998
 30
0.0
 40
0.3
100
AcDbArc
 50
270.0
 51
0.0
1001
PHOENIX7010
1002
{
1070
    41
1040
1.0
1002
}
  0
LINE
  5
D415
330
1F
100
AcDbEntity
  8
0
  6
Continuous
 62
     7
370
    50
100
AcDbLine
 10
51.20000000000027
 20
226.1454482671903
 30
0.0
 11
51.20000000000027
 21
230.3999999999998
 31
0.0
1001
PHOENIX7010
1002
{
1070
    41
1040
1.0
1002
}
  0
LINE
  5
D416
330
1F
100
AcDbEntity
  8
0
  6
Continuous
 62
     7
370
    50
100
AcDbLine
 10
52.70000000000027
 20
230.3999999999998
 30
0.0
 11
52.70000000000027
 21
227.7999999999996
 31
0.0
1001
PHOENIX7010
1002
{
1070
    41
1040
1.0
1002
}
  0
LINE
  5
D417
330
1F
100
AcDbEntity
  8
0
  6
Continuous
 62
     7
370
    50
100
AcDbLine
 10
55.35000000000036
 20
227.7999999999998
 30
0.0
 11
55.35000000000036
 21
237.1500000000002
 31
0.0
1001
PHOENIX7010
1002
{
1070
    41
1040
1.0
1002
}
  0
ARC
  5
D418
330
1F
100
AcDbEntity
  8
0
  6
Continuous
 62
     7
100
AcDbCircle
 10
59.150000000001
 20
244.3500000000002
 30
0.0
 40
1.0
100
AcDbArc
 50
359.999999999974
 51
90.0
1001
PHOENIX7010
1002
{
1070
    41
1040
1.0
1002
}
  0
LINE
  5
D419
330
1F
100
AcDbEntity
  8
0
  6
Continuous
 62
     7
100
AcDbLine
 10
57.25000000000091
 20
244.1500000000002
 30
0.0
 11
59.45000000000096
 21
244.1500000000002
 31
0.0
1001
PHOENIX7010
1002
{
1070
    41
1040
1.0
1002
}
  0
LINE
  5
D41A
330
1F
100
AcDbEntity
  8
0
  6
Continuous
 62
     7
370
    50
100
AcDbLine
 10
62.35000000000105
 20
247.2500000000001
 30
0.0
 11
57.65000000000032
 21
247.2499999999997
 31
0.0
1001
PHOENIX7010
1002
{
1070
    41
1040
1.0
1002
}
  0
ARC
  5
D41B
330
1F
100
AcDbEntity
  8
0
  6
Continuous
 62
     7
100
AcDbCircle
 10
59.150000000001
 20
238.5500000000001
 30
0.0
 40
1.0
100
AcDbArc
 50
270.0
 51
0.0
1001
PHOENIX7010
1002
{
1070
    41
1040
1.0
1002
}
  0
LINE
  5
D41C
330
1F
100
AcDbEntity
  8
0
  6
Continuous
 62
     7
100
AcDbLine
 10
59.45000000000096
 20
238.7500000000001
 30
0.0
 11
57.25000000000091
 21
238.7500000000001
 31
0.0
1001
PHOENIX7010
1002
{
1070
    41
1040
1.0
1002
}
  0
LINE
  5
D41D
102
{ACAD_REACTORS
330
10D54
102
}
330
1F
100
AcDbEntity
  8
0
  6
ACAD_ISO04W100
 62
     1
 48
0.4095238095238125
370
    25
100
AcDbLine
 10
49.25000000000091
 20
241.45
 30
0.0
 11
62.150000000001
 21
241.45
 31
0.0
1001
PHOENIX7010
1002
{
1070
    41
1040
1.0
1002
}
  0
ARC
  5
D41E
330
1F
100
AcDbEntity
  8
0
  6
Continuous
 62
     7
370
    50
100
AcDbCircle
 10
75.85000000000127
 20
245.7350889359319
 30
0.0
 40
0.3
100
AcDbArc
 50
0.0
 51
103.3423637970784
1001
PHOENIX7010
1002
{
1070
    41
1040
1.0
1002
}
  0
ARC
  5
D41F
330
1F
100
AcDbEntity
  8
0
  6
Continuous
 62
     7
370
    50
100
AcDbCircle
 10
75.85000000000127
 20
245.4999999999999
 30
0.0
 40
0.3
100
AcDbArc
 50
270.0
 51
0.0
1001
PHOENIX7010
1002
{
1070
    41
1040
1.0
1002
}
  0
LINE
  5
D420
330
1F
100
AcDbEntity
  8
0
  6
Continuous
 62
     7
370
    50
100
AcDbLine
 10
76.15000000000122
 20
245.7350889359319
 30
0.0
 11
76.15000000000122
 21
245.4999999999999
 31
0.0
1001
PHOENIX7010
1002
{
1070
    41
1040
1.0
1002
}
  0
ARC
  5
D421
330
1F
100
AcDbEntity
  8
0
  6
Continuous
 62
     7
370
    50
100
AcDbCircle
 10
74.63617393793288
 20
244.8999999999998
 30
0.0
 40
0.3
100
AcDbArc
 50
90.0
 51
150.997453973327
1001
PHOENIX7010
1002
{
1070
    41
1040
1.0
1002
}
  0
ARC
  5
D422
330
1F
100
AcDbEntity
  8
0
  6
Continuous
 62
     7
370
    50
100
AcDbCircle
 10
72.84646764766989
 20
245.2008623253811
 30
0.0
 40
0.3
100
AcDbArc
 50
130.1642486217129
 51
210.0000000000151
1001
PHOENIX7010
1002
{
1070
    41
1040
1.0
1002
}
  0
ARC
  5
D423
330
1F
100
AcDbEntity
  8
0
  6
Continuous
 62
     7
370
    50
100
AcDbCircle
 10
73.25111069989384
 20
244.5000000000001
 30
0.0
 40
0.3
100
AcDbArc
 50
210.0000000000151
 51
270.0
1001
PHOENIX7010
1002
{
1070
    41
1040
1.0
1002
}
  0
LINE
  5
D424
102
{ACAD_REACTORS
330
11BC9
102
}
330
1F
100
AcDbEntity
  8
0
  6
Continuous
 62
     7
370
    50
100
AcDbLine
 10
73.56383571472292
 20
244.2000000000001
 30
0.0
 11
73.25111069989384
 21
244.2000000000001
 31
0.0
1001
PHOENIX7010
1002
{
1070
    41
1040
1.0
1002
}
  0
ARC
  5
D425
330
1F
100
AcDbEntity
  8
0
  6
Continuous
 62
     7
370
    50
100
AcDbCircle
 10
73.56383571472292
 20
244.5000000000001
 30
0.0
 40
0.3
100
AcDbArc
 50
270.0
 51
312.205446403751
1001
PHOENIX7010
1002
{
1070
    41
1040
1.0
1002
}
  0
ARC
  5
D426
330
1F
100
AcDbEntity
  8
0
  6
Continuous
 62
     7
370
    50
100
AcDbCircle
 10
71.75000000000091
 20
246.5000000000001
 30
0.0
 40
3.0
100
AcDbArc
 50
312.205446403751
 51
330.997453973327
1001
PHOENIX7010
1002
{
1070
    41
1040
1.0
1002
}
  0
LINE
  5
D427
330
1F
100
AcDbEntity
  8
0
  6
Continuous
 62
     7
370
    50
100
AcDbLine
 10
72.58666002653467
 20
245.050862325381
 30
0.0
 11
72.99130307875862
 21
244.35
 31
0.0
1001
PHOENIX7010
1002
{
1070
    41
1040
1.0
1002
}
  0
ARC
  5
D428
330
1F
100
AcDbEntity
  8
0
  6
Continuous
 62
     7
370
    50
100
AcDbCircle
 10
70.65353235233146
 20
245.2008623253813
 30
0.0
 40
0.3
100
AcDbArc
 50
330.0000000000027
 51
49.83575137825872
1001
PHOENIX7010
1002
{
1070
    41
1040
1.0
1002
}
  0
LINE
  5
D429
330
1F
100
AcDbEntity
  8
0
  6
Continuous
 62
     7
370
    50
100
AcDbLine
 10
68.75000000000091
 20
246.4999999999999
 30
0.0
 11
68.75000000000091
 21
247.2499999999999
 31
0.0
1001
PHOENIX7010
1002
{
1070
    41
1040
1.0
1002
}
  0
ARC
  5
D42A
330
1F
100
AcDbEntity
  8
0
  6
Continuous
 62
     7
370
    50
100
AcDbCircle
 10
69.93616428527935
 20
244.4999999999997
 30
0.0
 40
0.3
100
AcDbArc
 50
227.7945535962858
 51
270.0
1001
PHOENIX7010
1002
{
1070
    41
1040
1.0
1002
}
  0
ARC
  5
D42B
330
1F
100
AcDbEntity
  8
0
  6
Continuous
 62
     7
370
    50
100
AcDbCircle
 10
70.24888930010752
 20
244.4999999999997
 30
0.0
 40
0.3
100
AcDbArc
 50
270.0
 51
330.0000000000027
1001
PHOENIX7010
1002
{
1070
    41
1040
1.0
1002
}
  0
LINE
  5
D42C
330
1F
100
AcDbEntity
  8
0
  6
Continuous
 62
     7
370
    50
100
AcDbLine
 10
70.24888930010752
 20
244.1999999999997
 30
0.0
 11
69.93616428527935
 21
244.1999999999997
 31
0.0
1001
PHOENIX7010
1002
{
1070
    41
1040
1.0
1002
}
  0
LINE
  5
D42D
330
1F
100
AcDbEntity
  8
0
  6
Continuous
 62
     7
370
    50
100
AcDbLine
 10
70.91333997346669
 20
245.0508623253814
 30
0.0
 11
70.50869692124274
 21
244.3499999999998
 31
0.0
1001
PHOENIX7010
1002
{
1070
    41
1040
1.0
1002
}
  0
ARC
  5
D42E
330
1F
100
AcDbEntity
  8
0
  6
Continuous
 62
     7
370
    50
100
AcDbCircle
 10
71.75000000000091
 20
246.5000000000001
 30
0.0
 40
3.0
100
AcDbArc
 50
180.0
 51
227.7945535962858
1001
PHOENIX7010
1002
{
1070
    41
1040
1.0
1002
}
  0
LINE
  5
D42F
330
1F
100
AcDbEntity
  8
0
  6
ACAD_ISO04W100
 62
     1
 48
0.3174603174603138
370
    25
100
AcDbLine
 10
66.75000000000091
 20
246.5000000000001
 30
0.0
 11
76.75000000000079
 21
246.5000000000001
 31
0.0
1001
PHOENIX7010
1002
{
1070
    41
1040
1.0
1002
}
  0
LINE
  5
D430
330
1F
100
AcDbEntity
  8
0
  6
Continuous
 62
     7
370
    50
100
AcDbLine
 10
66.55000000000064
 20
245.7500000000001
 30
0.0
 11
65.55000000000086
 21
245.7500000000001
 31
0.0
1001
PHOENIX7010
1002
{
1070
    41
1040
1.0
1002
}
  0
LINE
  5
D431
330
1F
100
AcDbEntity
  8
0
  6
Continuous
 62
     7
370
    50
100
AcDbLine
 10
66.55000000000086
 20
247.2500000000001
 30
0.0
 11
66.55000000000064
 21
245.7500000000001
 31
0.0
1001
PHOENIX7010
1002
{
1070
    41
1040
1.0
1002
}
  0
LINE
  5
D432
330
1F
100
AcDbEntity
  8
0
  6
Continuous
 62
     7
370
    50
100
AcDbLine
 10
65.55000000000086
 20
247.2500000000001
 30
0.0
 11
65.55000000000086
 21
245.7500000000001
 31
0.0
1001
PHOENIX7010
1002
{
1070
    41
1040
1.0
1002
}
  0
LINE
  5
D433
330
1F
100
AcDbEntity
  8
0
  6
Continuous
 62
     7
370
    50
100
AcDbLine
 10
63.35000000000104
 20
247.2499999999999
 30
0.0
 11
63.35000000000104
 21
245.7500000000001
 31
0.0
1001
PHOENIX7010
1002
{
1070
    41
1040
1.0
1002
}
  0
LINE
  5
D434
330
1F
100
AcDbEntity
  8
0
  6
Continuous
 62
     7
370
    50
100
AcDbLine
 10
65.55000000000086
 20
247.2500000000001
 30
0.0
 11
63.35000000000104
 21
247.2499999999999
 31
0.0
1001
PHOENIX7010
1002
{
1070
    41
1040
1.0
1002
}
  0
LINE
  5
D435
330
1F
100
AcDbEntity
  8
0
  6
Continuous
 62
     7
370
    50
100
AcDbLine
 10
66.55000000000086
 20
247.2500000000001
 30
0.0
 11
68.75000000000091
 21
247.2499999999999
 31
0.0
1001
PHOENIX7010
1002
{
1070
    41
1040
1.0
1002
}
  0
ARC
  5
D436
330
1F
100
AcDbEntity
  8
0
  6
Continuous
 62
     7
370
    50
100
AcDbCircle
 10
71.75000000000091
 20
246.5000000000001
 30
0.0
 40
1.399999999999897
100
AcDbArc
 50
310.1642486217129
 51
229.8357513782587
1001
PHOENIX7010
1002
{
1070
    41
1040
1.0
1002
}
  0
LINE
  5
D438
330
1F
100
AcDbEntity
  8
0
  6
Continuous
 62
     7
370
    50
100
AcDbLine
 10
74.63617393793288
 20
245.1999999999997
 30
0.0
 11
75.85000000000127
 21
245.1999999999997
 31
0.0
1001
PHOENIX7010
1002
{
1070
    41
1040
1.0
1002
}
  0
ARC
  5
D439
330
1F
100
AcDbEntity
  8
0
  6
Continuous
 62
     7
370
    50
100
AcDbCircle
 10
75.55000000000086
 20
247.0000000000001
 30
0.0
 40
1.0
100
AcDbArc
 50
90.0
 51
283.3423637970784
1001
PHOENIX7010
1002
{
1070
    41
1040
1.0
1002
}
  0
ARC
  5
D43A
102
{ACAD_REACTORS
330
109AD
102
}
330
1F
100
AcDbEntity
  8
0
  6
Continuous
 62
     7
370
    50
100
AcDbCircle
 10
78.35000000000104
 20
247.9999999999999
 30
0.0
 40
0.9999999999998578
100
AcDbArc
 50
0.0
 51
62.51357374964278
1001
PHOENIX7010
1002
{
1070
    41
1040
1.0
1002
}
  0
ARC
  5
D43B
330
1F
100
AcDbEntity
  8
0
  6
Continuous
 62
     7
370
    50
100
AcDbCircle
 10
78.95000000000095
 20
249.1532562594681
 30
0.0
 40
0.3
100
AcDbArc
 50
180.0
 51
242.5135737496428
1001
PHOENIX7010
1002
{
1070
    41
1040
1.0
1002
}
  0
ARC
  5
D43C
330
1F
100
AcDbEntity
  8
0
  6
Continuous
 62
     7
370
    50
100
AcDbCircle
 10
78.35000000000104
 20
249.1999999999999
 30
0.0
 40
0.3
100
AcDbArc
 50
0.0
 51
90.0
1001
PHOENIX7010
1002
{
1070
    41
1040
1.0
1002
}
  0
LINE
  5
D43D
330
1F
100
AcDbEntity
  8
0
  6
Continuous
 62
     7
370
    50
100
AcDbLine
 10
78.650000000001
 20
249.1532562594681
 30
0.0
 11
78.650000000001
 21
249.1999999999999
 31
0.0
1001
PHOENIX7010
1002
{
1070
    41
1040
1.0
1002
}
  0
LINE
  5
D43E
330
1F
100
AcDbEntity
  8
0
  6
Continuous
 62
     7
370
    50
100
AcDbLine
 10
78.85000000000104
 20
246.4999999999999
 30
0.0
 11
78.35000000000104
 21
246.4999999999999
 31
0.0
1001
PHOENIX7010
1002
{
1070
    41
1040
1.0
1002
}
  0
LINE
  5
D43F
330
1F
100
AcDbEntity
  8
0
  6
Continuous
 62
     7
370
    50
100
AcDbLine
 10
78.35000000000104
 20
247.6999999999999
 30
0.0
 11
78.35000000000104
 21
246.4999999999999
 31
0.0
1001
PHOENIX7010
1002
{
1070
    41
1040
1.0
1002
}
  0
ARC
  5
D440
102
{ACAD_REACTORS
330
1233C
102
}
330
1F
100
AcDbEntity
  8
0
  6
Continuous
 62
     7
370
    50
100
AcDbCircle
 10
78.85000000000082
 20
246.9999999999999
 30
0.0
 40
0.5
100
AcDbArc
 50
270.0
 51
0.0
1001
PHOENIX7010
1002
{
1070
    41
1040
1.0
1002
}
  0
LINE
  5
D441
330
1F
100
AcDbEntity
  8
0
  6
Continuous
 62
     7
370
    50
100
AcDbLine
 10
79.35000000000082
 20
246.9999999999999
 30
0.0
 11
79.35000000000105
 21
247.9999999999999
 31
0.0
1001
PHOENIX7010
1002
{
1070
    41
1040
1.0
1002
}
  0
ARC
  5
D442
330
1F
100
AcDbEntity
  8
0
  6
Continuous
 62
     7
370
    50
100
AcDbCircle
 10
78.05000000000109
 20
247.6999999999999
 30
0.0
 40
0.3
100
AcDbArc
 50
0.0
 51
90.0
1001
PHOENIX7010
1002
{
1070
    41
1040
1.0
1002
}
  0
LINE
  5
D44D
330
1F
100
AcDbEntity
  8
0
  6
ACAD_ISO04W100
 62
     1
 48
0.3174603174603138
370
    25
100
AcDbLine
 10
71.75000000000091
 20
241.5000000000002
 30
0.0
 11
71.75000000000091
 21
251.5000000000001
 31
0.0
1001
PHOENIX7010
1002
{
1070
    41
1040
1.0
1002
}
  0
LINE
  5
D453
330
1F
100
AcDbEntity
  8
0
  6
ACAD_ISO04W100
 62
     1
 48
0.3174603174603138
370
    25
100
AcDbLine
 10
53.75000000000023
 20
219.4999999999999
 30
0.0
 11
53.75000000000023
 21
229.4999999999998
 31
0.0
1001
PHOENIX7010
1002
{
1070
    41
1040
1.0
1002
}
  0
LINE
  5
D454
330
1F
100
AcDbEntity
  8
0
  6
ACAD_ISO04W100
 62
     1
 48
0.3174603174603138
370
    25
100
AcDbLine
 10
48.75000000000023
 20
224.4999999999999
 30
0.0
 11
58.75000000000011
 21
224.4999999999999
 31
0.0
1001
PHOENIX7010
1002
{
1070
    41
1040
1.0
1002
}
  0
LINE
  5
D458
330
1F
100
AcDbEntity
  8
0
  6
ACAD_ISO04W100
 62
     1
 48
0.3174603174603138
370
    25
100
AcDbLine
 10
48.75000000000028
 20
169.5000000000001
 30
0.0
 11
58.75000000000017
 21
169.5000000000001
 31
0.0
1001
PHOENIX7010
1002
{
1070
    41
1040
1.0
1002
}
  0
LINE
  5
D459
330
1F
100
AcDbEntity
  8
0
  6
ACAD_ISO04W100
 62
     1
 48
0.3174603174603138
370
    25
100
AcDbLine
 10
53.75000000000023
 20
174.5000000000001
 30
0.0
 11
53.75000000000023
 21
164.5000000000002
 31
0.0
1001
PHOENIX7010
1002
{
1070
    41
1040
1.0
1002
}
  0
LINE
  5
D45B
330
1F
100
AcDbEntity
  8
0
  6
ACAD_ISO04W100
 62
     1
 48
0.3174603174603138
370
    25
100
AcDbLine
 10
71.75000000000091
 20
152.4999999999999
 30
0.0
 11
71.75000000000091
 21
142.5
 31
0.0
1001
PHOENIX7010
1002
{
1070
    41
1040
1.0
1002
}
  0
LINE
  5
D45C
330
1F
100
AcDbEntity
  8
0
  6
ACAD_ISO04W100
 62
     1
 48
0.3174603174603138
370
    25
100
AcDbLine
 10
66.75000000000096
 20
147.4999999999999
 30
0.0
 11
76.75000000000085
 21
147.4999999999999
 31
0.0
1001
PHOENIX7010
1002
{
1070
    41
1040
1.0
1002
}
  0
LINE
  5
DC4E
102
{ACAD_REACTORS
330
DC5B
330
10136
330
13465
330
13AEC
330
140F3
330
14774
102
}
330
1F
100
AcDbEntity
  8
0
  6
Continuous
 62
     1
370
    50
100
AcDbLine
 10
78.25000000000102
 20
247.8999999999997
 30
0.0
 11
78.25000000000102
 21
146.1
 31
0.0
1001
PHOENIX7010
1002
{
1070
    41
1040
1.0
1002
}
  0
HATCH
  5
DC4F
102
{ACAD_REACTORS
330
DC5B
102
}
330
1F
100
AcDbEntity
  8
0
  6
Continuous
 62
     1
370
    50
100
AcDbHatch
 10
0.0
 20
0.0
 30
0.0
210
0.0
220
0.0
230
1.0
  2
_U
 70
     0
 71
     1
 91
        1
 92
        1
 93
        4
 72
     1
 10
78.25000000000102
 20
247.8999999999999
 11
76.25000000000113
 21
247.9000000000001
 72
     1
 10
76.25000000000113
 20
247.9000000000001
 11
76.25000000000113
 21
146.1
 72
     1
 10
76.25000000000113
 20
146.1
 11
78.25000000000102
 21
146.1
 72
     1
 10
78.25000000000102
 20
146.1
 11
78.25000000000102
 21
247.8999999999999
 97
        1
330
DC54
 75
     0
 76
     0
 52
45.0
 41
3.0
 77
     0
 78
     1
 53
45.0
 43
-123.0850695336644
 44
112.1311955456589
 45
-2.121320343559642
 46
2.121320343559642
 79
     0
 98
        1
 10
-123.0850695336644
 20
112.1311955456589
1001
PHOENIX7010
1002
{
1070
    41
1040
1.0
1002
}
  0
LINE
  5
DC50
102
{ACAD_REACTORS
330
DC5B
102
}
330
1F
100
AcDbEntity
  8
0
  6
Continuous
 62
     1
370
    50
100
AcDbLine
 10
76.25000000000125
 20
247.9000000000001
 30
0.0
 11
76.25000000000125
 21
146.1
 31
0.0
1001
PHOENIX7010
1002
{
1070
    41
1040
1.0
1002
}
  0
LINE
  5
DC51
102
{ACAD_REACTORS
330
DC5B
102
}
330
1F
100
AcDbEntity
  8
0
  6
Continuous
 62
     1
370
    50
100
AcDbLine
 10
76.25000000000125
 20
247.9000000000001
 30
0.0
 11
78.25000000000102
 21
247.8999999999999
 31
0.0
1001
PHOENIX7010
1002
{
1070
    41
1040
1.0
1002
}
  0
LINE
  5
DC52
102
{ACAD_REACTORS
330
DC5B
102
}
330
1F
100
AcDbEntity
  8
0
  6
Continuous
 62
     1
370
    50
100
AcDbLine
 10
76.25000000000125
 20
146.1
 30
0.0
 11
78.25000000000102
 21
146.1
 31
0.0
1001
PHOENIX7010
1002
{
1070
    41
1040
1.0
1002
}
  0
INSERT
  5
DC53
102
{ACAD_REACTORS
330
DC5B
102
}
330
1F
100
AcDbEntity
  8
0
  6
Continuous
 62
     7
370
    50
100
AcDbBlockReference
  2
PH_GRPBLK
 10
78.25000000000102
 20
247.8999999999997
 30
0.0
  0
LWPOLYLINE
  5
DC54
102
{ACAD_REACTORS
330
DC4F
102
}
330
1F
100
AcDbEntity
  8
0
  6
Continuous
 62
     7
 60
     1
370
    50
100
AcDbPolyline
 90
        4
 70
     1
 43
0.0
 10
78.25000000000102
 20
247.8999999999999
 10
76.25000000000113
 20
247.9000000000001
 10
76.25000000000113
 20
146.1
 10
78.25000000000102
 20
146.1
1001
PHOENIX7010
1002
{
1070
    41
1040
1.0
1002
}
  0
CIRCLE
  5
DC63
102
{ACAD_REACTORS
330
DC6D
102
}
330
1F
100
AcDbEntity
  8
0
  6
Continuous
 62
     3
370
    70
100
AcDbCircle
 10
58.50505198229393
 20
242.8524056482805
 30
0.0
 40
0.4000000000000057
1001
PHOENIX7010
1002
{
1070
    41
1040
1.0
1002
}
  0
LINE
  5
DC64
102
{ACAD_REACTORS
330
DC6D
102
}
330
1F
100
AcDbEntity
  8
0
  6
Continuous
 62
     1
370
    25
100
AcDbLine
 10
58.50505198229393
 20
242.8524056482805
 30
0.0
 11
65.73543051478782
 21
237.4596315569182
 31
0.0
1001
PHOENIX7010
1002
{
1070
    41
1040
1.0
1002
}
  0
LINE
  5
DC65
102
{ACAD_REACTORS
330
DC6D
102
}
330
1F
100
AcDbEntity
  8
0
  6
Continuous
 62
     1
370
    25
100
AcDbLine
 10
65.73543051478782
 20
237.4596315569182
 30
0.0
 11
65.73543051478782
 21
220.1930618360142
 31
0.0
1001
PHOENIX7010
1002
{
1070
    41
1040
1.0
1002
}
  0
MTEXT
  5
DC66
102
{ACAD_REACTORS
330
DC6D
102
}
330
1F
100
AcDbEntity
  8
0
  6
Continuous
 62
     5
370
    35
100
AcDbMText
 10
64.73152585997059
 20
224.753513133673
 30
0.0
 40
2.5
 41
0.0
 71
     7
 72
     5
  1
5.4x2.2
 11
0.0000000000000002
 21
1.0
 31
0.0
 73
     1
 44
1.0
1001
PHOENIX7010
1002
{
1070
    41
1040
1.0
1002
}
1001
ACAD
1000
MTEXTBEGIN
1070
    73
1070
     1
1070
    44
1040
1.0
1070
    74
1070
     0
1000
MTEXTEND
  0
LINE
  5
DC67
102
{ACAD_REACTORS
330
DC6D
102
}
330
1F
100
AcDbEntity
  8
0
  6
Continuous
 62
     5
370
    35
100
AcDbLine
 10
64.04872138644305
 20
223.9935844894493
 30
0.0
 11
64.04872138644305
 21
221.4121811922017
 31
0.0
1001
PHOENIX7010
1002
{
1070
    41
1040
1.0
1002
}
  0
LINE
  5
DC68
102
{ACAD_REACTORS
330
DC6D
102
}
330
1F
100
AcDbEntity
  8
0
  6
Continuous
 62
     5
370
    35
100
AcDbLine
 10
62.80178439445035
 20
223.9935844894493
 30
0.0
 11
64.04872138644305
 21
223.9935844894493
 31
0.0
1001
PHOENIX7010
1002
{
1070
    41
1040
1.0
1002
}
  0
LINE
  5
DC69
102
{ACAD_REACTORS
330
DC6D
102
}
330
1F
100
AcDbEntity
  8
0
  6
Continuous
 62
     5
370
    35
100
AcDbLine
 10
62.80178439445035
 20
221.4121811922017
 30
0.0
 11
62.80178439445035
 21
223.9935844894493
 31
0.0
1001
PHOENIX7010
1002
{
1070
    41
1040
1.0
1002
}
  0
LINE
  5
DC6A
102
{ACAD_REACTORS
330
DC6D
102
}
330
1F
100
AcDbEntity
  8
0
  6
Continuous
 62
     5
370
    35
100
AcDbLine
 10
64.04872138644305
 20
221.4121811922017
 30
0.0
 11
62.80178439445035
 21
221.4121811922017
 31
0.0
1001
PHOENIX7010
1002
{
1070
    41
1040
1.0
1002
}
  0
INSERT
  5
DC6B
102
{ACAD_REACTORS
330
DC6D
102
}
330
1F
100
AcDbEntity
  8
0
  6
Continuous
 62
     7
370
    50
100
AcDbBlockReference
  2
PH_GRPBLK
 10
58.90505198229394
 20
242.8524056482805
 30
0.0
  0
DIMENSION
  5
E288
330
1F
100
AcDbEntity
  8
0
  6
Continuous
 62
     7
370
    50
100
AcDbDimension
  2
*D12
 10
78.25000000000102
 20
215.2343174835545
 30
0.0
 11
67.68182086614299
 21
215.2343174835545
 31
0.0
 70
   160
 71
     5
 42
1.999999999999772
  3
phoenix
100
AcDbAlignedDimension
 13
76.25000000000125
 23
215.6340679877798
 33
0.0
 14
78.25000000000102
 24
216.353624654142
 34
0.0
100
AcDbRotatedDimension
1001
ACAD
1000
DSTYLE
1002
{
1070
   173
1070
     1
1002
}
  0
DIMENSION
  5
E891
102
{ACAD_REACTORS
330
EE64
102
}
330
1F
100
AcDbEntity
  8
0
  6
Continuous
 62
     7
370
    50
100
AcDbDimension
  2
*D13
 10
65.55000000000086
 20
157.7104154033398
 30
0.0
 11
71.30147004537502
 21
159.5445730562327
 31
0.0
 70
   160
 71
     5
 42
2.199999999999818
  3
phoenix
100
AcDbAlignedDimension
 13
63.35000000000104
 23
148.2499999999999
 33
0.0
 14
65.55000000000086
 24
148.2499999999999
 34
0.0
100
AcDbRotatedDimension
1001
ACAD
1000
DSTYLE
1002
{
1070
   173
1070
     1
1070
   279
1070
     1
1070
    77
1070
     0
1002
}
  0
DIMENSION
  5
FCC5
102
{ACAD_REACTORS
330
10137
102
}
330
1F
100
AcDbEntity
  8
0
  6
Continuous
 62
     7
370
    50
100
AcDbDimension
  2
*D14
 10
79.35000000000103
 20
256.4999999999998
 30
0.0
 11
88.69000000000104
 21
256.4999999999998
 31
0.0
 70
   160
 71
     5
 42
1.100000000000008
  3
phoenix
100
AcDbAlignedDimension
 13
78.25000000000102
 23
247.8999999999997
 33
0.0
 14
79.35000000000103
 24
247.9121320343559
 34
0.0
100
AcDbRotatedDimension
1001
ACAD
1000
DSTYLE
1002
{
1070
   173
1070
     1
1002
}
  0
DIMENSION
  5
10161
102
{ACAD_REACTORS
330
109AF
102
}
330
1F
100
AcDbEntity
  8
0
  6
Continuous
 62
     7
370
    50
100
AcDbDimension
  2
*D15
 10
46.35000000000002
 20
261.4999999999999
 30
0.0
 11
62.85000000000046
 21
263.1499999999999
 31
0.0
 70
    32
 71
     5
 42
33.00000000000088
  3
phoenix
100
AcDbAlignedDimension
 13
79.35000000000091
 23
247.9999999999999
 33
0.0
 14
46.35000000000002
 24
208.7000000000001
 34
0.0
100
AcDbRotatedDimension
1001
ACAD
1000
DSTYLE
1002
{
1070
   173
1070
     1
1002
}
  0
DIMENSION
  5
109F2
102
{ACAD_REACTORS
330
10D56
102
}
330
1F
100
AcDbEntity
  8
0
  6
Continuous
 62
     7
370
    50
100
AcDbDimension
  2
*D16
 10
39.3499999999999
 20
152.5499999999998
 30
0.0
 11
39.34999999999988
 21
197.0000000000003
 31
0.0
 70
   160
 71
     5
 42
88.9000000000002
  3
phoenix
100
AcDbAlignedDimension
 13
49.25000000000091
 23
241.45
 33
0.0
 14
49.25000000000091
 24
152.5499999999998
 34
0.0
 50
90.0
100
AcDbRotatedDimension
1001
ACAD
1000
DSTYLE
1002
{
1070
   173
1070
     1
1002
}
  0
DIMENSION
  5
10D7D
102
{ACAD_REACTORS
330
11491
102
}
330
1F
100
AcDbEntity
  8
0
  6
Continuous
 62
     7
370
    50
100
AcDbDimension
  2
*D17
 10
34.34999999999995
 20
146.7500000000003
 30
0.0
 11
34.34999999999992
 21
197.0000000000001
 31
0.0
 70
   160
 71
     5
 42
100.4999999999996
  3
phoenix
100
AcDbAlignedDimension
 13
57.65000000000032
 23
247.25
 33
0.0
 14
57.65000000000032
 24
146.7500000000003
 34
0.0
 50
90.0
100
AcDbRotatedDimension
1001
ACAD
1000
DSTYLE
1002
{
1070
   173
1070
     1
1002
}
  0
DIMENSION
  5
114B9
102
{ACAD_REACTORS
330
11BCB
102
}
330
1F
100
AcDbEntity
  8
0
  6
Continuous
 62
     7
370
    50
100
AcDbDimension
  2
*D18
 10
90.25000000000106
 20
149.7999999999999
 30
0.0
 11
90.25000000000105
 21
196.9999999999998
 31
0.0
 70
   160
 71
     5
 42
94.40000000000026
  3
phoenix
100
AcDbAlignedDimension
 13
73.40747320730838
 23
244.2000000000001
 33
0.0
 14
73.56383571472292
 24
149.7999999999999
 34
0.0
 50
90.0
100
AcDbRotatedDimension
1001
ACAD
1000
DSTYLE
1002
{
1070
   173
1070
     1
1002
}
  0
DIMENSION
  5
11BF2
102
{ACAD_REACTORS
330
1233E
102
}
330
1F
100
AcDbEntity
  8
0
  6
Continuous
 62
     7
370
    50
100
AcDbDimension
  2
*D19
 10
95.25000000000105
 20
147.5000000000001
 30
0.0
 11
95.25000000000103
 21
196.9999999999998
 31
0.0
 70
   160
 71
     5
 42
98.99999999999977
  3
phoenix
100
AcDbAlignedDimension
 13
78.85000000000082
 23
246.4999999999999
 33
0.0
 14
78.85000000000104
 24
147.5000000000001
 34
0.0
 50
90.0
100
AcDbRotatedDimension
1001
ACAD
1000
DSTYLE
1002
{
1070
   173
1070
     1
1002
}
  0
DIMENSION
  5
1236B
102
{ACAD_REACTORS
330
12AB8
102
}
330
1F
100
AcDbEntity
  8
0
  6
Continuous
 62
     7
370
    50
100
AcDbDimension
  2
*D20
 10
100.250000000001
 20
144.5
 30
0.0
 11
100.250000000001
 21
196.9999999999998
 31
0.0
 70
   160
 71
     5
 42
104.9999999999998
  3
phoenix
100
AcDbAlignedDimension
 13
78.25000000000102
 23
249.4999999999999
 33
0.0
 14
78.35000000000104
 24
144.5
 34
0.0
 50
90.0
100
AcDbRotatedDimension
1001
ACAD
1000
DSTYLE
1002
{
1070
   173
1070
     1
1002
}
  0
DIMENSION
  5
12AD6
102
{ACAD_REACTORS
330
13466
102
}
330
1F
100
AcDbEntity
  8
0
  6
Continuous
 62
     7
370
    50
100
AcDbDimension
  2
*D21
 10
78.25000000000102
 20
137.5000000000001
 30
0.0
 11
73.50000000000097
 21
139.1500000000001
 31
0.0
 70
    32
 71
     5
 42
9.500000000000113
  3
phoenix
100
AcDbAlignedDimension
 13
68.75000000000091
 23
146.7500000000001
 33
0.0
 14
78.25000000000102
 24
146.1
 34
0.0
100
AcDbRotatedDimension
1001
ACAD
1000
DSTYLE
1002
{
1070
   173
1070
     1
1002
}
  0
DIMENSION
  5
134B7
102
{ACAD_REACTORS
330
13AED
102
}
330
1F
100
AcDbEntity
  8
0
  6
Continuous
 62
     7
370
    50
100
AcDbDimension
  2
*D22
 10
78.25000000000102
 20
132.5000000000001
 30
0.0
 11
71.90000000000094
 21
134.1502460629922
 31
0.0
 70
    32
 71
     5
 42
12.70000000000016
  3
phoenix
100
AcDbAlignedDimension
 13
65.55000000000086
 23
146.7499999999999
 33
0.0
 14
78.25000000000102
 24
146.1
 34
0.0
100
AcDbRotatedDimension
1001
ACAD
1000
DSTYLE
1002
{
1070
   173
1070
     1
1002
}
  0
DIMENSION
  5
13B4E
102
{ACAD_REACTORS
330
140F4
102
}
330
1F
100
AcDbEntity
  8
0
  6
Continuous
 62
     7
370
    50
100
AcDbDimension
  2
*D23
 10
78.25000000000102
 20
127.5000000000001
 30
0.0
 11
69.99714357387901
 21
127.5000000000001
 31
0.0
 70
   160
 71
     5
 42
15.89999999999998
  3
phoenix
100
AcDbAlignedDimension
 13
62.35000000000105
 23
146.7499999999999
 33
0.0
 14
78.25000000000102
 24
146.1
 34
0.0
100
AcDbRotatedDimension
1001
ACAD
1000
DSTYLE
1002
{
1070
   173
1070
     1
1002
}
  0
DIMENSION
  5
14153
102
{ACAD_REACTORS
330
14776
102
}
330
1F
100
AcDbEntity
  8
0
  6
Continuous
 62
     7
370
    50
100
AcDbDimension
  2
*D24
 10
53.85000000000036
 20
122.5000000000001
 30
0.0
 11
65.9971435738794
 21
122.5000000000001
 31
0.0
 70
   160
 71
     5
 42
24.40000000000066
  3
phoenix
100
AcDbAlignedDimension
 13
78.25000000000102
 23
146.1
 33
0.0
 14
53.85000000000037
 24
180.8
 34
0.0
100
AcDbRotatedDimension
1001
ACAD
1000
DSTYLE
1002
{
1070
   173
1070
     1
1002
}
  0
DIMENSION
  5
147C3
102
{ACAD_REACTORS
330
14A5B
102
}
330
1F
100
AcDbEntity
  8
0
  6
Continuous
 62
     7
370
    50
100
AcDbDimension
  2
*D25
 10
57.35000000000036
 20
210.1639894073441
 30
0.0
 11
66.59346342317076
 21
210.1639894073441
 31
0.0
 70
   160
 71
     5
 42
18.90000000000074
  3
phoenix
100
AcDbAlignedDimension
 13
76.25000000000111
 23
205.4002479013423
 33
0.0
 14
57.35000000000036
 24
207.4999999999999
 34
0.0
100
AcDbRotatedDimension
1001
ACAD
1000
DSTYLE
1002
{
1070
   173
1070
     1
1002
}
  0
MTEXT
  5
14DFA
102
{ACAD_REACTORS
330
14DFE
102
}
330
1F
100
AcDbEntity
  8
0
  6
Continuous
 62
     5
370
    35
100
AcDbMText
 10
39.95345470131338
 20
277.2038037324835
 30
0.0
 40
2.5
 41
0.0
 71
     7
 72
     5
  1
Grundprofil ARP 105/31-.../\P{\Q20;basic profile ARP 105/31-...}
 73
     1
 44
1.0
1001
PHOENIX7010
1002
{
1070
    41
1040
1.0
1002
}
1001
ACAD
1000
MTEXTBEGIN
1070
    73
1070
     1
1070
    44
1040
1.0
1070
    74
1070
     0
1000
MTEXTEND
  0
LINE
  5
14DFB
102
{ACAD_REACTORS
330
14DFE
102
}
330
1F
100
AcDbEntity
  8
0
  6
Continuous
 62
     1
370
    25
100
AcDbLine
 10
39.44871453357223
 20
277.0149855658094
 30
0.0
 11
88.19631809396264
 21
277.0149855658094
 31
0.0
1001
PHOENIX7010
1002
{
1070
    41
1040
1.0
1002
}
  0
INSERT
  5
14DFC
102
{ACAD_REACTORS
330
14DFE
102
}
330
1F
100
AcDbEntity
  8
0
  6
Continuous
 62
     1
370
    25
100
AcDbBlockReference
  2
PH_GRPBLK
 10
39.44871453357223
 20
277.0149855658094
 30
0.0
1001
PHOENIX7010
1002
{
1070
    41
1040
1.0
1002
}
  0
LINE
  5
14E67
102
{ACAD_REACTORS
330
14E6D
102
}
330
1F
100
AcDbEntity
  8
0
  6
Continuous
 62
     1
370
    25
100
AcDbLine
 10
39.44871453357223
 20
277.0149855658094
 30
0.0
 11
57.62145459256135
 21
248.3025792351823
 31
0.0
1001
PHOENIX7010
1002
{
1070
    41
1040
1.0
1002
}
  0
CIRCLE
  5
14E69
102
{ACAD_REACTORS
330
14E6D
102
}
330
1F
100
AcDbEntity
  8
0
  6
Continuous
 62
     3
370
    70
100
AcDbCircle
 10
57.62145459256135
 20
248.3025792351823
 30
0.0
 40
0.4000000000000057
1001
PHOENIX7010
1002
{
1070
    41
1040
1.0
1002
}
  0
INSERT
  5
14E6E
102
{ACAD_REACTORS
330
14E6D
102
}
330
1F
100
AcDbEntity
  8
0
  6
Continuous
 62
     1
370
    25
100
AcDbBlockReference
  2
PH_GRPBLK
 10
39.44871453357223
 20
277.0149855658094
 30
0.0
  0
CIRCLE
  5
14E89
330
1F
100
AcDbEntity
  8
0
  6
Continuous
 62
     1
370
    25
100
AcDbCircle
 10
53.85000000000002
 20
180.8000000000006
 30
0.0
 40
0.8
1001
PHOENIX7010
1002
{
1070
    41
1040
1.0
1002
}
  0
LINE
  5
14EBB
330
1F
100
AcDbEntity
  8
0
  6
Continuous
 62
     1
370
    25
100
AcDbLine
 10
122.2828159023747
 20
185.1477221726478
 30
0.0
 11
197.5185134793992
 21
185.1477221726478
 31
0.0
1001
PHOENIX7010
1002
{
1070
    41
1040
1.0
1002
}
  0
MTEXT
  5
14F00
102
{ACAD_REACTORS
330
14F7D
102
}
330
1F
100
AcDbEntity
  8
0
  6
Continuous
 62
     5
370
    35
100
AcDbMText
 10
89.63615470716243
 20
269.0099288856245
 30
0.0
 40
2.5
 41
0.0
 71
     7
 72
     5
  1
Oberseite/\P{\Q20;top side}
 73
     1
 44
1.0
1001
PHOENIX7010
1002
{
1070
    41
1040
1.0
1002
}
1001
ACAD
1000
MTEXTBEGIN
1070
    73
1070
     1
1070
    44
1040
1.0
1070
    74
1070
     0
1000
MTEXTEND
  0
LINE
  5
14F01
102
{ACAD_REACTORS
330
14F7D
102
}
330
1F
100
AcDbEntity
  8
0
  6
Continuous
 62
     1
370
    25
100
AcDbLine
 10
89.12335641988354
 20
268.3546076413292
 30
0.0
 11
107.0885229173759
 21
268.3546076413292
 31
0.0
1001
PHOENIX7010
1002
{
1070
    41
1040
1.0
1002
}
  0
LINE
  5
14F27
102
{ACAD_REACTORS
330
14F7D
102
}
330
1F
100
AcDbEntity
  8
0
  6
Continuous
 62
     1
370
    25
100
AcDbLine
 10
89.12335641988345
 20
268.3546076413291
 30
0.0
 11
65.99714357387927
 21
249.4999999999999
 31
0.0
1001
PHOENIX7010
1002
{
1070
    41
1040
1.0
1002
}
  0
LINE
  5
14F45
102
{ACAD_REACTORS
330
14F80
102
}
330
1F
100
AcDbEntity
  8
0
  6
Continuous
 62
     1
370
    25
100
AcDbLine
 10
89.12335641988361
 20
125.6453923586706
 30
0.0
 11
108.9241198485035
 21
125.6453923586706
 31
0.0
1001
PHOENIX7010
1002
{
1070
    41
1040
1.0
1002
}
  0
MTEXT
  5
14F46
102
{ACAD_REACTORS
330
14F80
102
}
330
1F
100
AcDbEntity
  8
0
  6
Continuous
 62
     5
370
    35
100
AcDbMText
 10
89.6361547071625
 20
126.3007136029658
 30
0.0
 40
2.5
 41
0.0
 71
     7
 72
     5
  1
Unterseite/\P{\Q20;bottom}
 73
     1
 44
1.0
1001
PHOENIX7010
1002
{
1070
    41
1040
1.0
1002
}
1001
ACAD
1000
MTEXTBEGIN
1070
    73
1070
     1
1070
    44
1040
1.0
1070
    74
1070
     0
1000
MTEXTEND
  0
LINE
  5
14F47
102
{ACAD_REACTORS
330
14F80
102
}
330
1F
100
AcDbEntity
  8
0
  6
Continuous
 62
     1
370
    25
100
AcDbLine
 10
89.12335641988352
 20
125.6453923586705
 30
0.0
 11
76.04138181979874
 21
144.5632778935257
 31
0.0
1001
PHOENIX7010
1002
{
1070
    41
1040
1.0
1002
}
  0
INSERT
  5
14F7E
102
{ACAD_REACTORS
330
14F7D
102
}
330
1F
100
AcDbEntity
  8
0
  6
Continuous
 62
     5
370
    35
100
AcDbBlockReference
  2
PH_GRPBLK
 10
89.12335641988354
 20
268.3546076413292
 30
0.0
1001
PHOENIX7010
1002
{
1070
    41
1040
1.0
1002
}
  0
INSERT
  5
14F81
102
{ACAD_REACTORS
330
14F80
102
}
330
1F
100
AcDbEntity
  8
0
  6
Continuous
 62
     5
370
    35
100
AcDbBlockReference
  2
PH_GRPBLK
 10
89.12335641988361
 20
125.6453923586706
 30
0.0
1001
PHOENIX7010
1002
{
1070
    41
1040
1.0
1002
}
  0
INSERT
  5
14FCD
102
{ACAD_REACTORS
330
14FD8
102
}
330
1F
100
AcDbEntity
  8
0
  6
Continuous
 62
     7
370
    50
100
AcDbBlockReference
  2
PH_GRPBLK
 10
20.0
 20
4.999999999999886
 30
0.0
1001
PHOENIX7010
1002
{
1070
    41
1040
1.0
1002
}
  0
LINE
  5
14FCE
102
{ACAD_REACTORS
330
14FD8
102
}
330
1F
100
AcDbEntity
  8
0
  6
Continuous
 62
     1
370
    50
100
AcDbLine
 10
1.0
 20
295.9999999999999
 30
0.0
 11
1.0
 21
0.9999999999998863
 31
0.0
1001
PHOENIX7010
1002
{
1070
    62
1070
     1
1070
    41
1040
1.0
1002
}
  0
LINE
  5
14FCF
102
{ACAD_REACTORS
330
14FD8
102
}
330
1F
100
AcDbEntity
  8
0
  6
Continuous
 62
     1
370
    50
100
AcDbLine
 10
209.0
 20
295.9999999999999
 30
0.0
 11
1.0
 21
295.9999999999999
 31
0.0
1001
PHOENIX7010
1002
{
1070
    62
1070
     1
1070
    41
1040
1.0
1002
}
  0
LINE
  5
14FD0
102
{ACAD_REACTORS
330
14FD8
102
}
330
1F
100
AcDbEntity
  8
0
  6
Continuous
 62
     1
370
    50
100
AcDbLine
 10
209.0
 20
0.9999999999998863
 30
0.0
 11
209.0
 21
295.9999999999999
 31
0.0
1001
PHOENIX7010
1002
{
1070
    62
1070
     1
1070
    41
1040
1.0
1002
}
  0
LINE
  5
14FD1
102
{ACAD_REACTORS
330
14FD8
102
}
330
1F
100
AcDbEntity
  8
0
  6
Continuous
 62
     1
370
    50
100
AcDbLine
 10
1.0
 20
0.9999999999998863
 30
0.0
 11
209.0
 21
0.9999999999998863
 31
0.0
1001
PHOENIX7010
1002
{
1070
    62
1070
     1
1070
    41
1040
1.0
1002
}
  0
LINE
  5
14FD2
102
{ACAD_REACTORS
330
14FD8
102
}
330
1F
100
AcDbEntity
  8
0
  6
Continuous
 62
     3
370
    50
100
AcDbLine
 10
20.0
 20
291.9999999999999
 30
0.0
 11
20.0
 21
4.999999999999886
 31
0.0
1001
PHOENIX7010
1002
{
1070
    62
1070
     3
1070
    41
1040
1.0
1002
}
  0
LINE
  5
14FD3
102
{ACAD_REACTORS
330
14FD8
102
}
330
1F
100
AcDbEntity
  8
0
  6
Continuous
 62
     3
370
    50
100
AcDbLine
 10
205.0
 20
291.9999999999999
 30
0.0
 11
20.0
 21
291.9999999999999
 31
0.0
1001
PHOENIX7010
1002
{
1070
    62
1070
     3
1070
    41
1040
1.0
1002
}
  0
LINE
  5
14FD4
102
{ACAD_REACTORS
330
14FD8
102
}
330
1F
100
AcDbEntity
  8
0
  6
Continuous
 62
     3
370
    50
100
AcDbLine
 10
205.0
 20
4.999999999999886
 30
0.0
 11
205.0
 21
291.9999999999999
 31
0.0
1001
PHOENIX7010
1002
{
1070
    62
1070
     3
1070
    41
1040
1.0
1002
}
  0
LINE
  5
14FD5
102
{ACAD_REACTORS
330
14FD8
102
}
330
1F
100
AcDbEntity
  8
0
  6
Continuous
 62
     3
370
    50
100
AcDbLine
 10
20.0
 20
4.999999999999886
 30
0.0
 11
205.0
 21
4.999999999999886
 31
0.0
1001
PHOENIX7010
1002
{
1070
    62
1070
     3
1070
    41
1040
1.0
1002
}
  0
MTEXT
  5
14FD6
102
{ACAD_REACTORS
330
14FD8
102
}
330
1F
100
AcDbEntity
  8
0
  6
Continuous
 62
     7
370
    50
100
AcDbMText
 10
19.70248718641096
 20
55.39351207913319
 30
0.0
 40
2.0
 41
0.0
 71
     7
 72
     5
  1
{\T1.1;\C1;"Schutzvermerk nach DIN ISO 16016 beachten" \Q20;"Please pay attention to copyright note DIN ISO 16016"}
 11
0.0000000000000002
 21
1.0
 31
0.0
 73
     1
 44
1.0
1001
PHOENIX7010
1002
{
1070
    41
1040
1.0
1002
}
1001
ACAD
1000
MTEXTBEGIN
1070
    73
1070
     1
1070
    44
1040
1.0
1070
    74
1070
     0
1000
MTEXTEND
  0
HATCH
  5
14FE9
102
{ACAD_REACTORS
330
1503D
102
}
330
1F
100
AcDbEntity
  8
0
  6
Continuous
 62
     1
370
    25
100
AcDbHatch
 10
0.0
 20
0.0
 30
0.0
210
0.0
220
0.0
230
1.0
  2
_U
 70
     0
 71
     1
 91
        1
 92
        0
 93
        5
 72
     1
 10
197.4334749940256
 20
35.16453811398026
 11
190.7334749940256
 21
27.36453811398019
 72
     1
 10
190.7334749940255
 20
27.36453811398019
 11
202.7334749940255
 21
27.36453811398019
 72
     1
 10
202.7334749940255
 20
27.36453811398019
 11
202.7334749940256
 21
35.1645381139802
 72
     1
 10
202.7334749940255
 20
35.16453811398014
 11
197.4334749940255
 21
28.26453811398025
 72
     1
 10
197.4334749940256
 20
28.26453811398028
 11
197.4334749940255
 21
35.16453811398026
 97
        1
330
1502D
 75
     0
 76
     0
 52
45.0
 41
0.1
 77
     0
 78
     1
 53
45.0
 43
-210.0
 44
-32.08885297207075
 45
-0.0707106781186548
 46
0.0707106781186548
 79
     0
 98
        1
 10
-210.0
 20
-32.08885297207075
1001
PHOENIX7010
1002
{
1070
    41
1040
1.0
1002
}
  0
HATCH
  5
14FEA
102
{ACAD_REACTORS
330
1503D
102
}
330
1F
100
AcDbEntity
  8
0
  6
Continuous
 62
     1
370
    25
100
AcDbHatch
 10
0.0
 20
0.0
 30
0.0
210
0.0
220
0.0
230
1.0
  2
_U
 70
     0
 71
     1
 91
        1
 92
        0
 93
        3
 72
     1
 10
189.8834749940255
 20
27.36453811398019
 11
189.8834749940255
 21
31.51453811398019
 72
     1
 10
189.8834749940255
 20
31.51453811398017
 11
194.0334749940254
 21
31.51453811398017
 72
     2
 10
189.8834749940255
 20
31.51453811398017
 40
4.149999999999977
 50
0.0000000000001962
 51
270.0
 73
     1
 97
        1
330
1502E
 75
     0
 76
     0
 52
45.0
 41
0.65
 77
     0
 78
     1
 53
45.0
 43
-210.0
 44
-32.08885297207075
 45
-0.4596194077712559
 46
0.459619407771256
 79
     0
 98
        1
 10
-210.0
 20
-32.08885297207075
1001
PHOENIX7010
1002
{
1070
    41
1040
1.0
1002
}
  0
LINE
  5
14FEB
102
{ACAD_REACTORS
330
1503D
102
}
330
1F
100
AcDbEntity
  8
0
  6
Continuous
 62
     7
370
    50
100
AcDbLine
 10
190.7334749940255
 20
27.36453811398019
 30
0.0
 11
202.7334749940255
 21
27.36453811398019
 31
0.0
1001
PHOENIX7010
1002
{
1070
    41
1040
1.0
1002
}
  0
LINE
  5
14FEC
102
{ACAD_REACTORS
330
1503D
102
}
330
1F
100
AcDbEntity
  8
0
  6
Continuous
 62
     7
370
    50
100
AcDbLine
 10
202.7334749940255
 20
27.36453811398019
 30
0.0
 11
202.7334749940255
 21
35.16453811398014
 31
0.0
1001
PHOENIX7010
1002
{
1070
    41
1040
1.0
1002
}
  0
LINE
  5
14FED
102
{ACAD_REACTORS
330
1503D
102
}
330
1F
100
AcDbEntity
  8
0
  6
Continuous
 62
     7
370
    50
100
AcDbLine
 10
197.4334749940256
 20
28.26453811398017
 30
0.0
 11
197.4334749940256
 21
35.16453811398014
 31
0.0
1001
PHOENIX7010
1002
{
1070
    41
1040
1.0
1002
}
  0
LINE
  5
14FEE
102
{ACAD_REACTORS
330
1503D
102
}
330
1F
100
AcDbEntity
  8
0
  6
Continuous
 62
     7
370
    50
100
AcDbLine
 10
197.4334749940256
 20
35.16453811398014
 30
0.0
 11
190.7334749940255
 21
27.36453811398019
 31
0.0
1001
PHOENIX7010
1002
{
1070
    41
1040
1.0
1002
}
  0
LINE
  5
14FEF
102
{ACAD_REACTORS
330
1503D
102
}
330
1F
100
AcDbEntity
  8
0
  6
Continuous
 62
     7
370
    50
100
AcDbLine
 10
202.7334749940255
 20
35.16453811398014
 30
0.0
 11
197.4334749940256
 21
28.26453811398017
 31
0.0
1001
PHOENIX7010
1002
{
1070
    41
1040
1.0
1002
}
  0
INSERT
  5
14FF0
102
{ACAD_REACTORS
330
1503D
102
}
330
1F
100
AcDbEntity
  8
0
  6
Continuous
 62
     1
370
    25
100
AcDbBlockReference
  2
PH_GRPBLK
 10
190.7334749940255
 20
27.36453811398019
 30
0.0
1001
PHOENIX7010
1002
{
1070
    41
1040
1.0
1002
}
  0
MTEXT
  5
14FF1
102
{ACAD_REACTORS
330
1503E
102
}
330
1F
100
AcDbEntity
  8
0
  6
Continuous
 62
     7
370
    50
100
AcDbMText
 10
171.0842366554657
 20
17.8834606000313
 30
0.0
 40
1.6
 41
0.0
 71
     7
 72
     5
  1
{\fArial|b0|i0|c0|p34;\W1.1;\C1;A Phoenix Mecano Company}
 73
     1
 44
1.0
1001
PHOENIX7010
1002
{
1070
    41
1040
1.0
1002
}
1001
ACAD
1000
MTEXTBEGIN
1070
    73
1070
     1
1070
    44
1040
1.0
1070
    74
1070
     0
1000
MTEXTEND
  0
MTEXT
  5
14FF2
102
{ACAD_XDICTIONARY
360
1508C
102
}
102
{ACAD_REACTORS
330
1503E
102
}
330
1F
100
AcDbEntity
  8
0
  6
Continuous
 62
     7
370
    50
100
AcDbMText
 10
183.5658807175857
 20
21.46517927327716
 30
0.0
 40
3.7
 41
0.0
 71
     7
 72
     5
  1
{\fArial|b1|i0|c0|p34;\W1.1;BOPLA}
 73
     1
 44
1.135135135135135
1001
PHOENIX7010
1002
{
1070
    41
1040
1.0
1002
}
1001
ACAD
1000
MTEXTBEGIN
1070
    73
1070
     1
1070
    44
1040
1.135135135135135
1070
    74
1070
     0
1000
MTEXTEND
  0
INSERT
  5
14FF3
102
{ACAD_REACTORS
330
1503E
102
}
330
1F
100
AcDbEntity
  8
0
  6
Continuous
 62
     7
370
    50
100
AcDbBlockReference
  2
PH_GRPBLK
 10
190.7334749940255
 20
27.36453811398019
 30
0.0
1001
PHOENIX7010
1002
{
1070
    41
1040
1.0
1002
}
  0
MTEXT
  5
14FF4
102
{ACAD_REACTORS
330
1503F
102
}
330
1F
100
AcDbEntity
  8
0
  6
Continuous
 62
     5
370
    35
100
AcDbMText
 10
108.9304981780733
 20
52.18090043987103
 30
0.0
 40
4.0
 41
0.0
 71
     7
 72
     5
  1
{\Q20;\C7;Catalogue drawing}
 73
     1
 44
1.0
1001
PHOENIX7010
1002
{
1070
    41
1040
1.0
1002
}
1001
ACAD
1000
MTEXTBEGIN
1070
    73
1070
     1
1070
    44
1040
1.0
1070
    74
1070
     0
1000
MTEXTEND
  0
MTEXT
  5
14FF5
102
{ACAD_REACTORS
330
1503F
102
}
330
1F
100
AcDbEntity
  8
0
  6
Continuous
 62
     5
370
    35
100
AcDbMText
 10
108.9304981780733
 20
59.18090043987104
 30
0.0
 40
4.0
 41
0.0
 71
     7
 72
     5
  1
{\C7;Katalogzeichnung/}
 73
     1
 44
1.0
1001
PHOENIX7010
1002
{
1070
    41
1040
1.0
1002
}
1001
ACAD
1000
MTEXTBEGIN
1070
    73
1070
     1
1070
    44
1040
1.0
1070
    74
1070
     0
1000
MTEXTEND
  0
MTEXT
  5
14FF6
102
{ACAD_REACTORS
330
1503F
102
}
330
1F
100
AcDbEntity
  8
0
  6
Continuous
 62
     5
370
    35
100
AcDbMText
 10
108.9304981780733
 20
66.18090043987104
 30
0.0
 40
4.0
 41
0.0
 71
     7
 72
     5
  1
{\C7;ARP 105/31-...}
 73
     1
 44
1.0
1001
PHOENIX7010
1002
{
1070
    41
1040
1.0
1002
}
1001
ACAD
1000
MTEXTBEGIN
1070
    73
1070
     1
1070
    44
1040
1.0
1070
    74
1070
     0
1000
MTEXTEND
  0
MTEXT
  5
14FF7
102
{ACAD_REACTORS
330
1503F
102
}
330
1F
100
AcDbEntity
  8
0
  6
Continuous
 62
     5
370
    35
100
AcDbMText
 10
130.3074630969179
 20
95.19875800682347
 30
0.0
 40
4.0
 41
0.0
 71
     7
 72
     5
  1
{\C7;1:1}
 73
     1
 44
1.0
1001
PHOENIX7010
1002
{
1070
    41
1040
1.0
1002
}
1001
ACAD
1000
MTEXTBEGIN
1070
    73
1070
     1
1070
    44
1040
1.0
1070
    74
1070
     0
1000
MTEXTEND
  0
MTEXT
  5
14FF8
102
{ACAD_REACTORS
330
1503F
102
}
330
1F
100
AcDbEntity
  8
0
  6
Continuous
 62
     5
370
    35
100
AcDbMText
 10
109.2942762589885
 20
94.24669079255091
 30
0.0
 40
2.5
 41
0.0
 71
     7
 72
     5
  1
{\C1;Maßstab/\P\Q20;Scale:}
 73
     1
 44
1.0
1001
PHOENIX7010
1002
{
1070
    41
1040
1.0
1002
}
1001
ACAD
1000
MTEXTBEGIN
1070
    73
1070
     1
1070
    44
1040
1.0
1070
    74
1070
     0
1000
MTEXTEND
  0
MTEXT
  5
14FF9
102
{ACAD_REACTORS
330
1503F
102
}
330
1F
100
AcDbEntity
  8
0
  6
Continuous
 62
     5
370
    35
100
AcDbMText
 10
109.5702130763932
 20
86.57846179300577
 30
0.0
 40
3.0
 41
0.0
 71
     7
 72
     5
  1
Zeichnungs-Nr. / {\Q20;Drawing-No.:}
 73
     1
 44
1.0
1001
PHOENIX7010
1002
{
1070
    41
1040
1.0
1002
}
1001
ACAD
1000
MTEXTBEGIN
1070
    73
1070
     1
1070
    44
1040
1.0
1070
    74
1070
     0
1000
MTEXTEND
  0
MTEXT
  5
14FFA
102
{ACAD_REACTORS
330
1503F
102
}
330
1F
100
AcDbEntity
  8
0
  6
Continuous
 62
     5
370
    35
100
AcDbMText
 10
130.6810942169352
 20
80.43630467405547
 30
0.0
 40
4.0
 41
0.0
 71
     7
 72
     5
  1
{\C7;4K 5255.182.02}
 73
     1
 44
1.0
1001
PHOENIX7010
1002
{
1070
    41
1040
1.0
1002
}
1001
ACAD
1000
MTEXTBEGIN
1070
    73
1070
     1
1070
    44
1040
1.0
1070
    74
1070
     0
1000
MTEXTEND
  0
MTEXT
  5
14FFB
102
{ACAD_REACTORS
330
1503F
102
}
330
1F
100
AcDbEntity
  8
0
  6
Continuous
 62
     5
370
    35
100
AcDbMText
 10
108.8800602381664
 20
72.4289616716369
 30
0.0
 40
4.0
 41
0.0
 71
     7
 72
     5
  1
{\C7;Artikel / \Q20;Article:}
 73
     1
 44
1.0
1001
PHOENIX7010
1002
{
1070
    41
1040
1.0
1002
}
1001
ACAD
1000
MTEXTBEGIN
1070
    73
1070
     1
1070
    44
1040
1.0
1070
    74
1070
     0
1000
MTEXTEND
  0
MTEXT
  5
14FFC
102
{ACAD_REACTORS
330
1503F
102
}
330
1F
100
AcDbEntity
  8
0
  6
Continuous
 62
     5
370
    35
100
AcDbMText
 10
119.5918340418986
 20
15.32304279191066
 30
0.0
 40
2.0
 41
0.0
 71
     7
 72
     5
  1
{\C1;Datum/\P\Q20;Date:}
 73
     1
 44
1.0
1001
PHOENIX7010
1002
{
1070
    41
1040
1.0
1002
}
1001
ACAD
1000
MTEXTBEGIN
1070
    73
1070
     1
1070
    44
1040
1.0
1070
    74
1070
     0
1000
MTEXTEND
  0
MTEXT
  5
14FFD
102
{ACAD_REACTORS
330
1503F
102
}
330
1F
100
AcDbEntity
  8
0
  6
Continuous
 62
     5
370
    35
100
AcDbMText
 10
106.167758256943
 20
15.32303913053602
 30
0.0
 40
2.0
 41
0.0
 71
     7
 72
     5
  1
{\C1;Ä.Nr/\P\Q20;Alt-No.:}
 73
     1
 44
1.0
1001
PHOENIX7010
1002
{
1070
    41
1040
1.0
1002
}
1001
ACAD
1000
MTEXTBEGIN
1070
    73
1070
     1
1070
    44
1040
1.0
1070
    74
1070
     0
1000
MTEXTEND
  0
MTEXT
  5
14FFE
102
{ACAD_REACTORS
330
1503F
102
}
330
1F
100
AcDbEntity
  8
0
  6
Continuous
 62
     5
370
    35
100
AcDbMText
 10
132.2178658257173
 20
10.60592166613912
 30
0.0
 40
2.5
 41
0.0
 71
     7
 72
     5
  1
2 602 098
 73
     1
 44
1.0
1001
PHOENIX7010
1002
{
1070
    41
1040
1.0
1002
}
1001
ACAD
1000
MTEXTBEGIN
1070
    73
1070
     1
1070
    44
1040
1.0
1070
    74
1070
     0
1000
MTEXTEND
  0
MTEXT
  5
14FFF
102
{ACAD_REACTORS
330
1503F
102
}
330
1F
100
AcDbEntity
  8
0
  6
Continuous
 62
     5
370
    35
100
AcDbMText
 10
106.5289912646938
 20
10.49475527098093
 30
0.0
 40
2.5
 41
0.0
 71
     7
 72
     5
  1
DISK:
 73
     1
 44
1.0
1001
PHOENIX7010
1002
{
1070
    41
1040
1.0
1002
}
1001
ACAD
1000
MTEXTBEGIN
1070
    73
1070
     1
1070
    44
1040
1.0
1070
    74
1070
     0
1000
MTEXTEND
  0
MTEXT
  5
15000
102
{ACAD_REACTORS
330
1503F
102
}
330
1F
100
AcDbEntity
  8
0
  6
Continuous
 62
     5
370
    35
100
AcDbMText
 10
132.2178658257173
 20
6.248887523187477
 30
0.0
 40
2.5
 41
0.0
 71
     7
 72
     5
  1
24.01.01 KH
 73
     1
 44
1.0
1001
PHOENIX7010
1002
{
1070
    41
1040
1.0
1002
}
1001
ACAD
1000
MTEXTBEGIN
1070
    73
1070
     1
1070
    44
1040
1.0
1070
    74
1070
     0
1000
MTEXTEND
  0
MTEXT
  5
15001
102
{ACAD_REACTORS
330
1503F
102
}
330
1F
100
AcDbEntity
  8
0
  6
Continuous
 62
     5
370
    35
100
AcDbMText
 10
106.5289912646938
 20
6.248887523187477
 30
0.0
 40
2.5
 41
0.0
 71
     7
 72
     5
  1
Datum/{\Q20;Date:}
 73
     1
 44
1.0
1001
PHOENIX7010
1002
{
1070
    41
1040
1.0
1002
}
1001
ACAD
1000
MTEXTBEGIN
1070
    73
1070
     1
1070
    44
1040
1.0
1070
    74
1070
     0
1000
MTEXTEND
  0
LINE
  5
15002
102
{ACAD_REACTORS
330
1503F
102
}
330
1F
100
AcDbEntity
  8
0
  6
Continuous
 62
     5
370
    35
100
AcDbLine
 10
104.9999999999998
 20
14.5
 30
0.0
 11
205.0
 21
14.5
 31
0.0
1001
PHOENIX7010
1002
{
1070
    41
1040
1.0
1002
}
  0
LINE
  5
15003
102
{ACAD_REACTORS
330
1503F
102
}
330
1F
100
AcDbEntity
  8
0
  6
Continuous
 62
     5
100
AcDbLine
 10
195.4999999999998
 20
92.49999999999989
 30
0.0
 11
195.4999999999998
 21
99.49999999999988
 31
0.0
1001
PHOENIX7010
1002
{
1070
    62
1070
     5
1070
    41
1040
1.0
1002
}
  0
LINE
  5
15004
102
{ACAD_REACTORS
330
1503F
102
}
330
1F
100
AcDbEntity
  8
0
  6
ACAD_ISO04W100
 62
     1
 48
0.1451612903225806
100
AcDbLine
 10
200.4999999999998
 20
91.49999999999989
 30
0.0
 11
200.4999999999998
 21
100.4999999999999
 31
0.0
1001
PHOENIX7010
1002
{
1070
    62
1070
     1
1070
    41
1040
1.0
1002
}
  0
CIRCLE
  5
15005
102
{ACAD_REACTORS
330
1503F
102
}
330
1F
100
AcDbEntity
  8
0
  6
Continuous
 62
     5
100
AcDbCircle
 10
200.4999999999998
 20
95.99999999999988
 30
0.0
 40
1.75
1001
PHOENIX7010
1002
{
1070
    62
1070
     5
1070
    41
1040
1.0
1002
}
  0
CIRCLE
  5
15006
102
{ACAD_REACTORS
330
1503F
102
}
330
1F
100
AcDbEntity
  8
0
  6
Continuous
 62
     5
100
AcDbCircle
 10
200.4999999999998
 20
95.99999999999988
 30
0.0
 40
3.5
1001
PHOENIX7010
1002
{
1070
    62
1070
     5
1070
    41
1040
1.0
1002
}
  0
LINE
  5
15007
102
{ACAD_REACTORS
330
1503F
102
}
330
1F
100
AcDbEntity
  8
0
  6
Continuous
 62
     5
100
AcDbLine
 10
188.4999999999998
 20
94.24999999999988
 30
0.0
 11
188.4999999999998
 21
97.74999999999989
 31
0.0
1001
PHOENIX7010
1002
{
1070
    62
1070
     5
1070
    41
1040
1.0
1002
}
  0
LINE
  5
15008
102
{ACAD_REACTORS
330
1503F
102
}
330
1F
100
AcDbEntity
  8
0
  6
ACAD_ISO04W100
 62
     1
 48
0.282258064516129
100
AcDbLine
 10
204.9999999999998
 20
95.99999999999988
 30
0.0
 11
187.4999999999998
 21
95.99999999999988
 31
0.0
1001
PHOENIX7010
1002
{
1070
    62
1070
     1
1070
    41
1040
1.0
1002
}
  0
LINE
  5
15009
102
{ACAD_REACTORS
330
1503F
102
}
330
1F
100
AcDbEntity
  8
0
  6
Continuous
 62
     5
100
AcDbLine
 10
195.4999999999998
 20
92.49999999999989
 30
0.0
 11
188.4999999999998
 21
94.24999999999988
 31
0.0
1001
PHOENIX7010
1002
{
1070
    62
1070
     5
1070
    41
1040
1.0
1002
}
  0
LINE
  5
1500A
102
{ACAD_REACTORS
330
1503F
102
}
330
1F
100
AcDbEntity
  8
0
  6
Continuous
 62
     5
100
AcDbLine
 10
195.4999999999998
 20
99.49999999999988
 30
0.0
 11
188.4999999999998
 21
97.74999999999989
 31
0.0
1001
PHOENIX7010
1002
{
1070
    62
1070
     5
1070
    41
1040
1.0
1002
}
  0
ARC
  5
1500B
102
{ACAD_REACTORS
330
1503F
102
}
330
1F
100
AcDbEntity
  8
0
  6
Continuous
 62
     5
100
AcDbCircle
 10
107.4999999999997
 20
88.99999999999989
 30
0.0
 40
2.5
100
AcDbArc
 50
90.0
 51
180.0
1001
PHOENIX7010
1002
{
1070
    62
1070
     5
1070
    41
1040
1.0
1002
}
  0
ARC
  5
1500C
102
{ACAD_REACTORS
330
1503F
102
}
330
1F
100
AcDbEntity
  8
0
  6
Continuous
 62
     5
100
AcDbCircle
 10
107.4999999999997
 20
99.99999999999989
 30
0.0
 40
2.5
100
AcDbArc
 50
90.0
 51
180.0
1001
PHOENIX7010
1002
{
1070
    62
1070
     5
1070
    41
1040
1.0
1002
}
  0
LINE
  5
1500D
102
{ACAD_REACTORS
330
1503F
102
}
330
1F
100
AcDbEntity
  8
0
  6
Continuous
 62
     5
100
AcDbLine
 10
205.0
 20
91.49999999999989
 30
0.0
 11
107.4999999999997
 21
91.49999999999989
 31
0.0
1001
PHOENIX7010
1002
{
1070
    62
1070
     5
1070
    41
1040
1.0
1002
}
  0
LINE
  5
1500E
102
{ACAD_REACTORS
330
1503F
102
}
330
1F
100
AcDbEntity
  8
0
  6
Continuous
 62
     5
100
AcDbLine
 10
205.0
 20
102.4999999999999
 30
0.0
 11
107.4999999999997
 21
102.4999999999999
 31
0.0
1001
PHOENIX7010
1002
{
1070
    62
1070
     5
1070
    41
1040
1.0
1002
}
  0
LINE
  5
1500F
102
{ACAD_REACTORS
330
1503F
102
}
330
1F
100
AcDbEntity
  8
0
  6
Continuous
 62
     5
100
AcDbLine
 10
140.0
 20
48.0
 30
0.0
 11
140.0
 21
14.5
 31
0.0
1001
PHOENIX7010
1002
{
1070
    62
1070
     5
1070
    41
1040
1.0
1002
}
  0
TEXT
  5
15010
102
{ACAD_REACTORS
330
1503F
102
}
330
1F
100
AcDbEntity
  8
0
  6
Continuous
 62
     1
100
AcDbText
 10
118.9999996997324
 20
42.74999981501344
 30
0.0
 40
2.0
  1
-
 41
1.5
100
AcDbText
1001
PHOENIX7010
1002
{
1070
    62
1070
     1
1070
    41
1040
1.0
1002
}
  0
TEXT
  5
15011
102
{ACAD_REACTORS
330
1503F
102
}
330
1F
100
AcDbEntity
  8
0
  6
Continuous
 62
     1
100
AcDbText
 10
118.9999996997324
 20
40.24999981501344
 30
0.0
 40
2.0
  1
-
 41
1.5
100
AcDbText
1001
PHOENIX7010
1002
{
1070
    62
1070
     1
1070
    41
1040
1.0
1002
}
  0
TEXT
  5
15012
102
{ACAD_REACTORS
330
1503F
102
}
330
1F
100
AcDbEntity
  8
0
  6
Continuous
 62
     1
100
AcDbText
 10
118.9999996997324
 20
45.24999981501344
 30
0.0
 40
2.0
  1
-
 41
1.5
100
AcDbText
1001
PHOENIX7010
1002
{
1070
    62
1070
     1
1070
    41
1040
1.0
1002
}
  0
TEXT
  5
15013
102
{ACAD_REACTORS
330
1503F
102
}
330
1F
100
AcDbEntity
  8
0
  6
Continuous
 62
     1
100
AcDbText
 10
105.9999996997323
 20
42.74999981501344
 30
0.0
 40
2.0
  1
-
 41
1.5
100
AcDbText
1001
PHOENIX7010
1002
{
1070
    62
1070
     1
1070
    41
1040
1.0
1002
}
  0
TEXT
  5
15014
102
{ACAD_REACTORS
330
1503F
102
}
330
1F
100
AcDbEntity
  8
0
  6
Continuous
 62
     1
100
AcDbText
 10
105.9999996997323
 20
40.24999981501344
 30
0.0
 40
2.0
  1
-
 41
1.5
100
AcDbText
1001
PHOENIX7010
1002
{
1070
    62
1070
     1
1070
    41
1040
1.0
1002
}
  0
TEXT
  5
15015
102
{ACAD_REACTORS
330
1503F
102
}
330
1F
100
AcDbEntity
  8
0
  6
Continuous
 62
     1
100
AcDbText
 10
105.9999996997323
 20
45.24999981501344
 30
0.0
 40
2.0
  1
-
 41
1.5
100
AcDbText
1001
PHOENIX7010
1002
{
1070
    62
1070
     1
1070
    41
1040
1.0
1002
}
  0
ARC
  5
15016
102
{ACAD_REACTORS
330
1503F
102
}
330
1F
100
AcDbEntity
  8
0
  6
Continuous
 62
     5
100
AcDbCircle
 10
107.4999999999997
 20
45.49999999999999
 30
0.0
 40
2.5
100
AcDbArc
 50
90.0
 51
180.0
1001
PHOENIX7010
1002
{
1070
    62
1070
     5
1070
    41
1040
1.0
1002
}
  0
ARC
  5
15017
102
{ACAD_REACTORS
330
1503F
102
}
330
1F
100
AcDbEntity
  8
0
  6
Continuous
 62
     5
100
AcDbCircle
 10
107.4999999999997
 20
76.0
 30
0.0
 40
2.5
100
AcDbArc
 50
90.0
 51
180.0
1001
PHOENIX7010
1002
{
1070
    62
1070
     5
1070
    41
1040
1.0
1002
}
  0
TEXT
  5
15018
102
{ACAD_REACTORS
330
1503F
102
}
330
1F
100
AcDbEntity
  8
0
  6
Continuous
 62
     1
100
AcDbText
 10
118.9999996997324
 20
25.24999981501344
 30
0.0
 40
2.0
  1
-
 41
1.5
100
AcDbText
1001
PHOENIX7010
1002
{
1070
    62
1070
     1
1070
    41
1040
1.0
1002
}
  0
TEXT
  5
15019
102
{ACAD_REACTORS
330
1503F
102
}
330
1F
100
AcDbEntity
  8
0
  6
Continuous
 62
     1
100
AcDbText
 10
118.9999996997324
 20
22.74999981501344
 30
0.0
 40
2.0
  1
11.06.02
 41
1.5
100
AcDbText
1001
PHOENIX7010
1002
{
1070
    62
1070
     1
1070
    41
1040
1.0
1002
}
  0
TEXT
  5
1501A
102
{ACAD_REACTORS
330
1503F
102
}
330
1F
100
AcDbEntity
  8
0
  6
Continuous
 62
     1
100
AcDbText
 10
118.9999996997324
 20
30.24999981501344
 30
0.0
 40
2.0
  1
-
 41
1.5
100
AcDbText
1001
PHOENIX7010
1002
{
1070
    62
1070
     1
1070
    41
1040
1.0
1002
}
  0
TEXT
  5
1501B
102
{ACAD_REACTORS
330
1503F
102
}
330
1F
100
AcDbEntity
  8
0
  6
Continuous
 62
     1
100
AcDbText
 10
118.9999996997324
 20
27.74999981501344
 30
0.0
 40
2.0
  1
-
 41
1.5
100
AcDbText
1001
PHOENIX7010
1002
{
1070
    62
1070
     1
1070
    41
1040
1.0
1002
}
  0
TEXT
  5
1501C
102
{ACAD_REACTORS
330
1503F
102
}
330
1F
100
AcDbEntity
  8
0
  6
Continuous
 62
     1
100
AcDbText
 10
118.9999996997324
 20
32.74999981501344
 30
0.0
 40
2.0
  1
-
 41
1.5
100
AcDbText
1001
PHOENIX7010
1002
{
1070
    62
1070
     1
1070
    41
1040
1.0
1002
}
  0
TEXT
  5
1501D
102
{ACAD_REACTORS
330
1503F
102
}
330
1F
100
AcDbEntity
  8
0
  6
Continuous
 62
     1
100
AcDbText
 10
118.9999996997324
 20
35.24999981501344
 30
0.0
 40
2.0
  1
-
 41
1.5
100
AcDbText
1001
PHOENIX7010
1002
{
1070
    62
1070
     1
1070
    41
1040
1.0
1002
}
  0
TEXT
  5
1501E
102
{ACAD_REACTORS
330
1503F
102
}
330
1F
100
AcDbEntity
  8
0
  6
Continuous
 62
     1
100
AcDbText
 10
118.9999996997324
 20
37.74999981501344
 30
0.0
 40
2.0
  1
-
 41
1.5
100
AcDbText
1001
PHOENIX7010
1002
{
1070
    62
1070
     1
1070
    41
1040
1.0
1002
}
  0
TEXT
  5
1501F
102
{ACAD_REACTORS
330
1503F
102
}
330
1F
100
AcDbEntity
  8
0
  6
Continuous
 62
     1
100
AcDbText
 10
105.9999996997323
 20
25.24999981501344
 30
0.0
 40
2.0
  1
-
 41
1.5
100
AcDbText
1001
PHOENIX7010
1002
{
1070
    62
1070
     1
1070
    41
1040
1.0
1002
}
  0
TEXT
  5
15020
102
{ACAD_REACTORS
330
1503F
102
}
330
1F
100
AcDbEntity
  8
0
  6
Continuous
 62
     1
100
AcDbText
 10
105.9999996997323
 20
22.74999981501344
 30
0.0
 40
2.0
  1
3606
 41
1.5
100
AcDbText
1001
PHOENIX7010
1002
{
1070
    62
1070
     1
1070
    41
1040
1.0
1002
}
  0
TEXT
  5
15021
102
{ACAD_REACTORS
330
1503F
102
}
330
1F
100
AcDbEntity
  8
0
  6
Continuous
 62
     1
100
AcDbText
 10
105.9999996997323
 20
30.24999981501344
 30
0.0
 40
2.0
  1
-
 41
1.5
100
AcDbText
1001
PHOENIX7010
1002
{
1070
    62
1070
     1
1070
    41
1040
1.0
1002
}
  0
TEXT
  5
15022
102
{ACAD_REACTORS
330
1503F
102
}
330
1F
100
AcDbEntity
  8
0
  6
Continuous
 62
     1
100
AcDbText
 10
105.9999996997323
 20
27.74999981501344
 30
0.0
 40
2.0
  1
-
 41
1.5
100
AcDbText
1001
PHOENIX7010
1002
{
1070
    62
1070
     1
1070
    41
1040
1.0
1002
}
  0
TEXT
  5
15023
102
{ACAD_REACTORS
330
1503F
102
}
330
1F
100
AcDbEntity
  8
0
  6
Continuous
 62
     1
100
AcDbText
 10
105.9999996997323
 20
32.74999981501344
 30
0.0
 40
2.0
  1
-
 41
1.5
100
AcDbText
1001
PHOENIX7010
1002
{
1070
    62
1070
     1
1070
    41
1040
1.0
1002
}
  0
TEXT
  5
15024
102
{ACAD_REACTORS
330
1503F
102
}
330
1F
100
AcDbEntity
  8
0
  6
Continuous
 62
     1
100
AcDbText
 10
105.9999996997323
 20
35.24999981501344
 30
0.0
 40
2.0
  1
-
 41
1.5
100
AcDbText
1001
PHOENIX7010
1002
{
1070
    62
1070
     1
1070
    41
1040
1.0
1002
}
  0
TEXT
  5
15025
102
{ACAD_REACTORS
330
1503F
102
}
330
1F
100
AcDbEntity
  8
0
  6
Continuous
 62
     1
100
AcDbText
 10
105.9999996997323
 20
37.74999981501344
 30
0.0
 40
2.0
  1
-
 41
1.5
100
AcDbText
1001
PHOENIX7010
1002
{
1070
    62
1070
     1
1070
    41
1040
1.0
1002
}
  0
LINE
  5
15026
102
{ACAD_REACTORS
330
1503F
102
}
330
1F
100
AcDbEntity
  8
0
  6
Continuous
 62
     1
100
AcDbLine
 10
117.9999999999997
 20
48.0
 30
0.0
 11
117.9999999999997
 21
14.5
 31
0.0
1001
PHOENIX7010
1002
{
1070
    62
1070
     1
1070
    41
1040
1.0
1002
}
  0
LINE
  5
15027
102
{ACAD_REACTORS
330
1503F
102
}
330
1F
100
AcDbEntity
  8
0
  6
Continuous
 62
     1
100
AcDbLine
 10
104.9999999999998
 20
21.5
 30
0.0
 11
140.0
 21
21.5
 31
0.0
1001
PHOENIX7010
1002
{
1070
    62
1070
     1
1070
    41
1040
1.0
1002
}
  0
LINE
  5
15028
102
{ACAD_REACTORS
330
1503F
102
}
330
1F
100
AcDbEntity
  8
0
  6
Continuous
 62
     5
100
AcDbLine
 10
205.0
 20
78.5
 30
0.0
 11
107.4999999999997
 21
78.5
 31
0.0
1001
PHOENIX7010
1002
{
1070
    62
1070
     5
1070
    41
1040
1.0
1002
}
  0
LINE
  5
15029
102
{ACAD_REACTORS
330
1503F
102
}
330
1F
100
AcDbEntity
  8
0
  6
Continuous
 62
     5
100
AcDbLine
 10
205.0
 20
48.0
 30
0.0
 11
107.4999999999997
 21
48.0
 31
0.0
1001
PHOENIX7010
1002
{
1070
    62
1070
     5
1070
    41
1040
1.0
1002
}
  0
LINE
  5
1502A
102
{ACAD_REACTORS
330
1503F
102
}
330
1F
100
AcDbEntity
  8
0
  6
Continuous
 62
     5
100
AcDbLine
 10
104.9999999999998
 20
99.99999999999989
 30
0.0
 11
104.9999999999998
 21
5.0
 31
0.0
1001
PHOENIX7010
1002
{
1070
    62
1070
     5
1070
    41
1040
1.0
1002
}
  0
INSERT
  5
1502B
102
{ACAD_REACTORS
330
1503F
102
}
330
1F
100
AcDbEntity
  8
0
  6
Continuous
 62
     5
370
    35
100
AcDbBlockReference
  2
PH_GRPBLK
 10
104.9999999999998
 20
14.5
 30
0.0
1001
PHOENIX7010
1002
{
1070
    41
1040
1.0
1002
}
  0
LWPOLYLINE
  5
1502D
102
{ACAD_REACTORS
330
14FE9
102
}
330
1F
100
AcDbEntity
  8
0
  6
Continuous
 62
     7
 60
     1
370
    50
100
AcDbPolyline
 90
        5
 70
     1
 43
0.0
 10
197.4334749940256
 20
35.16453811398026
 10
190.7334749940255
 20
27.36453811398019
 10
202.7334749940255
 20
27.36453811398019
 10
202.7334749940255
 20
35.16453811398014
 10
197.4334749940256
 20
28.26453811398028
1001
PHOENIX7010
1002
{
1070
    41
1040
1.0
1002
}
  0
LWPOLYLINE
  5
1502E
102
{ACAD_REACTORS
330
14FEA
102
}
330
1F
100
AcDbEntity
  8
0
  6
Continuous
 62
     7
 60
     1
370
    50
100
AcDbPolyline
 90
        3
 70
     1
 43
0.0
 10
189.8834749940255
 20
27.36453811398019
 10
189.8834749940255
 20
31.51453811398017
 10
194.0334749940254
 20
31.51453811398017
 42
2.414213562373094
1001
PHOENIX7010
1002
{
1070
    41
1040
1.0
1002
}
  0
ENDSEC
  0
SECTION
  2
OBJECTS
  0
DICTIONARY
  5
C
330
0
100
AcDbDictionary
281
     1
  3
ACAD_COLOR
350
14FB4
  3
ACAD_GROUP
350
D
  3
ACAD_LAYOUT
350
1A
  3
ACAD_MATERIAL
350
14F87
  3
ACAD_MLEADERSTYLE
350
14FC9
  3
ACAD_MLINESTYLE
350
17
  3
ACAD_PLOTSETTINGS
350
19
  3
ACAD_PLOTSTYLENAME
350
E
  3
ACAD_SCALELIST
350
14FB7
  3
ACAD_TABLESTYLE
350
14FB5
  3
ACAD_VISUALSTYLE
350
14FA0
  3
ACDB_RECOMPOSE_DATA
350
1508E
  3
AcDbVariableDictionary
350
14F4C
  3
DWGPROPS
350
1508F
  3
PH_OBJREACTOR_DICT
350
49
  3
PH_ROOTGROUP_DICT
350
4A
  3
PH_VARS
350
4B
  0
DICTIONARY
  5
14FD9
330
2
100
AcDbDictionary
280
     1
281
     1
  3
ACAD_LAYERSTATES
360
14FDA
  0
DICTIONARY
  5
15045
330
10
100
AcDbDictionary
280
     1
281
     1
  3
ADSK_XREC_LAYER_RECONCILED
360
15046
  0
DICTIONARY
  5
15047
330
B21
100
AcDbDictionary
280
     1
281
     1
  3
ADSK_XREC_LAYER_RECONCILED
360
15048
  0
DICTIONARY
  5
1508C
330
14FF2
100
AcDbDictionary
280
     1
281
     1
  3
ACAD_MTEXT_2008_RT
360
1508D
  0
DICTIONARY
  5
14FB4
102
{ACAD_REACTORS
330
C
102
}
330
C
100
AcDbDictionary
281
     1
  0
DICTIONARY
  5
D
102
{ACAD_REACTORS
330
C
102
}
330
C
100
AcDbDictionary
281
     1
  3
*A1
350
9D8
  3
*A2
350
25B3
  3
*A3
350
4283
  3
*A4
350
46DB
  3
*A5
350
F2B9
  0
DICTIONARY
  5
1A
102
{ACAD_REACTORS
330
C
102
}
330
C
100
AcDbDictionary
281
     1
  3
Layout1
350
1E
  3
Layout2
350
26
  3
Model
350
22
  0
DICTIONARY
  5
14F87
102
{ACAD_REACTORS
330
C
102
}
330
C
100
AcDbDictionary
281
     1
  3
ByBlock
350
14F90
  3
ByLayer
350
14F88
  3
Global
350
14F98
  0
DICTIONARY
  5
14FC9
102
{ACAD_REACTORS
330
C
102
}
330
C
100
AcDbDictionary
281
     1
  3
Standard
350
14FCA
  0
DICTIONARY
  5
17
102
{ACAD_REACTORS
330
C
102
}
330
C
100
AcDbDictionary
281
     1
  3
Standard
350
18
  0
DICTIONARY
  5
19
102
{ACAD_REACTORS
330
C
102
}
330
C
100
AcDbDictionary
281
     1
  0
ACDBDICTIONARYWDFLT
  5
E
102
{ACAD_REACTORS
330
C
102
}
330
C
100
AcDbDictionary
281
     1
  3
Normal
350
F
100
AcDbDictionaryWithDefault
340
F
  0
DICTIONARY
  5
14FB7
102
{ACAD_REACTORS
330
C
102
}
330
C
100
AcDbDictionary
281
     1
  3
A0
350
14FB8
  3
A1
350
14FB9
  3
A2
350
14FBA
  3
A3
350
14FBB
  3
A4
350
14FBC
  3
A5
350
14FBD
  3
A6
350
14FBE
  3
A7
350
14FBF
  3
A8
350
14FC0
  3
A9
350
14FC1
  3
B0
350
14FC2
  3
B1
350
14FC3
  3
B2
350
14FC4
  3
B3
350
14FC5
  3
B4
350
14FC6
  3
B5
350
14FC7
  3
B6
350
14FC8
  0
DICTIONARY
  5
14FB5
102
{ACAD_REACTORS
330
C
102
}
330
C
100
AcDbDictionary
281
     1
  3
Standard
350
14FB6
  0
DICTIONARY
  5
14FA0
102
{ACAD_REACTORS
330
C
102
}
330
C
100
AcDbDictionary
281
     1
  3
2dWireframe
350
14FA6
  3
3D Hidden
350
14FA8
  3
3dWireframe
350
14FA7
  3
Basic
350
14FA5
  3
Brighten
350
14FAC
  3
ColorChange
350
14FB0
  3
Conceptual
350
14FA9
  3
Dim
350
14FAB
  3
EdgeColorOff
350
14FB3
  3
Facepattern
350
14FAF
  3
Flat
350
14FA1
  3
FlatWithEdges
350
14FA2
  3
Gouraud
350
14FA3
  3
GouraudWithEdges
350
14FA4
  3
JitterOff
350
14FB1
  3
Linepattern
350
14FAE
  3
OverhangOff
350
14FB2
  3
Realistic
350
14FAA
  3
Thicken
350
14FAD
  0
XRECORD
  5
1508E
102
{ACAD_REACTORS
330
C
102
}
330
C
100
AcDbXrecord
280
     1
 90
        1
330
14FB6
330
14FF2
  0
DICTIONARY
  5
14F4C
102
{ACAD_REACTORS
330
C
102
}
330
C
100
AcDbDictionary
281
     1
  3
CANNOSCALE
350
1507A
  3
CMLEADERSTYLE
350
15078
  3
CTABLESTYLE
350
15077
  3
DIMASSOC
350
14F4D
  3
INDEXCTL
350
15088
  3
LAYEREVAL
350
1507C
  3
LAYERNOTIFY
350
1507D
  3
LIGHTINGUNITS
350
1507B
  3
MSLTSCALE
350
15079
  3
SORTENTS
350
15087
  3
XCLIPFRAME
350
15089
  0
XRECORD
  5
1508F
102
{ACAD_REACTORS
330
C
102
}
330
C
100
AcDbXrecord
280
     1
  1
DWGPROPS COOKIE
  2

  3

  4

  6

  7

  8
kleemann
  9

300
=
301
=
302
=
303
=
304
=
305
=
306
=
307
=
308
=
309
=
 40
0.2994773263888889
 41
2451933.325758831
 42
2456730.537044155
  1

 90
        0
  0
DICTIONARY
  5
49
102
{ACAD_REACTORS
330
C
102
}
330
C
100
AcDbDictionary
281
     1
  3
*A1
350
DF87
  3
*A10
350
140F3
  3
*A11
350
140F4
  3
*A12
350
11BCB
  3
*A13
350
14774
  3
*A14
350
14775
  3
*A15
350
14776
  3
*A16
350
10D55
  3
*A17
350
14A5A
  3
*A18
350
14A5B
  3
*A19
350
EE64
  3
*A2
350
13465
  3
*A20
350
10136
  3
*A21
350
10137
  3
*A22
350
109AD
  3
*A23
350
1233C
  3
*A24
350
109AE
  3
*A25
350
109AF
  3
*A26
350
10D56
  3
*A27
350
1148F
  3
*A28
350
11490
  3
*A29
350
11491
  3
*A3
350
13466
  3
*A30
350
11BC9
  3
*A31
350
11BCA
  3
*A34
350
EE62
  3
*A4
350
10D54
  3
*A41
350
1233D
  3
*A42
350
1233E
  3
*A43
350
12AB7
  3
*A44
350
12AB8
  3
*A45
350
13464
  3
*A5
350
13AEB
  3
*A6
350
13AEC
  3
*A7
350
13AED
  3
*A8
350
EE63
  3
*A9
350
140F2
  0
DICTIONARY
  5
4A
102
{ACAD_REACTORS
330
C
102
}
330
C
100
AcDbDictionary
281
     1
  3
$PH$AABM
350
424C
  3
$PH$AABN
350
DC5A
  3
$PH$AABO
350
424E
  3
$PH$AABP
350
DC6C
  3
$PH$AABR
350
14E6C
  3
$PH$AABT
350
14F7C
  3
$PH$AABU
350
14F7F
  3
$PH$AABV4V
350
14FD7
  3
$PH$AABY
350
1503A
  3
PH_GRPMEMBERS
350
14F7B
  0
PH_VARS
  5
4B
102
{ACAD_REACTORS
330
C
102
}
330
C
  0
DICTIONARY
  5
14FDA
102
{ACAD_REACTORS
330
14FD9
102
}
330
14FD9
100
AcDbDictionary
281
     1
  0
XRECORD
  5
15046
102
{ACAD_REACTORS
330
15045
102
}
330
15045
100
AcDbXrecord
280
     1
290
     1
  0
XRECORD
  5
15048
102
{ACAD_REACTORS
330
15047
102
}
330
15047
100
AcDbXrecord
280
     1
290
     1
  0
XRECORD
  5
1508D
102
{ACAD_REACTORS
330
1508C
102
}
330
1508C
100
AcDbXrecord
280
     1
 40
46997.0
  1
\pxql;{\fArial|b1|i0|c0|p34;\W1.1;BOPLA}
  0
GROUP
  5
9D8
102
{ACAD_REACTORS
330
D
102
}
330
D
100
AcDbGroup
300

 70
     0
 71
     0
  0
GROUP
  5
25B3
102
{ACAD_REACTORS
330
D
102
}
330
D
100
AcDbGroup
300

 70
     0
 71
     0
  0
GROUP
  5
4283
102
{ACAD_REACTORS
330
D
102
}
330
D
100
AcDbGroup
300

 70
     0
 71
     0
  0
GROUP
  5
46DB
102
{ACAD_REACTORS
330
D
102
}
330
D
100
AcDbGroup
300

 70
     0
 71
     0
  0
GROUP
  5
F2B9
102
{ACAD_REACTORS
330
D
102
}
330
D
100
AcDbGroup
300

 70
     0
 71
     0
  0
LAYOUT
  5
1E
102
{ACAD_XDICTIONARY
360
15090
102
}
102
{ACAD_REACTORS
330
1A
102
}
330
1A
100
AcDbPlotSettings
  1

  2

  4

  6

 40
0.0
 41
0.0
 42
0.0
 43
0.0
 44
0.0
 45
0.0
 46
0.0
 47
0.0
 48
0.0
 49
0.0
140
0.0
141
0.0
142
1.0
143
1.0
 70
   688
 72
     0
 73
     0
 74
     5
  7
HP_SW.ctb
 75
    16
147
1.0
148
0.0
149
0.0
100
AcDbLayout
  1
Layout1
 70
     1
 71
     1
 10
0.0
 20
0.0
 11
420.0
 21
297.0
 12
0.0
 22
0.0
 32
0.0
 14
1.000000000000000E+20
 24
1.000000000000000E+20
 34
1.000000000000000E+20
 15
-1.000000000000000E+20
 25
-1.000000000000000E+20
 35
-1.000000000000000E+20
146
0.0
 13
0.0
 23
0.0
 33
0.0
 16
1.0
 26
0.0
 36
0.0
 17
0.0
 27
1.0
 37
0.0
 76
     0
330
1B
  0
LAYOUT
  5
26
102
{ACAD_XDICTIONARY
360
15093
102
}
102
{ACAD_REACTORS
330
1A
102
}
330
1A
100
AcDbPlotSettings
  1

  2

  4

  6

 40
0.0
 41
0.0
 42
0.0
 43
0.0
 44
0.0
 45
0.0
 46
0.0
 47
0.0
 48
0.0
 49
0.0
140
0.0
141
0.0
142
1.0
143
1.0
 70
   688
 72
     0
 73
     0
 74
     5
  7
HP_SW.ctb
 75
    16
147
1.0
148
0.0
149
0.0
100
AcDbLayout
  1
Layout2
 70
     1
 71
     2
 10
0.0
 20
0.0
 11
12.0
 21
9.0
 12
0.0
 22
0.0
 32
0.0
 14
0.0
 24
0.0
 34
0.0
 15
0.0
 25
0.0
 35
0.0
146
0.0
 13
0.0
 23
0.0
 33
0.0
 16
1.0
 26
0.0
 36
0.0
 17
0.0
 27
1.0
 37
0.0
 76
     0
330
23
  0
LAYOUT
  5
22
102
{ACAD_XDICTIONARY
360
15050
102
}
102
{ACAD_REACTORS
330
1A
102
}
330
1A
100
AcDbPlotSettings
  1

  2
Lexmark Optra Color
  4
A4
  6

 40
3.96875
 41
19.88611221313476
 42
3.96875
 43
5.365753173828125
 44
209.8886566162109
 45
297.0530090332031
 46
0.0
 47
0.0
 48
0.0
 49
0.0
140
0.0
141
0.0
142
1.0
143
1.085441013700824
 70
 11952
 72
     1
 73
     0
 74
     1
  7
HP_SW.ctb
 75
     0
147
0.9212845169637432
148
-0.9805307641864828
149
-0.9879462492978063
100
AcDbLayout
  1
Model
 70
     1
 71
     0
 10
0.0
 20
0.0
 11
12.0
 21
9.0
 12
0.0
 22
0.0
 32
0.0
 14
0.0
 24
0.0
 34
0.0
 15
0.0
 25
0.0
 35
0.0
146
0.0
 13
0.0
 23
0.0
 33
0.0
 16
1.0
 26
0.0
 36
0.0
 17
0.0
 27
1.0
 37
0.0
 76
     0
330
1F
331
14F85
  0
MATERIAL
  5
14F90
102
{ACAD_XDICTIONARY
360
14F91
102
}
102
{ACAD_REACTORS
330
14F87
102
}
330
14F87
100
AcDbMaterial
  1
ByBlock
 72
     0
 43
0.0008202099737533
 43
0.0
 43
0.0
 43
0.0
 43
0.0
 43
0.0008202099737533
 43
0.0
 43
0.0
 43
0.0
 43
0.0
 43
1.0
 43
0.0
 43
0.0
 43
0.0
 43
0.0
 43
1.0
 77
     0
 47
0.0008202099737533
 47
0.0
 47
0.0
 47
0.0
 47
0.0
 47
0.0008202099737533
 47
0.0
 47
0.0
 47
0.0
 47
0.0
 47
1.0
 47
0.0
 47
0.0
 47
0.0
 47
0.0
 47
1.0
171
     0
 49
0.0008202099737533
 49
0.0
 49
0.0
 49
0.0
 49
0.0
 49
0.0008202099737533
 49
0.0
 49
0.0
 49
0.0
 49
0.0
 49
1.0
 49
0.0
 49
0.0
 49
0.0
 49
0.0
 49
1.0
175
     0
142
0.0008202099737533
142
0.0
142
0.0
142
0.0
142
0.0
142
0.0008202099737533
142
0.0
142
0.0
142
0.0
142
0.0
142
1.0
142
0.0
142
0.0
142
0.0
142
0.0
142
1.0
179
     0
144
0.0008202099737533
144
0.0
144
0.0
144
0.0
144
0.0
144
0.0008202099737533
144
0.0
144
0.0
144
0.0
144
0.0
144
1.0
144
0.0
144
0.0
144
0.0
144
0.0
144
1.0
147
0.0008202099737533
147
0.0
147
0.0
147
0.0
147
0.0
147
0.0008202099737533
147
0.0
147
0.0
147
0.0
147
0.0
147
1.0
147
0.0
147
0.0
147
0.0
147
0.0
147
1.0
  0
MATERIAL
  5
14F88
102
{ACAD_XDICTIONARY
360
14F89
102
}
102
{ACAD_REACTORS
330
14F87
102
}
330
14F87
100
AcDbMaterial
  1
ByLayer
 72
     0
 43
0.0008202099737533
 43
0.0
 43
0.0
 43
0.0
 43
0.0
 43
0.0008202099737533
 43
0.0
 43
0.0
 43
0.0
 43
0.0
 43
1.0
 43
0.0
 43
0.0
 43
0.0
 43
0.0
 43
1.0
 77
     0
 47
0.0008202099737533
 47
0.0
 47
0.0
 47
0.0
 47
0.0
 47
0.0008202099737533
 47
0.0
 47
0.0
 47
0.0
 47
0.0
 47
1.0
 47
0.0
 47
0.0
 47
0.0
 47
0.0
 47
1.0
171
     0
 49
0.0008202099737533
 49
0.0
 49
0.0
 49
0.0
 49
0.0
 49
0.0008202099737533
 49
0.0
 49
0.0
 49
0.0
 49
0.0
 49
1.0
 49
0.0
 49
0.0
 49
0.0
 49
0.0
 49
1.0
175
     0
142
0.0008202099737533
142
0.0
142
0.0
142
0.0
142
0.0
142
0.0008202099737533
142
0.0
142
0.0
142
0.0
142
0.0
142
1.0
142
0.0
142
0.0
142
0.0
142
0.0
142
1.0
179
     0
144
0.0008202099737533
144
0.0
144
0.0
144
0.0
144
0.0
144
0.0008202099737533
144
0.0
144
0.0
144
0.0
144
0.0
144
1.0
144
0.0
144
0.0
144
0.0
144
0.0
144
1.0
147
0.0008202099737533
147
0.0
147
0.0
147
0.0
147
0.0
147
0.0008202099737533
147
0.0
147
0.0
147
0.0
147
0.0
147
1.0
147
0.0
147
0.0
147
0.0
147
0.0
147
1.0
  0
MATERIAL
  5
14F98
102
{ACAD_XDICTIONARY
360
14F99
102
}
102
{ACAD_REACTORS
330
14F87
102
}
330
14F87
100
AcDbMaterial
  1
Global
 72
     0
 43
0.0008202099737533
 43
0.0
 43
0.0
 43
0.0
 43
0.0
 43
0.0008202099737533
 43
0.0
 43
0.0
 43
0.0
 43
0.0
 43
1.0
 43
0.0
 43
0.0
 43
0.0
 43
0.0
 43
1.0
 77
     0
 47
0.0008202099737533
 47
0.0
 47
0.0
 47
0.0
 47
0.0
 47
0.0008202099737533
 47
0.0
 47
0.0
 47
0.0
 47
0.0
 47
1.0
 47
0.0
 47
0.0
 47
0.0
 47
0.0
 47
1.0
171
     0
 49
0.0008202099737533
 49
0.0
 49
0.0
 49
0.0
 49
0.0
 49
0.0008202099737533
 49
0.0
 49
0.0
 49
0.0
 49
0.0
 49
1.0
 49
0.0
 49
0.0
 49
0.0
 49
0.0
 49
1.0
175
     0
142
0.0008202099737533
142
0.0
142
0.0
142
0.0
142
0.0
142
0.0008202099737533
142
0.0
142
0.0
142
0.0
142
0.0
142
1.0
142
0.0
142
0.0
142
0.0
142
0.0
142
1.0
179
     0
144
0.0008202099737533
144
0.0
144
0.0
144
0.0
144
0.0
144
0.0008202099737533
144
0.0
144
0.0
144
0.0
144
0.0
144
1.0
144
0.0
144
0.0
144
0.0
144
0.0
144
1.0
147
0.0008202099737533
147
0.0
147
0.0
147
0.0
147
0.0
147
0.0008202099737533
147
0.0
147
0.0
147
0.0
147
0.0
147
1.0
147
0.0
147
0.0
147
0.0
147
0.0
147
1.0
  0
MLEADERSTYLE
  5
14FCA
102
{ACAD_REACTORS
330
14FC9
102
}
330
14FC9
100
AcDbMLeaderStyle
170
     2
171
     1
172
     0
 90
        2
 40
0.0
 41
0.0
173
     1
 91
-1056964608
340
14
 92
       -2
290
     1
 42
2.0
291
     1
 43
0.36
  3
Standard
 44
4.0
300

342
11
174
     1
178
     6
175
     1
176
     0
 93
-1056964608
 45
4.0
292
     0
297
     0
 46
4.0
 94
-1056964608
 47
1.0
 49
1.0
140
1.0
293
     1
141
0.0
294
     1
177
     0
142
1.0
295
     0
296
     0
143
0.125
1001
ACAD_MLEADERVER
1070
     2
  0
MLINESTYLE
  5
18
102
{ACAD_REACTORS
330
17
102
}
330
17
100
AcDbMlineStyle
  2
STANDARD
 70
     0
  3

 62
   256
 51
90.0
 52
90.0
 71
     2
 49
0.5
 62
   256
  6
BYLAYER
 49
-0.5
 62
   256
  6
BYLAYER
  0
ACDBPLACEHOLDER
  5
F
102
{ACAD_REACTORS
330
E
102
}
330
E
  0
SCALE
  5
14FB8
102
{ACAD_REACTORS
330
14FB7
102
}
330
14FB7
100
AcDbScale
 70
     0
300
1:1
140
1.0
141
1.0
290
     1
  0
SCALE
  5
14FB9
102
{ACAD_REACTORS
330
14FB7
102
}
330
14FB7
100
AcDbScale
 70
     0
300
1:2
140
1.0
141
2.0
290
     0
  0
SCALE
  5
14FBA
102
{ACAD_REACTORS
330
14FB7
102
}
330
14FB7
100
AcDbScale
 70
     0
300
1:4
140
1.0
141
4.0
290
     0
  0
SCALE
  5
14FBB
102
{ACAD_REACTORS
330
14FB7
102
}
330
14FB7
100
AcDbScale
 70
     0
300
1:5
140
1.0
141
5.0
290
     0
  0
SCALE
  5
14FBC
102
{ACAD_REACTORS
330
14FB7
102
}
330
14FB7
100
AcDbScale
 70
     0
300
1:8
140
1.0
141
8.0
290
     0
  0
SCALE
  5
14FBD
102
{ACAD_REACTORS
330
14FB7
102
}
330
14FB7
100
AcDbScale
 70
     0
300
1:10
140
1.0
141
10.0
290
     0
  0
SCALE
  5
14FBE
102
{ACAD_REACTORS
330
14FB7
102
}
330
14FB7
100
AcDbScale
 70
     0
300
1:16
140
1.0
141
16.0
290
     0
  0
SCALE
  5
14FBF
102
{ACAD_REACTORS
330
14FB7
102
}
330
14FB7
100
AcDbScale
 70
     0
300
1:20
140
1.0
141
20.0
290
     0
  0
SCALE
  5
14FC0
102
{ACAD_REACTORS
330
14FB7
102
}
330
14FB7
100
AcDbScale
 70
     0
300
1:30
140
1.0
141
30.0
290
     0
  0
SCALE
  5
14FC1
102
{ACAD_REACTORS
330
14FB7
102
}
330
14FB7
100
AcDbScale
 70
     0
300
1:40
140
1.0
141
40.0
290
     0
  0
SCALE
  5
14FC2
102
{ACAD_REACTORS
330
14FB7
102
}
330
14FB7
100
AcDbScale
 70
     0
300
1:50
140
1.0
141
50.0
290
     0
  0
SCALE
  5
14FC3
102
{ACAD_REACTORS
330
14FB7
102
}
330
14FB7
100
AcDbScale
 70
     0
300
1:100
140
1.0
141
100.0
290
     0
  0
SCALE
  5
14FC4
102
{ACAD_REACTORS
330
14FB7
102
}
330
14FB7
100
AcDbScale
 70
     0
300
2:1
140
2.0
141
1.0
290
     0
  0
SCALE
  5
14FC5
102
{ACAD_REACTORS
330
14FB7
102
}
330
14FB7
100
AcDbScale
 70
     0
300
4:1
140
4.0
141
1.0
290
     0
  0
SCALE
  5
14FC6
102
{ACAD_REACTORS
330
14FB7
102
}
330
14FB7
100
AcDbScale
 70
     0
300
8:1
140
8.0
141
1.0
290
     0
  0
SCALE
  5
14FC7
102
{ACAD_REACTORS
330
14FB7
102
}
330
14FB7
100
AcDbScale
 70
     0
300
10:1
140
10.0
141
1.0
290
     0
  0
SCALE
  5
14FC8
102
{ACAD_REACTORS
330
14FB7
102
}
330
14FB7
100
AcDbScale
 70
     0
300
100:1
140
100.0
141
1.0
290
     0
  0
TABLESTYLE
  5
14FB6
102
{ACAD_XDICTIONARY
360
1508A
102
}
102
{ACAD_REACTORS
330
14FB5
102
}
330
14FB5
100
AcDbTableStyle
  3
Standard
 70
     0
 71
     0
 40
1.5
 41
1.5
280
     0
281
     0
  7
Standard
140
4.5
170
     2
 62
     0
 63
     7
283
     0
274
    -2
284
     1
 64
     0
275
    -2
285
     1
 65
     0
276
    -2
286
     1
 66
     0
277
    -2
287
     1
 67
     0
278
    -2
288
     1
 68
     0
279
    -2
289
     1
 69
     0
  7
Standard
140
6.0
170
     5
 62
     0
 63
     7
283
     0
274
    -2
284
     1
 64
     0
275
    -2
285
     1
 65
     0
276
    -2
286
     1
 66
     0
277
    -2
287
     1
 67
     0
278
    -2
288
     1
 68
     0
279
    -2
289
     1
 69
     0
  7
Standard
140
4.5
170
     5
 62
     0
 63
     7
283
     0
274
    -2
284
     1
 64
     0
275
    -2
285
     1
 65
     0
276
    -2
286
     1
 66
     0
277
    -2
287
     1
 67
     0
278
    -2
288
     1
 68
     0
279
    -2
289
     1
 69
     0
  0
VISUALSTYLE
  5
14FA6
102
{ACAD_XDICTIONARY
360
150A2
102
}
102
{ACAD_REACTORS
330
14FA0
102
}
330
14FA0
100
AcDbVisualStyle
  2
2dWireframe
 70
     4
 71
     0
 72
     2
 73
     0
 90
        0
 40
-0.6
 41
-30.0
 62
     5
 63
     7
 74
     1
 91
        4
 64
     7
 65
   257
 75
     1
175
     1
 42
1.0
 92
        0
 66
   257
 43
1.0
 76
     1
 77
     6
 78
     2
 67
     7
 79
     5
170
     0
171
     0
290
     0
174
     0
 93
        1
 44
0.0
173
     0
291
     0
 45
0.0
1001
ACAD
1000
AcDbSavedByObjectVersion
1070
     0
  0
VISUALSTYLE
  5
14FA8
102
{ACAD_XDICTIONARY
360
150A6
102
}
102
{ACAD_REACTORS
330
14FA0
102
}
330
14FA0
100
AcDbVisualStyle
  2
3D Hidden
 70
     6
 71
     1
 72
     2
 73
     2
 90
        0
 40
-0.6
 41
-30.0
 62
     5
 63
     7
 74
     2
 91
        2
 64
     7
 65
   257
 75
     2
175
     1
 42
179.0
 92
        0
 66
   257
 43
1.0
 76
     1
 77
     6
 78
     2
 67
     7
 79
     3
170
     0
171
     0
290
     0
174
     0
 93
        1
 44
0.0
173
     0
291
     0
 45
0.0
1001
ACAD
1000
AcDbSavedByObjectVersion
1070
     0
  0
VISUALSTYLE
  5
14FA7
102
{ACAD_XDICTIONARY
360
150A4
102
}
102
{ACAD_REACTORS
330
14FA0
102
}
330
14FA0
100
AcDbVisualStyle
  2
3dWireframe
 70
     5
 71
     0
 72
     2
 73
     0
 90
        0
 40
-0.6
 41
-30.0
 62
     5
 63
     7
 74
     1
 91
        4
 64
     7
 65
   257
 75
     1
175
     1
 42
1.0
 92
        0
 66
   257
 43
1.0
 76
     1
 77
     6
 78
     2
 67
     7
 79
     5
170
     0
171
     0
290
     0
174
     0
 93
        1
 44
0.0
173
     0
291
     0
 45
0.0
1001
ACAD
1000
AcDbSavedByObjectVersion
1070
     0
  0
VISUALSTYLE
  5
14FA5
102
{ACAD_XDICTIONARY
360
150A0
102
}
102
{ACAD_REACTORS
330
14FA0
102
}
330
14FA0
100
AcDbVisualStyle
  2
Basic
 70
     7
 71
     1
 72
     0
 73
     1
 90
        0
 40
-0.6
 41
-30.0
 62
     5
 63
     7
 74
     0
 91
        4
 64
     7
 65
   257
 75
     1
175
     1
 42
1.0
 92
        8
 66
     7
 43
1.0
 76
     1
 77
     6
 78
     2
 67
     7
 79
     5
170
     0
171
     0
290
     0
174
     0
 93
        1
 44
0.0
173
     0
291
     1
 45
0.0
1001
ACAD
1000
AcDbSavedByObjectVersion
1070
     0
  0
VISUALSTYLE
  5
14FAC
102
{ACAD_XDICTIONARY
360
150AE
102
}
102
{ACAD_REACTORS
330
14FA0
102
}
330
14FA0
100
AcDbVisualStyle
  2
Brighten
 70
    12
 71
     2
 72
     2
 73
     0
 90
        0
 40
-0.6
 41
-30.0
 62
     5
 63
     7
 74
     1
 91
        4
 64
     7
 65
   257
 75
     1
175
     1
 42
1.0
 92
        8
 66
     7
 43
1.0
 76
     1
 77
     6
 78
     2
 67
     7
 79
     5
170
     0
171
     0
290
     0
174
     0
 93
        1
 44
50.0
173
     0
291
     1
 45
0.0
1001
ACAD
1000
AcDbSavedByObjectVersion
1070
     0
  0
VISUALSTYLE
  5
14FB0
102
{ACAD_XDICTIONARY
360
150B6
102
}
102
{ACAD_REACTORS
330
14FA0
102
}
330
14FA0
100
AcDbVisualStyle
  2
ColorChange
 70
    16
 71
     2
 72
     2
 73
     3
 90
        0
 40
-0.6
 41
-30.0
 62
     5
 63
     8
 74
     1
 91
        4
 64
     7
 65
   257
 75
     1
175
     1
 42
1.0
 92
        8
 66
     8
 43
1.0
 76
     1
 77
     6
 78
     2
 67
     7
 79
     5
170
     0
171
     0
290
     0
174
     0
 93
        1
 44
0.0
173
     0
291
     1
 45
0.0
1001
ACAD
1000
AcDbSavedByObjectVersion
1070
     0
  0
VISUALSTYLE
  5
14FA9
102
{ACAD_XDICTIONARY
360
150A8
102
}
102
{ACAD_REACTORS
330
14FA0
102
}
330
14FA0
100
AcDbVisualStyle
  2
Conceptual
 70
     9
 71
     3
 72
     2
 73
     0
 90
        0
 40
-0.6
 41
-30.0
 62
     5
 63
     7
 74
     2
 91
        2
 64
     7
 65
   257
 75
     1
175
     1
 42
179.0
 92
        8
 66
     7
 43
1.0
 76
     1
 77
     6
 78
     2
 67
     7
 79
     3
170
     0
171
     0
290
     0
174
     0
 93
        1
 44
0.0
173
     0
291
     0
 45
0.0
1001
ACAD
1000
AcDbSavedByObjectVersion
1070
     0
  0
VISUALSTYLE
  5
14FAB
102
{ACAD_XDICTIONARY
360
150AC
102
}
102
{ACAD_REACTORS
330
14FA0
102
}
330
14FA0
100
AcDbVisualStyle
  2
Dim
 70
    11
 71
     2
 72
     2
 73
     0
 90
        0
 40
-0.6
 41
-30.0
 62
     5
 63
     7
 74
     1
 91
        4
 64
     7
 65
   257
 75
     1
175
     1
 42
1.0
 92
        8
 66
     7
 43
1.0
 76
     1
 77
     6
 78
     2
 67
     7
 79
     5
170
     0
171
     0
290
     0
174
     0
 93
        1
 44
-50.0
173
     0
291
     1
 45
0.0
1001
ACAD
1000
AcDbSavedByObjectVersion
1070
     0
  0
VISUALSTYLE
  5
14FB3
102
{ACAD_XDICTIONARY
360
150BC
102
}
102
{ACAD_REACTORS
330
14FA0
102
}
330
14FA0
100
AcDbVisualStyle
  2
EdgeColorOff
 70
    22
 71
     2
 72
     2
 73
     0
 90
        0
 40
-0.6
 41
-30.0
 62
     5
 63
     7
 74
     1
 91
        4
 64
     7
 65
   257
 75
     1
175
     1
 42
1.0
 92
        8
 66
     7
 43
1.0
 76
     1
 77
     6
 78
     2
 67
     7
 79
     5
170
     0
171
     0
290
     0
174
     0
 93
        1
 44
0.0
173
     0
291
     1
 45
0.0
1001
ACAD
1000
AcDbSavedByObjectVersion
1070
     0
  0
VISUALSTYLE
  5
14FAF
102
{ACAD_XDICTIONARY
360
150B4
102
}
102
{ACAD_REACTORS
330
14FA0
102
}
330
14FA0
100
AcDbVisualStyle
  2
Facepattern
 70
    15
 71
     2
 72
     2
 73
     0
 90
        0
 40
-0.6
 41
-30.0
 62
     5
 63
     7
 74
     1
 91
        4
 64
     7
 65
   257
 75
     1
175
     1
 42
1.0
 92
        8
 66
     7
 43
1.0
 76
     1
 77
     6
 78
     2
 67
     7
 79
     5
170
     0
171
     0
290
     0
174
     0
 93
        1
 44
0.0
173
     0
291
     1
 45
0.0
1001
ACAD
1000
AcDbSavedByObjectVersion
1070
     0
  0
VISUALSTYLE
  5
14FA1
102
{ACAD_XDICTIONARY
360
15098
102
}
102
{ACAD_REACTORS
330
14FA0
102
}
330
14FA0
100
AcDbVisualStyle
  2
Flat
 70
     0
 71
     2
 72
     1
 73
     1
 90
        2
 40
-0.6
 41
30.0
 62
     5
 63
     7
 74
     0
 91
        4
 64
     7
 65
   257
 75
     1
175
     1
 42
1.0
 92
        8
 66
     7
 43
1.0
 76
     1
 77
     6
 78
     2
 67
     7
 79
     5
170
     0
171
     0
290
     0
174
     0
 93
       13
 44
0.0
173
     0
291
     1
 45
0.0
1001
ACAD
1000
AcDbSavedByObjectVersion
1070
     0
  0
VISUALSTYLE
  5
14FA2
102
{ACAD_XDICTIONARY
360
1509A
102
}
102
{ACAD_REACTORS
330
14FA0
102
}
330
14FA0
100
AcDbVisualStyle
  2
FlatWithEdges
 70
     1
 71
     2
 72
     1
 73
     1
 90
        2
 40
-0.6
 41
30.0
 62
     5
 63
     7
 74
     1
 91
        4
 64
     7
 65
   257
 75
     1
175
     1
 42
1.0
 92
        0
 66
   257
 43
1.0
 76
     1
 77
     6
 78
     2
 67
     7
 79
     5
170
     0
171
     0
290
     0
174
     0
 93
       13
 44
0.0
173
     0
291
     1
 45
0.0
1001
ACAD
1000
AcDbSavedByObjectVersion
1070
     0
  0
VISUALSTYLE
  5
14FA3
102
{ACAD_XDICTIONARY
360
1509C
102
}
102
{ACAD_REACTORS
330
14FA0
102
}
330
14FA0
100
AcDbVisualStyle
  2
Gouraud
 70
     2
 71
     2
 72
     2
 73
     1
 90
        2
 40
-0.6
 41
30.0
 62
     5
 63
     7
 74
     0
 91
        4
 64
     7
 65
   257
 75
     1
175
     1
 42
1.0
 92
        0
 66
     7
 43
1.0
 76
     1
 77
     6
 78
     2
 67
     7
 79
     5
170
     0
171
     0
290
     0
174
     0
 93
       13
 44
0.0
173
     0
291
     1
 45
0.0
1001
ACAD
1000
AcDbSavedByObjectVersion
1070
     0
  0
VISUALSTYLE
  5
14FA4
102
{ACAD_XDICTIONARY
360
1509E
102
}
102
{ACAD_REACTORS
330
14FA0
102
}
330
14FA0
100
AcDbVisualStyle
  2
GouraudWithEdges
 70
     3
 71
     2
 72
     2
 73
     1
 90
        2
 40
-0.6
 41
30.0
 62
     5
 63
     7
 74
     1
 91
        4
 64
     7
 65
   257
 75
     1
175
     1
 42
1.0
 92
        0
 66
   257
 43
1.0
 76
     1
 77
     6
 78
     2
 67
     7
 79
     5
170
     0
171
     0
290
     0
174
     0
 93
       13
 44
0.0
173
     0
291
     1
 45
0.0
1001
ACAD
1000
AcDbSavedByObjectVersion
1070
     0
  0
VISUALSTYLE
  5
14FB1
102
{ACAD_XDICTIONARY
360
150B8
102
}
102
{ACAD_REACTORS
330
14FA0
102
}
330
14FA0
100
AcDbVisualStyle
  2
JitterOff
 70
    20
 71
     2
 72
     2
 73
     0
 90
        0
 40
-0.6
 41
-30.0
 62
     5
 63
     7
 74
     1
 91
        4
 64
     7
 65
   257
 75
     1
175
     1
 42
1.0
 92
       10
 66
     7
 43
1.0
 76
     1
 77
     6
 78
     2
 67
     7
 79
     5
170
     0
171
     0
290
     0
174
     0
 93
        1
 44
0.0
173
     0
291
     1
 45
0.0
1001
ACAD
1000
AcDbSavedByObjectVersion
1070
     0
  0
VISUALSTYLE
  5
14FAE
102
{ACAD_XDICTIONARY
360
150B2
102
}
102
{ACAD_REACTORS
330
14FA0
102
}
330
14FA0
100
AcDbVisualStyle
  2
Linepattern
 70
    14
 71
     2
 72
     2
 73
     0
 90
        0
 40
-0.6
 41
-30.0
 62
     5
 63
     7
 74
     1
 91
        4
 64
     7
 65
   257
 75
     7
175
     7
 42
1.0
 92
        8
 66
     7
 43
1.0
 76
     1
 77
     6
 78
     2
 67
     7
 79
     5
170
     0
171
     0
290
     0
174
     0
 93
        1
 44
0.0
173
     0
291
     1
 45
0.0
1001
ACAD
1000
AcDbSavedByObjectVersion
1070
     0
  0
VISUALSTYLE
  5
14FB2
102
{ACAD_XDICTIONARY
360
150BA
102
}
102
{ACAD_REACTORS
330
14FA0
102
}
330
14FA0
100
AcDbVisualStyle
  2
OverhangOff
 70
    21
 71
     2
 72
     2
 73
     0
 90
        0
 40
-0.6
 41
-30.0
 62
     5
 63
     7
 74
     1
 91
        4
 64
     7
 65
   257
 75
     1
175
     1
 42
1.0
 92
        9
 66
     7
 43
1.0
 76
     1
 77
     6
 78
     2
 67
     7
 79
     5
170
     0
171
     0
290
     0
174
     0
 93
        1
 44
0.0
173
     0
291
     1
 45
0.0
1001
ACAD
1000
AcDbSavedByObjectVersion
1070
     0
  0
VISUALSTYLE
  5
14FAA
102
{ACAD_XDICTIONARY
360
150AA
102
}
102
{ACAD_REACTORS
330
14FA0
102
}
330
14FA0
100
AcDbVisualStyle
  2
Realistic
 70
     8
 71
     2
 72
     2
 73
     0
 90
        0
 40
-0.6
 41
-30.0
 62
     5
 63
     7
 74
     1
 91
        0
 64
     7
 65
   257
 75
     1
175
     1
 42
1.0
 92
        8
 66
     8
 43
1.0
 76
     1
 77
     6
 78
     2
 67
     7
 79
     5
170
     0
171
     0
290
     0
174
     0
 93
       13
 44
0.0
173
     0
291
     0
 45
0.0
1001
ACAD
1000
AcDbSavedByObjectVersion
1070
     0
  0
VISUALSTYLE
  5
14FAD
102
{ACAD_XDICTIONARY
360
150B0
102
}
102
{ACAD_REACTORS
330
14FA0
102
}
330
14FA0
100
AcDbVisualStyle
  2
Thicken
 70
    13
 71
     2
 72
     2
 73
     0
 90
        0
 40
-0.6
 41
-30.0
 62
     5
 63
     7
 74
     1
 91
        4
 64
     7
 65
   257
 75
     1
175
     1
 42
1.0
 92
       12
 66
     7
 43
1.0
 76
     1
 77
     6
 78
     2
 67
     7
 79
     5
170
     0
171
     0
290
     0
174
     0
 93
        1
 44
0.0
173
     0
291
     1
 45
0.0
1001
ACAD
1000
AcDbSavedByObjectVersion
1070
     0
  0
DICTIONARYVAR
  5
1507A
102
{ACAD_REACTORS
330
14F4C
102
}
330
14F4C
100
DictionaryVariables
280
     0
  1
1:1
  0
DICTIONARYVAR
  5
15078
102
{ACAD_REACTORS
330
14F4C
102
}
330
14F4C
100
DictionaryVariables
280
     0
  1
STANDARD
  0
DICTIONARYVAR
  5
15077
102
{ACAD_REACTORS
330
14F4C
102
}
330
14F4C
100
DictionaryVariables
280
     0
  1
STANDARD
  0
DICTIONARYVAR
  5
14F4D
102
{ACAD_REACTORS
330
14F4C
102
}
330
14F4C
100
DictionaryVariables
280
     0
  1
1
  0
DICTIONARYVAR
  5
15088
102
{ACAD_REACTORS
330
14F4C
102
}
330
14F4C
100
DictionaryVariables
280
     0
  1
0
  0
DICTIONARYVAR
  5
1507C
102
{ACAD_REACTORS
330
14F4C
102
}
330
14F4C
100
DictionaryVariables
280
     0
  1
1
  0
DICTIONARYVAR
  5
1507D
102
{ACAD_REACTORS
330
14F4C
102
}
330
14F4C
100
DictionaryVariables
280
     0
  1
15
  0
DICTIONARYVAR
  5
1507B
102
{ACAD_REACTORS
330
14F4C
102
}
330
14F4C
100
DictionaryVariables
280
     0
  1
0
  0
DICTIONARYVAR
  5
15079
102
{ACAD_REACTORS
330
14F4C
102
}
330
14F4C
100
DictionaryVariables
280
     0
  1
0
  0
DICTIONARYVAR
  5
15087
102
{ACAD_REACTORS
330
14F4C
102
}
330
14F4C
100
DictionaryVariables
280
     0
  1
127
  0
DICTIONARYVAR
  5
15089
102
{ACAD_REACTORS
330
14F4C
102
}
330
14F4C
100
DictionaryVariables
280
     0
  1
2
  0
PH_DIMENTREACTOR
  5
DF87
102
{ACAD_REACTORS
330
49
102
}
330
49
  0
PH_ENTDIMREACTOR
  5
140F3
102
{ACAD_REACTORS
330
49
102
}
330
49
  0
PH_DIMENTREACTOR
  5
140F4
102
{ACAD_REACTORS
330
49
102
}
330
49
  0
PH_DIMENTREACTOR
  5
11BCB
102
{ACAD_REACTORS
330
49
102
}
330
49
  0
PH_ENTDIMREACTOR
  5
14774
102
{ACAD_REACTORS
330
49
102
}
330
49
  0
PH_ENTDIMREACTOR
  5
14775
102
{ACAD_REACTORS
330
49
102
}
330
49
  0
PH_DIMENTREACTOR
  5
14776
102
{ACAD_REACTORS
330
49
102
}
330
49
  0
PH_ENTDIMREACTOR
  5
10D55
102
{ACAD_REACTORS
330
49
102
}
330
49
  0
PH_ENTDIMREACTOR
  5
14A5A
102
{ACAD_REACTORS
330
49
102
}
330
49
  0
PH_DIMENTREACTOR
  5
14A5B
102
{ACAD_REACTORS
330
49
102
}
330
49
  0
PH_DIMENTREACTOR
  5
EE64
102
{ACAD_REACTORS
330
49
102
}
330
49
  0
PH_ENTDIMREACTOR
  5
13465
102
{ACAD_REACTORS
330
49
102
}
330
49
  0
PH_ENTDIMREACTOR
  5
10136
102
{ACAD_REACTORS
330
49
102
}
330
49
  0
PH_DIMENTREACTOR
  5
10137
102
{ACAD_REACTORS
330
49
102
}
330
49
  0
PH_ENTDIMREACTOR
  5
109AD
102
{ACAD_REACTORS
330
49
102
}
330
49
  0
PH_ENTDIMREACTOR
  5
1233C
102
{ACAD_REACTORS
330
49
102
}
330
49
  0
PH_ENTDIMREACTOR
  5
109AE
102
{ACAD_REACTORS
330
49
102
}
330
49
  0
PH_DIMENTREACTOR
  5
109AF
102
{ACAD_REACTORS
330
49
102
}
330
49
  0
PH_DIMENTREACTOR
  5
10D56
102
{ACAD_REACTORS
330
49
102
}
330
49
  0
PH_ENTDIMREACTOR
  5
1148F
102
{ACAD_REACTORS
330
49
102
}
330
49
  0
PH_ENTDIMREACTOR
  5
11490
102
{ACAD_REACTORS
330
49
102
}
330
49
  0
PH_DIMENTREACTOR
  5
11491
102
{ACAD_REACTORS
330
49
102
}
330
49
  0
PH_DIMENTREACTOR
  5
13466
102
{ACAD_REACTORS
330
49
102
}
330
49
  0
PH_ENTDIMREACTOR
  5
11BC9
102
{ACAD_REACTORS
330
49
102
}
330
49
  0
PH_ENTDIMREACTOR
  5
11BCA
102
{ACAD_REACTORS
330
49
102
}
330
49
  0
PH_ENTDIMREACTOR
  5
EE62
102
{ACAD_REACTORS
330
49
102
}
330
49
  0
PH_ENTDIMREACTOR
  5
10D54
102
{ACAD_REACTORS
330
49
102
}
330
49
  0
PH_ENTDIMREACTOR
  5
1233D
102
{ACAD_REACTORS
330
49
102
}
330
49
  0
PH_DIMENTREACTOR
  5
1233E
102
{ACAD_REACTORS
330
49
102
}
330
49
  0
PH_ENTDIMREACTOR
  5
12AB7
102
{ACAD_REACTORS
330
49
102
}
330
49
  0
PH_DIMENTREACTOR
  5
12AB8
102
{ACAD_REACTORS
330
49
102
}
330
49
  0
PH_ENTDIMREACTOR
  5
13464
102
{ACAD_REACTORS
330
49
102
}
330
49
  0
PH_ENTDIMREACTOR
  5
13AEB
102
{ACAD_REACTORS
330
49
102
}
330
49
  0
PH_ENTDIMREACTOR
  5
13AEC
102
{ACAD_REACTORS
330
49
102
}
330
49
  0
PH_DIMENTREACTOR
  5
13AED
102
{ACAD_REACTORS
330
49
102
}
330
49
  0
PH_ENTDIMREACTOR
  5
EE63
102
{ACAD_REACTORS
330
49
102
}
330
49
  0
PH_ENTDIMREACTOR
  5
140F2
102
{ACAD_REACTORS
330
49
102
}
330
49
  0
DICTIONARY
  5
424C
102
{ACAD_REACTORS
330
4A
102
}
330
4A
100
AcDbDictionary
281
     1
  3
PH_GRPMEMBERS
350
424D
  0
DICTIONARY
  5
DC5A
102
{ACAD_REACTORS
330
4A
102
}
330
4A
100
AcDbDictionary
281
     1
  3
PH_GRPMEMBERS
350
DC5B
  0
DICTIONARY
  5
424E
102
{ACAD_REACTORS
330
4A
102
}
330
4A
100
AcDbDictionary
281
     1
  3
PH_GRPMEMBERS
350
424F
  0
DICTIONARY
  5
DC6C
102
{ACAD_REACTORS
330
4A
102
}
330
4A
100
AcDbDictionary
281
     1
  3
PH_GRPMEMBERS
350
DC6D
  0
DICTIONARY
  5
14E6C
102
{ACAD_REACTORS
330
4A
102
}
330
4A
100
AcDbDictionary
281
     1
  3
$PH$AAAAs1
350
14DFD
  3
PH_GRPMEMBERS
350
14E6D
  0
DICTIONARY
  5
14F7C
102
{ACAD_REACTORS
330
4A
102
}
330
4A
100
AcDbDictionary
281
     1
  3
PH_GRPMEMBERS
350
14F7D
  0
DICTIONARY
  5
14F7F
102
{ACAD_REACTORS
330
4A
102
}
330
4A
100
AcDbDictionary
281
     1
  3
PH_GRPMEMBERS
350
14F80
  0
DICTIONARY
  5
14FD7
102
{ACAD_REACTORS
330
4A
102
}
330
4A
100
AcDbDictionary
281
     1
  3
PH_GRPMEMBERS
350
14FD8
  0
DICTIONARY
  5
1503A
102
{ACAD_REACTORS
330
4A
102
}
330
4A
100
AcDbDictionary
281
     1
  3
$PH$AAAA
350
1503B
  3
PH_GRPMEMBERS
350
1503F
  0
PH_GROUP
  5
14F7B
102
{ACAD_REACTORS
330
4A
102
}
330
4A
  0
DICTIONARY
  5
15090
330
1E
100
AcDbDictionary
280
     1
281
     1
  3
ACAD_XREC_ROUNDTRIP
360
15091
  0
DICTIONARY
  5
15093
330
26
100
AcDbDictionary
280
     1
281
     1
  3
ACAD_XREC_ROUNDTRIP
360
15094
  0
DICTIONARY
  5
15050
330
22
100
AcDbDictionary
280
     1
281
     1
  3
ACAD_XREC_ROUNDTRIP
360
15092
  3
ADSK_XREC_LAYOUTTHUMBNAIL
360
15051
  0
DICTIONARY
  5
14F91
330
14F90
100
AcDbDictionary
280
     1
281
     1
  3
ACAD_XREC_ROUNDTRIP
360
15096
  3
BUMPTILE
360
14F93
  3
DIFFUSETILE
360
14F92
  3
OPACITYTILE
360
14F96
  3
REFLECTIONTILE
360
14F95
  3
REFRACTIONTILE
360
14F97
  3
SPECULARTILE
360
14F94
  0
DICTIONARY
  5
14F89
330
14F88
100
AcDbDictionary
280
     1
281
     1
  3
ACAD_XREC_ROUNDTRIP
360
15095
  3
BUMPTILE
360
14F8B
  3
DIFFUSETILE
360
14F8A
  3
OPACITYTILE
360
14F8E
  3
REFLECTIONTILE
360
14F8D
  3
REFRACTIONTILE
360
14F8F
  3
SPECULARTILE
360
14F8C
  0
DICTIONARY
  5
14F99
330
14F98
100
AcDbDictionary
280
     1
281
     1
  3
ACAD_XREC_ROUNDTRIP
360
15097
  3
BUMPTILE
360
14F9B
  3
DIFFUSETILE
360
14F9A
  3
OPACITYTILE
360
14F9E
  3
REFLECTIONTILE
360
14F9D
  3
REFRACTIONTILE
360
14F9F
  3
SPECULARTILE
360
14F9C
  0
DICTIONARY
  5
1508A
330
14FB6
100
AcDbDictionary
280
     1
281
     1
  3
ACAD_ROUNDTRIP_2008_TABLESTYLE_CELLSTYLEMAP
360
1508B
  3
ACAD_XREC_ROUNDTRIP
360
150BE
  0
DICTIONARY
  5
150A2
330
14FA6
100
AcDbDictionary
280
     1
281
     1
  3
ACAD_XREC_ROUNDTRIP
360
150A3
  0
DICTIONARY
  5
150A6
330
14FA8
100
AcDbDictionary
280
     1
281
     1
  3
ACAD_XREC_ROUNDTRIP
360
150A7
  0
DICTIONARY
  5
150A4
330
14FA7
100
AcDbDictionary
280
     1
281
     1
  3
ACAD_XREC_ROUNDTRIP
360
150A5
  0
DICTIONARY
  5
150A0
330
14FA5
100
AcDbDictionary
280
     1
281
     1
  3
ACAD_XREC_ROUNDTRIP
360
150A1
  0
DICTIONARY
  5
150AE
330
14FAC
100
AcDbDictionary
280
     1
281
     1
  3
ACAD_XREC_ROUNDTRIP
360
150AF
  0
DICTIONARY
  5
150B6
330
14FB0
100
AcDbDictionary
280
     1
281
     1
  3
ACAD_XREC_ROUNDTRIP
360
150B7
  0
DICTIONARY
  5
150A8
330
14FA9
100
AcDbDictionary
280
     1
281
     1
  3
ACAD_XREC_ROUNDTRIP
360
150A9
  0
DICTIONARY
  5
150AC
330
14FAB
100
AcDbDictionary
280
     1
281
     1
  3
ACAD_XREC_ROUNDTRIP
360
150AD
  0
DICTIONARY
  5
150BC
330
14FB3
100
AcDbDictionary
280
     1
281
     1
  3
ACAD_XREC_ROUNDTRIP
360
150BD
  0
DICTIONARY
  5
150B4
330
14FAF
100
AcDbDictionary
280
     1
281
     1
  3
ACAD_XREC_ROUNDTRIP
360
150B5
  0
DICTIONARY
  5
15098
330
14FA1
100
AcDbDictionary
280
     1
281
     1
  3
ACAD_XREC_ROUNDTRIP
360
15099
  0
DICTIONARY
  5
1509A
330
14FA2
100
AcDbDictionary
280
     1
281
     1
  3
ACAD_XREC_ROUNDTRIP
360
1509B
  0
DICTIONARY
  5
1509C
330
14FA3
100
AcDbDictionary
280
     1
281
     1
  3
ACAD_XREC_ROUNDTRIP
360
1509D
  0
DICTIONARY
  5
1509E
330
14FA4
100
AcDbDictionary
280
     1
281
     1
  3
ACAD_XREC_ROUNDTRIP
360
1509F
  0
DICTIONARY
  5
150B8
330
14FB1
100
AcDbDictionary
280
     1
281
     1
  3
ACAD_XREC_ROUNDTRIP
360
150B9
  0
DICTIONARY
  5
150B2
330
14FAE
100
AcDbDictionary
280
     1
281
     1
  3
ACAD_XREC_ROUNDTRIP
360
150B3
  0
DICTIONARY
  5
150BA
330
14FB2
100
AcDbDictionary
280
     1
281
     1
  3
ACAD_XREC_ROUNDTRIP
360
150BB
  0
DICTIONARY
  5
150AA
330
14FAA
100
AcDbDictionary
280
     1
281
     1
  3
ACAD_XREC_ROUNDTRIP
360
150AB
  0
DICTIONARY
  5
150B0
330
14FAD
100
AcDbDictionary
280
     1
281
     1
  3
ACAD_XREC_ROUNDTRIP
360
150B1
  0
PH_GROUP
  5
424D
102
{ACAD_REACTORS
330
424C
102
}
330
424C
  0
PH_GROUP
  5
DC5B
102
{ACAD_REACTORS
330
DC5A
102
}
330
DC5A
  0
PH_GROUP
  5
424F
102
{ACAD_REACTORS
330
424E
102
}
330
424E
  0
PH_GROUP
  5
DC6D
102
{ACAD_REACTORS
330
DC6C
102
}
330
DC6C
  0
DICTIONARY
  5
14DFD
102
{ACAD_REACTORS
330
14E6C
102
}
330
14E6C
100
AcDbDictionary
281
     1
  3
PH_GRPMEMBERS
350
14DFE
  0
PH_GROUP
  5
14E6D
102
{ACAD_REACTORS
330
14E6C
102
}
330
14E6C
  0
PH_GROUP
  5
14F7D
102
{ACAD_REACTORS
330
14F7C
102
}
330
14F7C
  0
PH_GROUP
  5
14F80
102
{ACAD_REACTORS
330
14F7F
102
}
330
14F7F
  0
PH_GROUP
  5
14FD8
102
{ACAD_REACTORS
330
14FD7
102
}
330
14FD7
  0
DICTIONARY
  5
1503B
102
{ACAD_REACTORS
330
1503A
102
}
330
1503A
100
AcDbDictionary
281
     1
  3
$PH$AAAA
350
1503C
  3
PH_GRPMEMBERS
350
1503E
  0
PH_GROUP
  5
1503F
102
{ACAD_REACTORS
330
1503A
102
}
330
1503A
  0
XRECORD
  5
15091
102
{ACAD_REACTORS
330
15090
102
}
330
15090
100
AcDbXrecord
280
     1
102
SHADEPLOT
 70
     0
102
SHADEPLOTRESLEVEL
 70
     2
102
SHADEPLOTCUSTOMDPI
 70
   300
  0
XRECORD
  5
15094
102
{ACAD_REACTORS
330
15093
102
}
330
15093
100
AcDbXrecord
280
     1
102
SHADEPLOT
 70
     0
102
SHADEPLOTRESLEVEL
 70
     2
102
SHADEPLOTCUSTOMDPI
 70
   300
  0
XRECORD
  5
15092
102
{ACAD_REACTORS
330
15050
102
}
330
15050
100
AcDbXrecord
280
     1
102
SHADEPLOT
 70
     0
102
SHADEPLOTRESLEVEL
 70
     2
102
SHADEPLOTCUSTOMDPI
 70
   300
  0
XRECORD
  5
15051
102
{ACAD_REACTORS
330
15050
102
}
330
15050
100
AcDbXrecord
280
     1
310
28000000000100008D0000000100080000000000008D000000000000000000000001000000000000F0FCFE0000000000FFFFFF000000000000000000000000000000000000000000000000000000000000000000330000006600000099000000CC000000FF00000000330000333300006633000099330000CC330000FF3300
310
0000660000336600006666000099660000CC660000FF66000000990000339900006699000099990000CC990000FF99000000CC000033CC000066CC000099CC0000CCCC0000FFCC000000FF000033FF000066FF000099FF0000CCFF0000FFFF000000003300330033006600330099003300CC003300FF003300003333003333
310
33006633330099333300CC333300FF33330000663300336633006666330099663300CC663300FF66330000993300339933006699330099993300CC993300FF99330000CC330033CC330066CC330099CC3300CCCC3300FFCC330000FF330033FF330066FF330099FF3300CCFF3300FFFF330000006600330066006600660099
310
006600CC006600FF00660000336600333366006633660099336600CC336600FF33660000666600336666006666660099666600CC666600FF66660000996600339966006699660099996600CC996600FF99660000CC660033CC660066CC660099CC6600CCCC6600FFCC660000FF660033FF660066FF660099FF6600CCFF6600
310
FFFF660000009900330099006600990099009900CC009900FF00990000339900333399006633990099339900CC339900FF33990000669900336699006666990099669900CC669900FF66990000999900339999006699990099999900CC999900FF99990000CC990033CC990066CC990099CC9900CCCC9900FFCC990000FF99
310
0033FF990066FF990099FF9900CCFF9900FFFF99000000CC003300CC006600CC009900CC00CC00CC00FF00CC000033CC003333CC006633CC009933CC00CC33CC00FF33CC000066CC003366CC006666CC009966CC00CC66CC00FF66CC000099CC003399CC006699CC009999CC00CC99CC00FF99CC0000CCCC0033CCCC0066CC
310
CC0099CCCC00CCCCCC00FFCCCC0000FFCC0033FFCC0066FFCC0099FFCC00CCFFCC00FFFFCC000000FF003300FF006600FF009900FF00CC00FF00FF00FF000033FF003333FF006633FF009933FF00CC33FF00FF33FF000066FF003366FF006666FF009966FF00CC66FF00FF66FF000099FF003399FF006699FF009999FF00CC
310
99FF00FF99FF0000CCFF0033CCFF0066CCFF0099CCFF00CCCCFF00FFCCFF0000FFFF0033FFFF0066FFFF0099FFFF00CCFFFF00FFFFFF00000000000D0D0D001A1A1A00282828003535350043434300505050005D5D5D006B6B6B00787878008686860093939300A1A1A100AEAEAE00BBBBBB00C9C9C900D6D6D600E4E4E400
310
F1F1F100FFFFFF0000000000000000000000000000000000000000000000000000000000000000000000000000000000E1E1E1E1E1E1E1E1E1E1E1E1E1E1E1E1E1E1E1E1E1E1E1E1E1E1E1E1E1E1E1E1E1E1E1E1E1E1E1E1E1E1E1E1E1E1E1E1E1E1E1E1E1E1E1E1E1E1E1E1E1E1E1E1E1E1E1E1E1E1E1E1E1E1E1E1E1E1E1
310
E1E1E1E1E1E1E1E1E1E1E1E1E1E1E1E1E1E1E1E1E1E1E1E1E1E1E1E1E1E1E1E1E1E1E1E1E1E1E1E1E1E1E1E1E1E1E1E1E1E1E1E1E1E1E1E1E1E1E1E1E1E1E1E1E1E1E1E1E1E1E1E1E1E1E1E1E1E1E1E1E1E1E1E1E1E1E1E1E1E1E1E1E1E1E1E1E1E1E1E1E1E1E1E1E1E1E1E1E1E1E1E1E1E1E1E1E1E1E1E1E1E1E1E1E1E1E1
310
E1E1E1E1E1E1E1E1E1E1E1E1E1E1E1E1E1E1E1E1E1E1E1E1E1E1E1E1E1E1E1E1E1E1E1E1E1E1E1E1E1E1E1E1E1E1E1E1E1E1E1E1E1E1E1E1E1E1E1E1E1E1E1E1E1E1E1E1E1E1E1E1E1E1E1E1E1E1E1E1E1E1E1E1E1E1E1E1E1E1E1E1E1E1E1E1E1E1E1E1E1E1E1E1E1E1E1E1E1E1E1E1E1E1E1E1E1E1E1E1E1E1E1E1E1E1E1
310
E1BEBEBEBEBEBEBEBEBEBEBEBEBEBEBEBEBEBEBEBEBEBEBEBEBEBEBEBEBEBEBEBEBEBEBEBEBEBEBEBEBEBEBEBEBEBEBEBEBEBEBEBEBEBEBEBEBEBEBEBEBEBEBEBEBEBEBEBEBEBEBEBEBEBEBEBEBEBEBEBEBEBEBEBEBEBEBEBEBEBEBEBEBEBEBEBEBEBEBEBEE1E1E1E1E1E1E1E1E1E1E1E1E1E1E1E1E1E1E1E1E1E1E1E1E1E1
310
E1E1E1E1E1E1E1E1E1E1E1E1E1E1E1E1E1E1E1E1E1E1E1E1E1E1E1E1E1E1E1E1E1E1E1E1E1E1E1E1E1E1E1E1E1E1E1E1E1E1E1E1E1E1E1E1E1E1E1E1E1E1E1E1E1E1E1E1E1E1E1E1E1E1E1E1E1E1E1E1E1E1E1E1E1E1E1E1E1E1E1E1E1E1E1E1E1E1E1E1E1E1E1E1E1E1E1E1E1E1E1E1E1E1E1E1E1E1E1E1E1E1E1E1E1E1E1
310
E1E1E1BEE1E1E1E1E1E1E1E1282828282828282828282828282828282828282828282828282828282828282828282828282828280F282828282828282828282828282828282828282828282828282828282828282828282828282828282828282828282828E1BEE1E1E1E1E1E1E1E1E1E1E1E1E1E1E1E1E1E1E1E1E1E1E1E1
310
E1E1E1E1E1E1E1E1E1E1E1E1E1E1E1E1E1E1E1E1E1E1E1E1E1E1E1E1E1E1E1E1E1E1E1E1E1E1E1E1E1E1E1E1E1E1E1E1E1E1E1E1E1E1E1E1E1E1E1E1E1E1E1E1E1E1E1E1E1E1E1E1E1E1E1E1E1E1E1E1E1E1E1E1E1E1E1E1E1E1E1E1E1E1E1E1E1E1E1E1E1E1E1E1E1E1E1E1E1E1E1E1E1E1E1E1E1E1E1E1E1E1E1E1E1E1E1
310
E1E1E1E1E1BEE1E1E1E1E1E1E1E128E1E1E1E1E1E1E1E1E1E1E1E1E1E1E1E1E1E1E1E1E1E1E1E1E1E1E1E1E1E1E1E1E1E1E1E1E1E1E10F0F0F0F0F0F0FE10F0F0F0F0F0F0F0F0F0F0F0F0F0F0FE1E1E1E1E1E1E1E1E1E1E1E1E1E1E1E1E1E1E1E1E1E1E1E1E128E1BEE1E1E1E1E1E1E1E1E1E1E1E1E1E1E1E1E1E1E1E1E1E1
310
E1E1E1E1E1E1E1E1E1E1E1E1E1E1E1E1E1E1E1E1E1E1E1E1E1E1E1E1E1E1E1E1E1E1E1E1E1E1E1E1E1E1E1E1E1E1E1E1E1E1E1E1E1E1E1E1E1E1E1E1E1E1E1E1E1E1E1E1E1E1E1E1E1E1E1E1E1E1E1E1E1E1E1E1E1E1E1E1E1E1E1E1E1E1E1E1E1E1E1E1E1E1E1E1E1E1E1E1E1E1E1E1E1E1E1E1E1E1E1E1E1E1E1E1E1E1E1
310
E1E1E1E1E1E1E1BEE1E1E1E1E1E1E1E128E1E1E1E1E1E1E1E1E1E1E1E1E1E1E1E1E1E1E1E1E1E1E1E1E1E1E1E1E1E1E1E1E1E1E1E1E1E1E10F0F0F0F0F0F0F0F0F0F0F0F0F0F0F0F0F0F0F0F0F0F0FE1E1E1E1E1E1E1E1E1E1E1E1E1E1E1E1E1E1E1E1E1E1E1E1E128E1BEE1E1E1E1E1E1E1E1E1E1E1E1E1E1E1E1E1E1E1E1
310
E1E1E1E1E1E1E1E1E1E1E1E1E1E1E1E1E1E1E1E1E1E1E1E1E1E1E1E1E1E1E1E1E1E1E1E1E1E1E1E1E1E1E1E1E1E1E1E1E1E1E1E1E1E1E1E1E1E1E1E1E1E1E1E1E1E1E1E1E1E1E1E1E1E1E1E1E1E1E1E1E1E1E1E1E1E1E1E1E1E1E1E1E1E1E1E1E1E1E1E1E1E1E1E1E1E1E1E1E1E1E1E1E1E1E1E1E1E1E1E1E1E1E1E1E1E1E1
310
E1E1E1E1E1E1E1E1E1BEE1E1E1E1E1E1E1E128E1E1E1E1E1E1E1E1E1E1E1E1E1E1E1E1E1E1E1E1E1E1E1E1E1E1E1E1E1E1E1E1E1E1E1E1E1E1E10F0F0F0F0F0FE1E1E1E1E1E1E10F0F0F0F0F0F0F0F0FE1E1E1E1E1E1E1E1E1E1E1E1E1E1E1E1E1E1E1E1E1E1E1E1E1E128E1BEE1E1E1E1E1E1E1E1E1E1E1E1E1E1E1E1E1E1
310
E1E1E1E1E1E1E1E1E1E1E1E1E1E1E1E1E1E1E1E1E1E1E1E1E1E1E1E1E1E1E1E1E1E1E1E1E1E1E1E1E1E1E1E1E1E1E1E1E1E1E1E1E1E1E1E1E1E1E1E1E1E1E1E1E1E1E1E1E1E1E1E1E1E1E1E1E1E1E1E1E1E1E1E1E1E1E1E1E1E1E1E1E1E1E1E1E1E1E1E1E1E1E1E1E1E1E1E1E1E1E1E1E1E1E1E1E1E1E1E1E1E1E1E1E1E1E1
310
E1E1E1E1E1E1E1E1E1E1E1BEE1E1E1E1E1E1E1E128E1E1E1E1E1E1E1E1E1E1E1E1E1E1E1E1E1E1E1E1E1E1E1E1E1E1E1E1E1E1E1E1E1E1E1E1E1E1E10F0F0F0F0F0FE1E1E1E1E1E1E10F0F0F0F0F0F0F0F0FE1E1E1E1E1E1E1E1E1E1E1E1E1E1E1E1E1E1E1E1E1E1E1E1E1E128E1BEE1E1E1E1E1E1E1E1E1E1E1E1E1E1E1E1
310
E1E1E1E1E1E1E1E1E1E1E1E1E1E1E1E1E1E1E1E1E1E1E1E1E1E1E1E1E1E1E1E1E1E1E1E1E1E1E1E1E1E1E1E1E1E1E1E1E1E1E1E1E1E1E1E1E1E1E1E1E1E1E1E1E1E1E1E1E1E1E1E1E1E1E1E1E1E1E1E1E1E1E1E1E1E1E1E1E1E1E1E1E1E1E1E1E1E1E1E1E1E1E1E1E1E1E1E1E1E1E1E1E1E1E1E1E1E1E1E1E1E1E1E1E1E1E1
310
E1E1E1E1E1E1E1E1E1E1E1E1E1BEE1E1E1E1E1E1E1E128E1E1E1E1E1E1E1E1E1E1E1E1E1E1E1E1E1E1E1E1E1E1E1E1E1E1E1E1E1E1E1E1E1E1E1E1E1E1E10F0F0F0F0F0F0FBE0F0F0F0F0F0F0F0F0F0F0F0F0F0F0F0F0F0F0F0F0F0F0F0F0F0F0F0F0F0F0F0F0F0F0F0F0F0F0F0F0FE1BEE1E1E1E1E1E1E1E1E1E1E1E1E1E1
310
E1E1E1E1E1E1E1E1E1E1E1E1E1E1E1E1E1E1E1E1E1E1E1E1E1E1E1E1E1E1E1E1E1E1E1E1E1E1E1E1E1E1E1E1E1E1E1E1E1E1E1E1E1E1E1E1E1E1E1E1E1E1E1E1E1E1E1E1E1E1E1E1E1E1E1E1E1E1E1E1E1E1E1E1E1E1E1E1E1E1E1E1E1E1E1E1E1E1E1E1E1E1E1E1E1E1E1E1E1E1E1E1E1E1E1E1E1E1E1E1E1E1E1E1E1E1E1
310
E1E1E1E1E1E1E1E1E1E1E1E1E1E1E1BEE1E1E1E1E1E1E1E128E1E1E1E1E1E1E1E1E1E1E1E1E1E1E1E1E1E1E1E1E1E1E1E1E1E1E1E1E1E1E1E1E1E1E1E1E1E1E10FBEBEBEBEBEBEBEBEBEBEBEE1E1E1E1E10FE1E1E1E1E1E1E1E1E1E1E1E1E1E1BEBEBEBEBEBEBEBEBEBEBEBEBEBEBEE128E1BEE1E1E1E1E1E1E1E1E1E1E1E1
310
E1E1E1E1E1E1E1E1E1E1E1E1E1E1E1E1E1E1E1E1E1E1E1E1E1E1E1E1E1E1E1E1E1E1E1E1E1E1E1E1E1E1E1E1E1E1E1E1E1E1E1E1E1E1E1E1E1E1E1E1E1E1E1E1E1E1E1E1E1E1E1E1E1E1E1E1E1E1E1E1E1E1E1E1E1E1E1E1E1E1E1E1E1E1E1E1E1E1E1E1E1E1E1E1E1E1E1E1E1E1E1E1E1E1E1E1E1E1E1E1E1E1E1E1E1E1E1
310
E1E1E1E1E1E1E1E1E1E1E1E1E1E1E1E1E1BEE1E1E1E1E1E1E1E128E1E1E1E1E1E1E1E1E1E1E1E1E1E1E1E1E1E1E1E1E1E1E1E1E1E1E1E1E1E1E1E1E1E1E1E1E1E1E10FBEBEBEBEE1E1BEBEBEBEBEBEE1E1E1E10FE1E1E1E1E1E1E1E1E1E1E1E1E1E1BEBEBEBEBEBEBEBEBEBEBEBEBEBEBEE128E1BEE1E1E1E1E1E1E1E1E1E1
310
E1E1E1E1E1E1E1E1E1E1E1E1E1E1E1E1E1E1E1E1E1E1E1E1E1E1E1E1E1E1E1E1E1E1E1E1E1E1E1E1E1E1E1E1E1E1E1E1E1E1E1E1E1E1E1E1E1E1E1E1E1E1E1E1E1E1E1E1E1E1E1E1E1E1E1E1E1E1E1E1E1E1E1E1E1E1E1E1E1E1E1E1E1E1E1E1E1E1E1E1E1E1E1E1E1E1E1E1E1E1E1E1E1E1E1E1E1E1E1E1E1E1E1E1E1E1E1
310
E1E1E1E1E1E1E1E1E1E1E1E1E1E1E1E1E1E1E1BEE1E1E1E1E1E1E1E128E1E1E1E1E1E1E1E1E1E1E1E1E1E1E1E1E1E1E1E1E1E1E1E1E1E1E1E1E1E1E1E1E1E1E1E1E1E1E10FBEBEBEBEBEBEBEBEBEBEBEBEBEBEBEBEBEE1E1E1E1E1E1E1E1E1E1E1E1E1E1E1E1E1E1E1E1E2E2E2E2E2E2E2E2E2E128E1BEE1E1E1E1E1E1E1E1
310
E1E1E1E1E1E1E1E1E1E1E1E1E1E1E1E1E1E1E1E1E1E1E1E1E1E1E1E1E1E1E1E1E1E1E1E1E1E1E1E1E1E1E1E1E1E1E1E1E1E1E1E1E1E1E1E1E1E1E1E1E1E1E1E1E1E1E1E1E1E1E1E1E1E1E1E1E1E1E1E1E1E1E1E1E1E1E1E1E1E1E1E1E1E1E1E1E1E1E1E1E1E1E1E1E1E1E1E1E1E1E1E1E1E1E1E1E1E1E1E1E1E1E1E1E1E1E1
310
E1E1E1E1E1E1E1E1E1E1E1E1E1E1E1E1E1E1E1E1E1BEE1E1E1E1E1E1E1E128E1E1E1E1E1E1E1E1E1E1E1E1E1E1E1E1E1E1E1E1E1E1E1E1E1E1E1E1E1E1E1E1E1E1E1E1E1E1E10FBEBEBEBEBEE1BEBEBEBEBEBEBEE1E1E10FE1E1E1E1E1E1E1E1E1E1E1E1E1E1E1E1E1E1E1E1E2E2E2E2E2E2E2E2E2E128E1BEE1E1E1E1E1E1
310
E1E1E1E1E1E1E1E1E1E1E1E1E1E1E1E1E1E1E1E1E1E1E1E1E1E1E1E1E1E1E1E1E1E1E1E1E1E1E1E1E1E1E1E1E1E1E1E1E1E1E1E1E1E1E1E1E1E1E1E1E1E1E1E1E1E1E1E1E1E1E1E1E1E1E1E1E1E1E1E1E1E1E1E1E1E1E1E1E1E1E1E1E1E1E1E1E1E1E1E1E1E1E1E1E1E1E1E1E1E1E1E1E1E1E1E1E1E1E1E1E1E1E1E1E1E1E1
310
E1E1E1E1E1E1E1E1E1E1E1E1E1E1E1E1E1E1E1E1E1E1E1BEE1E1E1E1E1E1E1E128E1E1E1E1E1E1E1E1E1E1E1E1E1E1E1E1E1E1E1E1E1E1E1E1E1E1E1E1E1E1E1E1E1E1E1E1E1E1E10FBEBEBEBEBEE1BEBEBEBEBEBEBEE1E1E10FE1E1E1E1E1E1E1E1E1E1E1E1E1E1E1E1E1E1E1E1E1E1E1E1E1E1E1E1E1E128E1BEE1E1E1E1
310
E1E1E1E1E1E1E1E1E1E1E1E1E1E1E1E1E1E1E1E1E1E1E1E1E1E1E1E1E1E1E1E1E1E1E1E1E1E1E1E1E1E1E1E1E1E1E1E1E1E1E1E1E1E1E1E1E1E1E1E1E1E1E1E1E1E1E1E1E1E1E1E1E1E1E1E1E1E1E1E1E1E1E1E1E1E1E1E1E1E1E1E1E1E1E1E1E1E1E1E1E1E1E1E1E1E1E1E1E1E1E1E1E1E1E1E1E1E1E1E1E1E1E1E1E1E1E1
310
E1E1E1E1E1E1E1E1E1E1E1E1E1E1E1E1E1E1E1E1E1E1E1E1E1BEE1E1E1E1E1E1E1E128E1E1E1E1E1E1E1E1E1E1E1E1E1E1E1E1E1E1E1E1E1E1E1E1E1E1E1E1E1E1E1E1E1E1E1E1E1E1E10FBEBEE1E1E1E1BEBEE1E1E1E1E1E1E1E10FE1E1E1E1E1E1E1E1E1E1E1E1E1E1E1E1E1E1E1E1E1BEBEE2E2E2E2E2E2E228E1BEE1E1
310
E1E1E1E1E1E1E1E1E1E1E1E1E1E1E1E1E1E1E1E1E1E1E1E1E1E1E1E1E1E1E1E1E1E1E1E1E1E1E1E1E1E1E1E1E1E1E1E1E1E1E1E1E1E1E1E1E1E1E1E1E1E1E1E1E1E1E1E1E1E1E1E1E1E1E1E1E1E1E1E1E1E1E1E1E1E1E1E1E1E1E1E1E1E1E1E1E1E1E1E1E1E1E1E1E1E1E1E1E1E1E1E1E1E1E1E1E1E1E1E1E1E1E1E1E1E1E1
310
E1E1E1E1E1E1E1E1E1E1E1E1E1E1E1E1E1E1E1E1E1E1E1E1E1E1E1BEE1E1E1E1E1E1E1E128E1E1E1E1E1E1E1E1E1E1E1E1E1E1E1E1E1E1E1E1E1E1E1E1E1E1E1E1E1E1E1E1E1E1E1E1E1E1E10FE1E1E1E1E1E1BEE1E1E1E1E1E1E1E1E10FE1E1E1E1E1E1E1E1E1E1E1E1E1E1E1E1E1E1E1E1E1BEBEBEE2BEE2E2BEE228E1BE
310
E1E1E1E1E1E1E1E1E1E1E1E1E1E1E1E1E1E1E1E1E1E1E1E1E1E1E1E1E1E1E1E1E1E1E1E1E1E1E1E1E1E1E1E1E1E1E1E1E1E1E1E1E1E1E1E1E1E1E1E1E1E1E1E1E1E1E1E1E1E1E1E1E1E1E1E1E1E1E1E1E1E1E1E1E1E1E1E1E1E1E1E1E1E1E1E1E1E1E1E1E1E1E1E1E1E1E1E1E1E1E1E1E1E1E1E1E1E1E1E1E1E1E1E1E1E1E1
310
E1E1E1E1E1E1E1E1E1E1E1E1E1E1E1E1E1E1E1E1E1E1E1E1E1E1E1E1E1BEE1E1E1E1E1E1E1E128E1E1E1E1E1E1E1E1E1E1E1E1E1E1E1E1E1E1E1E1E1E1E1E1E1E1E1E1E1E1E1E1E1E1E1E1E1E1E10FBEBEE1E1E1E1BEBEE1E1E1E1E1E1E1E10FE1E1E1E1E1E1E1E1E1E1E1E1E1E1E1E1E1E1E1E1E1BEBEBEBEE2E2BEE2E228
310
E1BEE1E1E1E1E1E1E1E1E1E1E1E1E1E1E1E1E1E1E1E1E1E1E1E1E1E1E1E1E1E1E1E1E1E1E1E1E1E1E1E1E1E1E1E1E1E1E1E1E1E1E1E1E1E1E1E1E1E1E1E1E1E1E1E1E1E1E1E1E1E1E1E1E1E1E1E1E1E1E1E1E1E1E1E1E1E1E1E1E1E1E1E1E1E1E1E1E1E1E1E1E1E1E1E1E1E1E1E1E1E1E1E1E1E1E1E1E1E1E1E1E1E1E1E1E1
310
E1E1E1E1E1E1E1E1E1E1E1E1E1E1E1E1E1E1E1E1E1E1E1E1E1E1E1E1E1E1E1BEE1E1E1E1E1E1E1E128E1E1E1E1E1E1E1E1E1E1E1E1E1E1E1E1E1E1E1E1E1E1E1E1E1E1E1E1E1E1E1E1E1E1E1E1E1E1E10FBEBEE1E1E1E1BEBEE1E1E1E1E1E1E1E10FE1E1E1E1E1E1E1E1E1E1E1E1E1E1E1E1E1E1E1E1E1BEBEBEBEE2E2E1E2
310
E228E1BEE1E1E1E1E1E1E1E1E1E1E1E1E1E1E1E1E1E1E1E1E1E1E1E1E1E1E1E1E1E1E1E1E1E1E1E1E1E1E1E1E1E1E1E1E1E1E1E1E1E1E1E1E1E1E1E1E1E1E1E1E1E1E1E1E1E1E1E1E1E1E1E1E1E1E1E1E1E1E1E1E1E1E1E1E1E1E1E1E1E1E1E1E1E1E1E1E1E1E1E1E1E1E1E1E1E1E1E1E1E1E1E1E1E1E1E1E1E1E1E1E1E1E1
310
E1E1E1E1E1E1E1E1E1E1E1E1E1E1E1E1E1E1E1E1E1E1E1E1E1E1E1E1E1E1E1E1E1BEE1E1E1E1E1E1E1E128E1E1E1E1E1E1E1E1E1E1E1E1E1E1E1E1E1E1E1E1E1E1E1E1E1E1E1E1E1E1E1E1E1E1E1E1E1E1E10FBEBEE1E1E1E1BEBEE1E1E1E1E1E1E1E10FE1E1E1E1E1E1E1E1E1E1E1E1E1E1E1E1E1E1E1E1E1E1BEBEBEE1E2
310
E1E1E228E1BEE1E1E1E1E1E1E1E1E1E1E1E1E1E1E1E1E1E1E1E1E1E1E1E1E1E1E1E1E1E1E1E1E1E1E1E1E1E1E1E1E1E1E1E1E1E1E1E1E1E1E1E1E1E1E1E1E1E1E1E1E1E1E1E1E1E1E1E1E1E1E1E1E1E1E1E1E1E1E1E1E1E1E1E1E1E1E1E1E1E1E1E1E1E1E1E1E1E1E1E1E1E1E1E1E1E1E1E1E1E1E1E1E1E1E1E1E1E1E1E1E1
310
E1E1E1E1E1E1E1E1E1E1E1E1E1E1E1E1E1E1E1E1E1E1E1E1E1E1E1E1E1E1E1E1E1E1E1BEE1E1E1E1E1E1E1E128E1E1E1E1E1E1E1E1E1E1E1E1E1E1E1E1E1E1E1E1E1E1E1E1E1E1E1E1E1E1E1E1E1E1E1E1E1E1E10FBEBEE1E1E1E1BEBEE1E1E1E1E1E1E1E10FE1E1E1E1E1E1E1E1E1E1E1E1E1E1E1E1E1E1E1E1E1E1E1E1E1
310
E1E1E1E1E128E1BEE1E1E1E1E1E1E1E1E1E1E1E1E1E1E1E1E1E1E1E1E1E1E1E1E1E1E1E1E1E1E1E1E1E1E1E1E1E1E1E1E1E1E1E1E1E1E1E1E1E1E1E1E1E1E1E1E1E1E1E1E1E1E1E1E1E1E1E1E1E1E1E1E1E1E1E1E1E1E1E1E1E1E1E1E1E1E1E1E1E1E1E1E1E1E1E1E1E1E1E1E1E1E1E1E1E1E1E1E1E1E1E1E1E1E1E1E1E1E1
310
E1E1E1E1E1E1E1E1E1E1E1E1E1E1E1E1E1E1E1E1E1E1E1E1E1E1E1E1E1E1E1E1E1E1E1E1E1BEE1E1E1E1E1E1E1E128E1E1E1E1E1E1E1E1E1E1E1E1E1E1E1E1E1E1E1E1E1E1E1E1E1E1E1E1E1E1E1E1E1E1E1E1E1E1E10FBEBEE1E1E1E1BEBEE1E1E1E1E1E1E1E10FE1E1E1E1E1E1E1E1E1E1E1E1E1E1E1E1E1E1E1E1E1E1E1
310
E1E1E1E1E1E1E128E1BEE1E1E1E1E1E1E1E1E1E1E1E1E1E1E1E1E1E1E1E1E1E1E1E1E1E1E1E1E1E1E1E1E1E1E1E1E1E1E1E1E1E1E1E1E1E1E1E1E1E1E1E1E1E1E1E1E1E1E1E1E1E1E1E1E1E1E1E1E1E1E1E1E1E1E1E1E1E1E1E1E1E1E1E1E1E1E1E1E1E1E1E1E1E1E1E1E1E1E1E1E1E1E1E1E1E1E1E1E1E1E1E1E1E1E1E1E1
310
E1E1E1E1E1E1E1E1E1E1E1E1E1E1E1E1E1E1E1E1E1E1E1E1E1E1E1E1E1E1E1E1E1E1E1E1E1E1E1BEE1E1E1E1E1E1E1E128E1E1E1E1E1E1E1E1E1E1E1E1E1E1E1E1E1E1E1E1E1E1E1E1E1E1E1E1E1E1E1E1E1E1E1E1E1E1E10FE1E1E1E1E1E1BEE1E1E1E1E1E1E1E1E10FE1E1E1E1E1E1E1E1E1E1E1E1E1E1E1E1E1E1E1E1E1
310
E1E1E1E1E1E1E1E1E128E1BEE1E1E1E1E1E1E1E1E1E1E1E1E1E1E1E1E1E1E1E1E1E1E1E1E1E1E1E1E1E1E1E1E1E1E1E1E1E1E1E1E1E1E1E1E1E1E1E1E1E1E1E1E1E1E1E1E1E1E1E1E1E1E1E1E1E1E1E1E1E1E1E1E1E1E1E1E1E1E1E1E1E1E1E1E1E1E1E1E1E1E1E1E1E1E1E1E1E1E1E1E1E1E1E1E1E1E1E1E1E1E1E1E1E1E1
310
E1E1E1E1E1E1E1E1E1E1E1E1E1E1E1E1E1E1E1E1E1E1E1E1E1E1E1E1E1E1E1E1E1E1E1E1E1E1E1E1E1BEE1E1E1E1E1E1E1E128E1E1E1E1E1E1E1E1E1E1E1E1E1E1E1E1E1E1E1E1E1E1E1E1E1E1E1E1E1E1E1E1E1E1E1E1E1E1E10FBEBEE1E1E1E1BEBEE1E1E1E1E1E1E1E10FE1E1E1E1E1E1E1E1E1E1E1E1E1E1E1E1E1E1E1
310
E1E1E1E1E1E1E1E1E1E1E128E1BEE1E1E1E1E1E1E1E1E1E1E1E1E1E1E1E1E1E1E1E1E1E1E1E1E1E1E1E1E1E1E1E1E1E1E1E1E1E1E1E1E1E1E1E1E1E1E1E1E1E1E1E1E1E1E1E1E1E1E1E1E1E1E1E1E1E1E1E1E1E1E1E1E1E1E1E1E1E1E1E1E1E1E1E1E1E1E1E1E1E1E1E1E1E1E1E1E1E1E1E1E1E1E1E1E1E1E1E1E1E1E1E1E1
310
E1E1E1E1E1E1E1E1E1E1E1E1E1E1E1E1E1E1E1E1E1E1E1E1E1E1E1E1E1E1E1E1E1E1E1E1E1E1E1E1E1E1E1BEE1E1E1E1E1E1E1E128E1E1E1E1E1E1E1E1E1E1E1E1E1E1E1E1E1E1E1E1E1E1E1E1E1E1E1E1E1E1E1E1E1E1E1E1E1E1E10F0FBEE1E1E1E1BEBEE1E1E1E1E1E1E1E10FE1E1E1E1E1E1E1E1E1E1E1E1E1E1E1E1E1
310
E1E1E1E1E1E1E1E1E1E1E1E1E128E1BEE1E1E1E1E1E1E1E1E1E1E1E1E1E1E1E1E1E1E1E1E1E1E1E1E1E1E1E1E1E1E1E1E1E1E1E1E1E1E1E1E1E1E1E1E1E1E1E1E1E1E1E1E1E1E1E1E1E1E1E1E1E1E1E1E1E1E1E1E1E1E1E1E1E1E1E1E1E1E1E1E1E1E1E1E1E1E1E1E1E1E1E1E1E1E1E1E1E1E1E1E1E1E1E1E1E1E1E1E1E1E1
310
E1E1E1E1E1E1E1E1E1E1E1E1E1E1E1E1E1E1E1E1E1E1E1E1E1E1E1E1E1E1E1E1E1E1E1E1E1E1E1E1E1E1E1E1E1BEE1E1E1E1E1E1E1E128E1E1E1E1E1E1E1E1E1E1E1E1E1E1E1E1E1E1E1E1E1E1E1E1E1E1E1E1E1E1E1E1E1E1E1E1E1E1E10FE10F0F0F0F0F0F0F0F0F0F0F0F0F0F0F0F0F0F0F0F0F0F0F0F0F0F0F0F0F0F0F
310
0F0F0F0F0F0F0F0F0F0F0F0F0F0F0F0FE1BEE1E1E1E1E1E1E1E1E1E1E1E1E1E1E1E1E1E1E1E1E1E1E1E1E1E1E1E1E1E1E1E1E1E1E1E1E1E1E1E1E1E1E1E1E1E1E1E1E1E1E1E1E1E1E1E1E1E1E1E1E1E1E1E1E1E1E1E1E1E1E1E1E1E1E1E1E1E1E1E1E1E1E1E1E1E1E1E1E1E1E1E1E1E1E1E1E1E1E1E1E1E1E1E1E1E1E1E1E1
310
E1E1E1E1E1E1E1E1E1E1E1E1E1E1E1E1E1E1E1E1E1E1E1E1E1E1E1E1E1E1E1E1E1E1E1E1E1E1E1E1E1E1E1E1E1E1E1BEE1E1E1E1E1E1E1E128E1E1E1E1E1E1E1E1E1E1E1E1E1E1E1E1E1E1E1E1E1E1E1E1E1E1E1E1E1E1E1E1E1E1E1E1E1E1E10FE1E1E1E1E1E1E1E1E1E1E1E1E1E1E1E1E1E1E1E1E1E1E1E1E1E1E1E1E1E1
310
E1E1E1E1E1E1E1E1E1E1E1E1E1E1E1E1E128E1BEE1E1E1E1E1E1E1E1E1E1E1E1E1E1E1E1E1E1E1E1E1E1E1E1E1E1E1E1E1E1E1E1E1E1E1E1E1E1E1E1E1E1E1E1E1E1E1E1E1E1E1E1E1E1E1E1E1E1E1E1E1E1E1E1E1E1E1E1E1E1E1E1E1E1E1E1E1E1E1E1E1E1E1E1E1E1E1E1E1E1E1E1E1E1E1E1E1E1E1E1E1E1E1E1E1E1E1
310
E1E1E1E1E1E1E1E1E1E1E1E1E1E1E1E1E1E1E1E1E1E1E1E1E1E1E1E1E1E1E1E1E1E1E1E1E1E1E1E1E1E1E1E1E1E1E1E1E1BEE1E1E1E1E1E1E1E128E1E1E1E1E1E1E1E1E1E1E1E1E1E1E1E1E1E1E1E1E1E1E1E1E1E1E1E1E1E1E1E1E1E1E1E1E1E1E10FE1E1E2E2E2E2E2E2E2E2E2E2E2E2E2E1E2E2E1E2E2E2E2E2E2E2E1E1
310
E1E1E1E1E1E1E1E1E1E1E1E1E1E1E1E1E1E1E128E1BEE1E1E1E1E1E1E1E1E1E1E1E1E1E1E1E1E1E1E1E1E1E1E1E1E1E1E1E1E1E1E1E1E1E1E1E1E1E1E1E1E1E1E1E1E1E1E1E1E1E1E1E1E1E1E1E1E1E1E1E1E1E1E1E1E1E1E1E1E1E1E1E1E1E1E1E1E1E1E1E1E1E1E1E1E1E1E1E1E1E1E1E1E1E1E1E1E1E1E1E1E1E1E1E1E1
310
E1E1E1E1E1E1E1E1E1E1E1E1E1E1E1E1E1E1E1E1E1E1E1E1E1E1E1E1E1E1E1E1E1E1E1E1E1E1E1E1E1E1E1E1E1E1E1E1E1E1E1BEE1E1E1E1E1E1E1BE28E1E1E1E1E1E1E1E1E1E1E1E1E1E1E1E1E1E1E1E1E1E1E1E1E1E1E1E1E1E1E1E1E1E1E1E1E1E1E10FE1E2E1E2E2E2E2E2E2E2E2E2E2E2E2E1E2E2E2E2E2E2E2E2E2E2
310
E2E1E1E1E1E1E1E1E1E1E1E1E1E1E1E1E1E1E1E1E128E1BEE1E1E1E1E1E1E1E1E1E1E1E1E1E1E1E1E1E1E1E1E1E1E1E1E1E1E1E1E1E1E1E1E1E1E1E1E1E1E1E1E1E1E1E1E1E1E1E1E1E1E1E1E1E1E1E1E1E1E1E1E1E1E1E1E1E1E1E1E1E1E1E1E1E1E1E1E1E1E1E1E1E1E1E1E1E1E1E1E1E1E1E1E1E1E1E1E1E1E1E1E1E1E1
310
E1E1E1E1E1E1E1E1E1E1E1E1E1E1E1E1E1E1E1E1E1E1E1E1E1E1E1E1E1E1E1E1E1E1E1E1E1E1E1E1E1E1E1E1E1E1E1E1E1E1E1E1E1BEE1E1E1E1E1E1E1BEBEE1E1E1E1E1E1E1E1E1E1E1E1E1E1E1E1E1E1E1E1E1E1E1E1E1E1E1E1E1E1E1E1E1E1E1E1E1E1E10FE1E1E2E2E1E2E1E1E2E1E1E1E1E1E1E1E1E2E1E1E1E1E1E2
310
E1E1E1E1E1E1E1E1E1E1E1E1E1E1E1E1E1E1E1E1E1E1E128E1BEE1E1E1E1E1E1E1E1E1E1E1E1E1E1E1E1E1E1E1E1E1E1E1E1E1E1E1E1E1E1E1E1E1E1E1E1E1E1E1E1E1E1E1E1E1E1E1E1E1E1E1E1E1E1E1E1E1E1E1E1E1E1E1E1E1E1E1E1E1E1E1E1E1E1E1E1E1E1E1E1E1E1E1E1E1E1E1E1E1E1E1E1E1E1E1E1E1E1E1E1E1
310
E1E1E1E1E1E1E1E1E1E1E1E1E1E1E1E1E1E1E1E1E1E1E1E1E1E1E1E1E1E1E1E1E1E1E1E1E1E1E1E1E1E1E1E1E1E1E1E1E1E1E1E1E1E1E1BEE1E1E1E1E1E1E1BEBEE1E1E1E1E1E1E1E1E1E1E1E1E1E1E1E1E1E1E1E1E1E1E1E1E1E1E1E1E1E1E1E1E1E1E1E1E1E1E10FE1E1E1E1E1E1E1E1E1E1E2E2E1E1E1E1E1E1E1E1E1E1
310
E1E1E2E1E1E1E1E1E1E1E1E1E1E1E1E1E1E1E1E1E1E1E1E1E128E1BEE1E1E1E1E1E1E1E1E1E1E1E1E1E1E1E1E1E1E1E1E1E1E1E1E1E1E1E1E1E1E1E1E1E1E1E1E1E1E1E1E1E1E1E1E1E1E1E1E1E1E1E1E1E1E1E1E1E1E1E1E1E1E1E1E1E1E1E1E1E1E1E1E1E1E1E1E1E1E1E1E1E1E1E1E1E1E1E1E1E1E1E1E1E1E1E1E1E1E1
310
E1E1E1E1E1E1E1E1E1E1E1E1E1E1E1E1E1E1E1E1E1E1E1E1E1E1E1E1E1E1E1E1E1E1E1E1E1E1E1E1E1E1E1E1E1E1E1E1E1E1E1E1E1E1E1E1E1BEE1E1E1E1E1E1E1BEBEE1E1E1E1E1E1E1E1E1E1E1E1E1E1E1E1E1E1E1E1E1E1E1E1E1E1E1E1E1E1E1E1E1E1E1E1E1E1E10FE1E2E1E2E2E2E2E2E2E2E2E2E2E2E2E2E2E2E2E2
310
E2E2E2E2E2E2E1E1E1E1E1E1E1E1E1E1E1E1E1E1E1E1E1E1E1E1E128E1BEE1E1E1E1E1E1E1E1E1E1E1E1E1E1E1E1E1E1E1E1E1E1E1E1E1E1E1E1E1E1E1E1E1E1E1E1E1E1E1E1E1E1E1E1E1E1E1E1E1E1E1E1E1E1E1E1E1E1E1E1E1E1E1E1E1E1E1E1E1E1E1E1E1E1E1E1E1E1E1E1E1E1E1E1E1E1E1E1E1E1E1E1E1E1E1E1E1
310
E1E1E1E1E1E1E1E1E1E1E1E1E1E1E1E1E1E1E1E1E1E1E1E1E1E1E1E1E1E1E1E1E1E1E1E1E1E1E1E1E1E1E1E1E1E1E1E1E1E1E1E1E1E1E1E1E1E1E1BEE1E1E1E1E1E1E1BEBEE1E1E1E1E1E1E1E1E1E1E1E1E1E1E1E1E1E1E1E1E1E1E1E1E1E1E1E1E1E1E1E1E1E1E1E1E1E1E10FE1E2E2E2E2E2E2E2E2E2E2E2E2E2E2E2E2E2
310
E2E2E2E2E2E2E2E1E2E1E1E1E1E1E1E1E1E1E1E1E1E1E1E1E1E1E1E1E128E1BEE1E1E1E1E1E1E1E1E1E1E1E1E1E1E1E1E1E1E1E1E1E1E1E1E1E1E1E1E1E1E1E1E1E1E1E1E1E1E1E1E1E1E1E1E1E1E1E1E1E1E1E1E1E1E1E1E1E1E1E1E1E1E1E1E1E1E1E1E1E1E1E1E1E1E1E1E1E1E1E1E1E1E1E1E1E1E1E1E1E1E1E1E1E1E1
310
E1E1E1E1E1E1E1E1E1E1E1E1E1E1E1E1E1E1E1E1E1E1E1E1E1E1E1E1E1E1E1E1E1E1E1E1E1E1E1E1E1E1E1E1E1E1E1E1E1E1E1E1E1E1E1E1E1E1E1E1E1BEE1E1E1E1E1E1E1BEBEE1E1E1E1E1E1E1E1E1E1E1E1E1E1E1E1E1E1E1E1E1E1E1E1E1E1E1E1E1E1E1E1E1E1E1E1E1E1E10FE1E2E1E2E1E2E1E1E2E2E2E2E2E1E2E2
310
E2E1E2E2E2E1E1E1E1E1E1E1E1E1E1E1E1E1E1E1E1E1E1E1E1E1E1E1E1E1E128E1BEE1E1E1E1E1E1E1E1E1E1E1E1E1E1E1E1E1E1E1E1E1E1E1E1E1E1E1E1E1E1E1E1E1E1E1E1E1E1E1E1E1E1E1E1E1E1E1E1E1E1E1E1E1E1E1E1E1E1E1E1E1E1E1E1E1E1E1E1E1E1E1E1E1E1E1E1E1E1E1E1E1E1E1E1E1E1E1E1E1E1E1E1E1
310
E1E1E1E1E1E1E1E1E1E1E1E1E1E1E1E1E1E1E1E1E1E1E1E1E1E1E1E1E1E1E1E1E1E1E1E1E1E1E1E1E1E1E1E1E1E1E1E1E1E1E1E1E1E1E1E1E1E1E1E1E1E1E1BEE1E1E1E1E1E1E1BEBEE1E1E1E1E1E1E1E1E1E1E1E1E1E1E1E1E1E1E1E1E1E1E1E1E1E1E1E1E1E1E1E1E1E1E1E1E1E1E10FE1E1E2E2E2E2E2E1E2E2E2E2E2E2
310
E2E2E2E2E2E1E1E1E1E1E1E1E1E1E1E1E1E1E1E1E1E1E1E1E1E1E1E1E1E1E1E1E128E1BEE1E1E1E1E1E1E1E1E1E1E1E1E1E1E1E1E1E1E1E1E1E1E1E1E1E1E1E1E1E1E1E1E1E1E1E1E1E1E1E1E1E1E1E1E1E1E1E1E1E1E1E1E1E1E1E1E1E1E1E1E1E1E1E1E1E1E1E1E1E1E1E1E1E1E1E1E1E1E1E1E1E1E1E1E1E1E1E1E1E1E1
310
E1E1E1E1E1E1E1E1E1E1E1E1E1E1E1E1E1E1E1E1E1E1E1E1E1E1E1E1E1E1E1E1E1E1E1E1E1E1E1E1E1E1E1E1E1E1E1E1E1E1E1E1E1E1E1E1E1E1E1E1E1E1E1E1E1BEE1E1E1E1E1E1E1BEBEE1E1E1E1E1E1E1E1E1E1E1E1E1E1E1E1E1E1E1E1E1E1E1E1E1E1E1E1E1E1E1E1E1E1E1E1E1E1E10FE1E1E2E2E2E2E2E1E2E2E2E2
310
E1E2E2E2E2E1E1E1E1E1E1E1E1E1E1E1E1E1E1E1E1E1E1E1E1E1E1E1E1E1E1E1E1E1E128E1BEE1E1E1E1E1E1E1E1E1E1E1E1E1E1E1E1E1E1E1E1E1E1E1E1E1E1E1E1E1E1E1E1E1E1E1E1E1E1E1E1E1E1E1E1E1E1E1E1E1E1E1E1E1E1E1E1E1E1E1E1E1E1E1E1E1E1E1E1E1E1E1E1E1E1E1E1E1E1E1E1E1E1E1E1E1E1E1E1E1
310
E1E1E1E1E1E1E1E1E1E1E1E1E1E1E1E1E1E1E1E1E1E1E1E1E1E1E1E1E1E1E1E1E1E1E1E1E1E1E1E1E1E1E1E1E1E1E1E1E1E1E1E1E1E1E1E1E1E1E1E1E1E1E1E1E1E1E1BEE1E1E1E1E1E1E1BEBEE1E1E1E1E1E1E1E1E1E1E1E1E1E1E1E1E1E1E1E1E1E1E1E1E1E1E1E1E1E1E1E1E1E1E1E1E1E1E10FE1E2E1E2E1E2E2E2E2E2
310
E2E1E2E1E2E1E2E1E2E2E2E2E2E2E2E1E1E1E1E1E1E1E1E1E1E1E1E1E1E1E1E1E1E1E1E1E128E1BEE1E1E1E1E1E1E1E1E1E1E1E1E1E1E1E1E1E1E1E1E1E1E1E1E1E1E1E1E1E1E1E1E1E1E1E1E1E1E1E1E1E1E1E1E1E1E1E1E1E1E1E1E1E1E1E1E1E1E1E1E1E1E1E1E1E1E1E1E1E1E1E1E1E1E1E1E1E1E1E1E1E1E1E1E1E1E1
310
E1E1E1E1E1E1E1E1E1E1E1E1E1E1E1E1E1E1E1E1E1E1E1E1E1E1E1E1E1E1E1E1E1E1E1E1E1E1E1E1E1E1E1E1E1E1E1E1E1E1E1E1E1E1E1E1E1E1E1E1E1E1E1E1E1E1E1E1E1BEE1E1E1E1E1E1E1BEBEE1E1E1E1E1E1E1E1E1E1E1E1E1E1E1E1E1E1E1E1E1E1E1E1E1E1E1E1E1E1E1E1E1E1E1E1E1E1E10FE1E1E2E2E2E2E2E2
310
E2E2E2E1E1E2E1E2E2E2E2E2E2E2E2E2E2E1E1E1E1E1E1E1E1E1E1E1E1E1E1E1E1E1E1E1E1E1E128E1BEE1E1E1E1E1E1E1E1E1E1E1E1E1E1E1E1E1E1E1E1E1E1E1E1E1E1E1E1E1E1E1E1E1E1E1E1E1E1E1E1E1E1E1E1E1E1E1E1E1E1E1E1E1E1E1E1E1E1E1E1E1E1E1E1E1E1E1E1E1E1E1E1E1E1E1E1E1E1E1E1E1E1E1E1E1
310
E1E1E1E1E1E1E1E1E1E1E1E1E1E1E1E1E1E1E1E1E1E1E1E1E1E1E1E1E1E1E1E1E1E1E1E1E1E1E1E1E1E1E1E1E1E1E1E1E1E1E1E1E1E1E1E1E1E1E1E1E1E1E1E1E1E1E1E1E1E1E1BEE1E1E1E1E1E1E1BEBEE1E1E1E1E1E1E1E1E1E1E1E1E1E1E1E1E1E1E1E1E1E1E1E1E1E1E1E1E1E1E1E1E1E1E1E1E1E1E10FE1E1E2E1E1E2
310
E2E2E1E1E2E1E1E2E1E1E2E1E1E2E2E1E2E1E1E1E1E1E1E1E1E1E1E1E1E1E1E1E1E1E1E1E1E1E1E1E128E1BEE1E1E1E1E1E1E1E1E1E1E1E1E1E1E1E1E1E1E1E1E1E1E1E1E1E1E1E1E1E1E1E1E1E1E1E1E1E1E1E1E1E1E1E1E1E1E1E1E1E1E1E1E1E1E1E1E1E1E1E1E1E1E1E1E1E1E1E1E1E1E1E1E1E1E1E1E1E1E1E1E1E1E1
310
E1E1E1E1E1E1E1E1E1E1E1E1E1E1E1E1E1E1E1E1E1E1E1E1E1E1E1E1E1E1E1E1E1E1E1E1E1E1E1E1E1E1E1E1E1E1E1E1E1E1E1E1E1E1E1E1E1E1E1E1E1E1E1E1E1E1E1E1E1E1E1E1E1BEE1E1E1E1E1E1E1BEBEE1E1E1E1E1E1E1E1E1E1E1E1E1E1E1E1E1E1E1E1E1E1E1E1E1E1E1E1E1E1E1E1E1E1E1E1E1E1E10F0F0F0F0F
310
0F0F0F0F0F0F0F0F0F0F0F0F0F0F0F0F0F0F0F0F0F0F0F0F0F0F0F0F0F0F0F0F0F0F0F0F0F0F0F0F0F0F0F0FE1BEE1E1E1E1E1E1E1E1E1E1E1E1E1E1E1E1E1E1E1E1E1E1E1E1E1E1E1E1E1E1E1E1E1E1E1E1E1E1E1E1E1E1E1E1E1E1E1E1E1E1E1E1E1E1E1E1E1E1E1E1E1E1E1E1E1E1E1E1E1E1E1E1E1E1E1E1E1E1E1E1E1
310
E1E1E1E1E1E1E1E1E1E1E1E1E1E1E1E1E1E1E1E1E1E1E1E1E1E1E1E1E1E1E1E1E1E1E1E1E1E1E1E1E1E1E1E1E1E1E1E1E1E1E1E1E1E1E1E1E1E1E1E1E1E1E1E1E1E1E1E1E1E1E1E1E1E1E1BEE1E1E1E1E1E1E1BEBEE1E1E1E1E1E1E1E1E1E1E1E1E1E1E1E1E1E1E1E1E1E1E1E1E1E1E1E1E1E1E1E1E1E1E1E1E1E1E10FE1E1
310
E1E1E1E1E1E1E1E1E1E1E2E2E2E2E2E2E2E2E2E2E2E2E2E2E2E2E2E2E2E2E1E1E1E1E1E1E1E1E1E1E1E1E1E1E128E1BEE1E1E1E1E1E1E1E1E1E1E1E1E1E1E1E1E1E1E1E1E1E1E1E1E1E1E1E1E1E1E1E1E1E1E1E1E1E1E1E1E1E1E1E1E1E1E1E1E1E1E1E1E1E1E1E1E1E1E1E1E1E1E1E1E1E1E1E1E1E1E1E1E1E1E1E1E1E1E1
310
E1E1E1E1E1E1E1E1E1E1E1E1E1E1E1E1E1E1E1E1E1E1E1E1E1E1E1E1E1E1E1E1E1E1E1E1E1E1E1E1E1E1E1E1E1E1E1E1E1E1E1E1E1E1E1E1E1E1E1E1E1E1E1E1E1E1E1E1E1E1E1E1E1E1E1E1E1BEE1E1E1E1E1E1E1BEBEE1E1E1E1E1E1E1E1E1E1E1E1E1E1E1E1E1E1E1E1E1E1E1E1E1E1E1E1E1E1E1E1E1E1E1E1E1E1E10F
310
E1E1E1E1E1E1E1E1E1E1E1E1E2E1E2E1E2E2E2E2E2E2E2E2E2E2E2E2E1E2E2E2E1E1E1E1E1E1E1E1E1E1E1E1E1E1E128E1BEE1E1E1E1E1E1E1E1E1E1E1E1E1E1E1E1E1E1E1E1E1E1E1E1E1E1E1E1E1E1E1E1E1E1E1E1E1E1E1E1E1E1E1E1E1E1E1E1E1E1E1E1E1E1E1E1E1E1E1E1E1E1E1E1E1E1E1E1E1E1E1E1E1E1E1E1E1
310
E1E1E1E1E1E1E1E1E1E1E1E1E1E1E1E1E1E1E1E1E1E1E1E1E1E1E1E1E1E1E1E1E1E1E1E1E1E1E1E1E1E1E1E1E1E1E1E1E1E1E1E1E1E1E1E1E1E1E1E1E1E1E1E1E1E1E1E1E1E1E1E1E1E1E1E1E1E1E1BEE1E1E1E1E1E1E1BEBEE1E1E1E1E1E1E1E1E1E1E1E1E1E1E1E1E1E1E1E1E1E1E1E1E1E1E1E1E1E1E1E1E1E1E1E1E1E1
310
E10FE1E1E1E1E1E1E1E1E1E1E1E1E2E1E2E2E2E2E2E2E2E2E2E1E2E2E2E2E1E2E2E2E1E1E1E1E1E1E1E1E1E1E1E1E1E1E128E1BEE1E1E1E1E1E1E1E1E1E1E1E1E1E1E1E1E1E1E1E1E1E1E1E1E1E1E1E1E1E1E1E1E1E1E1E1E1E1E1E1E1E1E1E1E1E1E1E1E1E1E1E1E1E1E1E1E1E1E1E1E1E1E1E1E1E1E1E1E1E1E1E1E1E1E1
310
E1E1E1E1E1E1E1E1E1E1E1E1E1E1E1E1E1E1E1E1E1E1E1E1E1E1E1E1E1E1E1E1E1E1E1E1E1E1E1E1E1E1E1E1E1E1E1E1E1E1E1E1E1E1E1E1E1E1E1E1E1E1E1E1E1E1E1E1E1E1E1E1E1E1E1E1E1E1E1E1E1BEE1E1E1E1E1E1E1BEBEE1E1E1E1E1E1E1E1E1E1E1E1E1E1E1E1E1E1E1E1E1E1E1E1E1E1E1E1E1E1E1E1E1E1E1E1
310
E1E1E10FE1E10F0F0F0F0F0F0F0F0F0F0FE10F0F0F0F0FE10F0F0F0F0F0F0F0FE10F0F0F0FE1E1E1E1E1E1E1E1E1E1E1E1E1E128E1BEE1E1E1E1E1E1E1E1E1E1E1E1E1E1E1E1E1E1E1E1E1E1E1E1E1E1E1E1E1E1E1E1E1E1E1E1E1E1E1E1E1E1E1E1E1E1E1E1E1E1E1E1E1E1E1E1E1E1E1E1E1E1E1E1E1E1E1E1E1E1E1E1E1
310
E1E1E1E1E1E1E1E1E1E1E1E1E1E1E1E1E1E1E1E1E1E1E1E1E1E1E1E1E1E1E1E1E1E1E1E1E1E1E1E1E1E1E1E1E1E1E1E1E1E1E1E1E1E1E1E1E1E1E1E1E1E1E1E1E1E1E1E1E1E1E1E1E1E1E1E1E1E1E1E1E1E1E1BEE1E1E1E1E1E1E1BEBEE1E1E1E1E1E1E1E1E1E1E1E1E1E1E1E1E1E1E1E1E1E1E1E1E1E1E1E1E1E1E1E1E1E1
310
E1E1E1E1E10FE1E1E10F0F0F0F0F0F0F0F0F0F0F0F0F0FE10FE10F0F0F0F0F0F0F0F0F0F0F0F0FE1E1E1E1E1E1E1E1E1E1E1E1E1E128E1BEE1E1E1E1E1E1E1E1E1E1E1E1E1E1E1E1E1E1E1E1E1E1E1E1E1E1E1E1E1E1E1E1E1E1E1E1E1E1E1E1E1E1E1E1E1E1E1E1E1E1E1E1E1E1E1E1E1E1E1E1E1E1E1E1E1E1E1E1E1E1E1
310
E1E1E1E1E1E1E1E1E1E1E1E1E1E1E1E1E1E1E1E1E1E1E1E1E1E1E1E1E1E1E1E1E1E1E1E1E1E1E1E1E1E1E1E1E1E1E1E1E1E1E1E1E1E1E1E1E1E1E1E1E1E1E1E1E1E1E1E1E1E1E1E1E1E1E1E1E1E1E1E1E1E1E1E1E1BEE1E1E1E1E1E1E1BEBEE1E1E1E1E1E1E1E1E1E1E1E1E1E1E1E1E1E1E1E1E1E1E1E1E1E1E1E1E1E1E1E1
310
E1E1E1E1E1E1E10F0F0F0F0F0F0F0F0F0F0F0F0F0F0F0F0F0F0F0F0F0F0F0F0F0F0F0F0F0F0F0F0F0F0F0F0F0F0F0F0F0F0F0F0F0F0F0F0FE1BEE1E1E1E1E1E1E1E1E1E1E1E1E1E1E1E1E1E1E1E1E1E1E1E1E1E1E1E1E1E1E1E1E1E1E1E1E1E1E1E1E1E1E1E1E1E1E1E1E1E1E1E1E1E1E1E1E1E1E1E1E1E1E1E1E1E1E1E1E1
310
E1E1E1E1E1E1E1E1E1E1E1E1E1E1E1E1E1E1E1E1E1E1E1E1E1E1E1E1E1E1E1E1E1E1E1E1E1E1E1E1E1E1E1E1E1E1E1E1E1E1E1E1E1E1E1E1E1E1E1E1E1E1E1E1E1E1E1E1E1E1E1E1E1E1E1E1E1E1E1E1E1E1E1E1E1E1E1BEE1E1E1E1E1E1E1BEBEE1E1E1E1E1E1E1E1E1E1E1E1E1E1E1E1E1E1E1E1E1E1E1E1E1E1E1E1E1E1
310
E1E1E1E1E1E1E1E1E10FE1E1BEBEBEBEBEE1E1E1E1E1E1E1E1E1E1E1E1E1E1E1E1E1E1E1E1E1E1E1E1E1E1E1E1E1E1E1E10F0F0F0FE10F0F0F28E1BEE1E1E1E1E1E1E1E1E1E1E1E1E1E1E1E1E1E1E1E1E1E1E1E1E1E1E1E1E1E1E1E1E1E1E1E1E1E1E1E1E1E1E1E1E1E1E1E1E1E1E1E1E1E1E1E1E1E1E1E1E1E1E1E1E1E1E1
310
E1E1E1E1E1E1E1E1E1E1E1E1E1E1E1E1E1E1E1E1E1E1E1E1E1E1E1E1E1E1E1E1E1E1E1E1E1E1E1E1E1E1E1E1E1E1E1E1E1E1E1E1E1E1E1E1E1E1E1E1E1E1E1E1E1E1E1E1E1E1E1E1E1E1E1E1E1E1E1E1E1E1E1E1E1E1E1E1E1BEE1E1E1E1E1E1E1BEBEE1E1E1E1E1E1E1E1E1E1E1E1E1E1E1E1E1E1E1E1E1E1E1E1E1E1E1E1
310
E1E1E1E1E1E1E1E1E1E1E10FE1E1BEBEBEBEBEE1E1E1E1E1E2E2E2E1E1E1E1E1E1E1E1E1E1E1E1E1E1E1E1E1E1E1E1E1E1E1E1BEBEBEBEBEBEBEBEBEE1BEE1E1E1E1E1E1E1E1E1E1E1E1E1E1E1E1E1E1E1E1E1E1E1E1E1E1E1E1E1E1E1E1E1E1E1E1E1E1E1E1E1E1E1E1E1E1E1E1E1E1E1E1E1E1E1E1E1E1E1E1E1E1E1E1E1
310
E1E1E1E1E1E1E1E1E1E1E1E1E1E1E1E1E1E1E1E1E1E1E1E1E1E1E1E1E1E1E1E1E1E1E1E1E1E1E1E1E1E1E1E1E1E1E1E1E1E1E1E1E1E1E1E1E1E1E1E1E1E1E1E1E1E1E1E1E1E1E1E1E1E1E1E1E1E1E1E1E1E1E1E1E1E1E1E1E1E1E1BEE1E1E1E1E1E1E1BEBEE1E1E1E1E1E1E1E1E1E1E1E1E1E1E1E1E1E1E1E1E1E1E1E1E1E1
310
E1E1E1E1E1E1E1E1E1E1E1E1E10FE1E1BEBEBEBEBEBEBEBEE1E1E2E2E2E1E1E1E1E1E1E1E1E1E1E1E1E1E1E1E1E1E1E1E1E1E1E1E10F0FE10FE10F0F0F28E1BEE1E1E1E1E1E1E1E1E1E1E1E1E1E1E1E1E1E1E1E1E1E1E1E1E1E1E1E1E1E1E1E1E1E1E1E1E1E1E1E1E1E1E1E1E1E1E1E1E1E1E1E1E1E1E1E1E1E1E1E1E1E1E1
310
E1E1E1E1E1E1E1E1E1E1E1E1E1E1E1E1E1E1E1E1E1E1E1E1E1E1E1E1E1E1E1E1E1E1E1E1E1E1E1E1E1E1E1E1E1E1E1E1E1E1E1E1E1E1E1E1E1E1E1E1E1E1E1E1E1E1E1E1E1E1E1E1E1E1E1E1E1E1E1E1E1E1E1E1E1E1E1E1E1E1E1E1E1BEE1E1E1E1E1E1E1BEBEE1E1E1E1E1E1E1E1E1E1E1E1E1E1E1E1E1E1E1E1E1E1E1E1
310
E1E1E1E1E1E1E1E1E1E1E1E1E1E1E10FE1E1BEBEBEBEBEBEBEBEE1E1E2E1E2E1E1E1E1E1E1E1E1E1E1E1E1E1E1E1E1E1E1E1E1E1E1E1E1E1E10F0FE1E10FE128E1BEE1E1E1E1E1E1E1E1E1E1E1E1E1E1E1E1E1E1E1E1E1E1E1E1E1E1E1E1E1E1E1E1E1E1E1E1E1E1E1E1E1E1E1E1E1E1E1E1E1E1E1E1E1E1E1E1E1E1E1E1E1
310
E1E1E1E1E1E1E1E1E1E1E1E1E1E1E1E1E1E1E1E1E1E1E1E1E1E1E1E1E1E1E1E1E1E1E1E1E1E1E1E1E1E1E1E1E1E1E1E1E1E1E1E1E1E1E1E1E1E1E1E1E1E1E1E1E1E1E1E1E1E1E1E1E1E1E1E1E1E1E1E1E1E1E1E1E1E1E1E1E1E1E1E1E1E1E1BEE1E1E1E1E1E1E1BEBEE1E1E1E1E1E1E1E1E1E1E1E1E1E1E1E1E1E1E1E1E1E1
310
E1E1E1E1E1E1E1E1E1E1E1E1E1E1E1E1E1E10F0F0F0F0F0F0F0F0F0F0F0F0F0F0F0F0F0F0F0F0F0F0F0F0F0F0F0F0F0F0F0F0F0F0F0F0F0F0F0F0F0F0F0F0F0F0F0FE1BEE1E1E1E1E1E1E1E1E1E1E1E1E1E1E1E1E1E1E1E1E1E1E1E1E1E1E1E1E1E1E1E1E1E1E1E1E1E1E1E1E1E1E1E1E1E1E1E1E1E1E1E1E1E1E1E1E1E1E1
310
E1E1E1E1E1E1E1E1E1E1E1E1E1E1E1E1E1E1E1E1E1E1E1E1E1E1E1E1E1E1E1E1E1E1E1E1E1E1E1E1E1E1E1E1E1E1E1E1E1E1E1E1E1E1E1E1E1E1E1E1E1E1E1E1E1E1E1E1E1E1E1E1E1E1E1E1E1E1E1E1E1E1E1E1E1E1E1E1E1E1E1E1E1E1E1E1E1BEE1E1E1E1E1E1E1BEBEE1E1E1E1E1E1E1E1E1E1E1E1E1E1E1E1E1E1E1E1
310
E1E1E1E1E1E1E1E1E1E1E1E1E1E1E1E1E1E1E1E1E1E1E1E1E1E1E1E1E1E1E1E1E1E1E1E1E1E1E1E1E1E1E1E1E1E1E1E1E1E1E1E1E1E1E1E1E1E1E1E1E1E1E1E1E1E1E128E1BEE1E1E1E1E1E1E1E1E1E1E1E1E1E1E1E1E1E1E1E1E1E1E1E1E1E1E1E1E1E1E1E1E1E1E1E1E1E1E1E1E1E1E1E1E1E1E1E1E1E1E1E1E1E1E1E1E1
310
E1E1E1E1E1E1E1E1E1E1E1E1E1E1E1E1E1E1E1E1E1E1E1E1E1E1E1E1E1E1E1E1E1E1E1E1E1E1E1E1E1E1E1E1E1E1E1E1E1E1E1E1E1E1E1E1E1E1E1E1E1E1E1E1E1E1E1E1E1E1E1E1E1E1E1E1E1E1E1E1E1E1E1E1E1E1E1E1E1E1E1E1E1E1E1E1E1E1E1BEE1E1E1E1E1E1E1BEBEE1E1E1E1E1E1E1E1E1E1E1E1E1E1E1E1E1E1
310
E1E1E1E1E1E1E1E1E1E1E1E1E1E1E1E1E1E1E1E1E1E1E1E1E1E1E1E1E1E1E1E1E1E1E1E1E1E1E1E1E1E1E1E1E1E1E1E1E1E1E1E1E1E1E1E1E1E1E1E1E1E1E1E1E1E1E1E1E128E1BEE1E1E1E1E1E1E1E1E1E1E1E1E1E1E1E1E1E1E1E1E1E1E1E1E1E1E1E1E1E1E1E1E1E1E1E1E1E1E1E1E1E1E1E1E1E1E1E1E1E1E1E1E1E1E1
310
E1E1E1E1E1E1E1E1E1E1E1E1E1E1E1E1E1E1E1E1E1E1E1E1E1E1E1E1E1E1E1E1E1E1E1E1E1E1E1E1E1E1E1E1E1E1E1E1E1E1E1E1E1E1E1E1E1E1E1E1E1E1E1E1E1E1E1E1E1E1E1E1E1E1E1E1E1E1E1E1E1E1E1E1E1E1E1E1E1E1E1E1E1E1E1E1E1E1E1E1E1BEE1E1E1E1E1E1E1BEBEE1E1E1E1E1E1E1E1E1E1E1E1E1E1E1E1
310
E1E1E1E1E1E1E1E1E1E1E1E1E1E1E1E1E1E1E1E1E1E1E1E1E1E1E1E1E1E1E1E1E1E1E1E1E1E1E1E1E1E1E1E1E1E1E1E1E1E1E1E1E1E1E1E1E1E1E1E1E1E1E1E1E1E1E1E1E1E1E128E1BEE1E1E1E1E1E1E1E1E1E1E1E1E1E1E1E1E1E1E1E1E1E1E1E1E1E1E1E1E1E1E1E1E1E1E1E1E1E1E1E1E1E1E1E1E1E1E1E1E1E1E1E1E1
310
E1E1E1E1E1E1E1E1E1E1E1E1E1E1E1E1E1E1E1E1E1E1E1E1E1E1E1E1E1E1E1E1E1E1E1E1E1E1E1E1E1E1E1E1E1E1E1E1E1E1E1E1E1E1E1E1E1E1E1E1E1E1E1E1E1E1E1E1E1E1E1E1E1E1E1E1E1E1E1E1E1E1E1E1E1E1E1E1E1E1E1E1E1E1E1E1E1E1E1E1E1E1E1BEE1E1E1E1E1E1E1BEBEE1E1E1E1E1E1E1E1E1E1E1E1E1E1
310
E1E1E1E1E1E1E1E1E1E1E1E1E1E1E1E1E1E1E1E1E1E1E1E1E1E1E1E1E1E1E1E1E1E1E1E1E1E1E1E1E1E1E1E1E1E1E1E1E1E1E1E1E1E1E1E1E1E1E1E1E1E1E1E1E1E1E1E1E1E1E1E1E128E1BEE1E1E1E1E1E1E1E1E1E1E1E1E1E1E1E1E1E1E1E1E1E1E1E1E1E1E1E1E1E1E1E1E1E1E1E1E1E1E1E1E1E1E1E1E1E1E1E1E1E1E1
310
E1E1E1E1E1E1E1E1E1E1E1E1E1E1E1E1E1E1E1E1E1E1E1E1E1E1E1E1E1E1E1E1E1E1E1E1E1E1E1E1E1E1E1E1E1E1E1E1E1E1E1E1E1E1E1E1E1E1E1E1E1E1E1E1E1E1E1E1E1E1E1E1E1E1E1E1E1E1E1E1E1E1E1E1E1E1E1E1E1E1E1E1E1E1E1E1E1E1E1E1E1E1E1E1E1BEE1E1E1E1E1E1E1BEBEE1E1E1E1E1E1E1E1E1E1E1E1
310
E1E1E1E1E1E1E1E1E1E1E1E1E1E1E1E1E1E1E1E1E1E1E1E1E1E1E1E1E1E1E1E1E1E1E1E1E1E1E1E1E1E1E1E1E1E1E1E1E1E1E1E1E1E1E1E1E1E1E1E1E1E1E1E1E1E1E1E1E1E1E1E1E1E1E128E1BEE1E1E1E1E1E1E1E1E1E1E1E1E1E1E1E1E1E1E1E1E1E1E1E1E1E1E1E1E1E1E1E1E1E1E1E1E1E1E1E1E1E1E1E1E1E1E1E1E1
310
E1E1E1E1E1E1E1E1E1E1E1E1E1E1E1E1E1E1E1E1E1E1E1E1E1E1E1E1E1E1E1E1E1E1E1E1E1E1E1E1E1E1E1E1E1E1E1E1E1E1E1E1E1E1E1E1E1E1E1E1E1E1E1E1E1E1E1E1E1E1E1E1E1E1E1E1E1E1E1E1E1E1E1E1E1E1E1E1E1E1E1E1E1E1E1E1E1E1E1E1E1E1E1E1E1E1E1BEE1E1E1E1E1E1E1BEBEE1E1E1E1E1E1E1E1E1E1
310
E1E1E1E1E1E1E1E1E1E1E1E1E1E1E1E1E1E1E1E1E1E1E1E1E1E1E1E1E1E1E1E1E1E1E1E1E1E1E1E1E1E1E1E1E1E1E1E1E1E1E1E1E1E1E1E1E1E1E1E1E1E1E1E1E1E1E1E1E1E1E1E1E1E1E1E1E128E1BEE1E1E1E1E1E1E1E1E1E1E1E1E1E1E1E1E1E1E1E1E1E1E1E1E1E1E1E1E1E1E1E1E1E1E1E1E1E1E1E1E1E1E1E1E1E1E1
310
E1E1E1E1E1E1E1E1E1E1E1E1E1E1E1E1E1E1E1E1E1E1E1E1E1E1E1E1E1E1E1E1E1E1E1E1E1E1E1E1E1E1E1E1E1E1E1E1E1E1E1E1E1E1E1E1E1E1E1E1E1E1E1E1E1E1E1E1E1E1E1E1E1E1E1E1E1E1E1E1E1E1E1E1E1E1E1E1E1E1E1E1E1E1E1E1E1E1E1E1E1E1E1E1E1E1E1E1E1BEE1E1E1E1E1E1E1BEBEE1E1E1E1E1E1E1E1
310
E1E1E1E1E1E1E1E1E1E1E1E1E1E1E1E1E1E1E1E1E1E1E1E1E1E1E1E1E1E1E1E1E1E1E1E1E1E1E1E1E1E1E1E1E1E1E1E1E1E1E1E1E1E1E1E1E1E1E1E1E1E1E1E1E1E1E1E1E1E1E1E1E1E1E1E1E1E1E128E1BEE1E1E1E1E1E1E1E1E1E1E1E1E1E1E1E1E1E1E1E1E1E1E1E1E1E1E1E1E1E1E1E1E1E1E1E1E1E1E1E1E1E1E1E1E1
310
E1E1E1E1E1E1E1E1E1E1E1E1E1E1E1E1E1E1E1E1E1E1E1E1E1E1E1E1E1E1E1E1E1E1E1E1E1E1E1E1E1E1E1E1E1E1E1E1E1E1E1E1E1E1E1E1E1E1E1E1E1E1E1E1E1E1E1E1E1E1E1E1E1E1E1E1E1E1E1E1E1E1E1E1E1E1E1E1E1E1E1E1E1E1E1E1E1E1E1E1E1E1E1E1E1E1E1E1E1E1E1BEE1E1E1E1E1E1E1BEBEE1E1E1E1E1E1
310
E1E1E1E1E1E1E1E1E1E1E1E1E1E1E1E1E1E1E1E1E1E1E1E1E1E1E1E1E1E1E1E1E1E1E1E1E1E1E1E1E1E1E1E1E1E1E1E1E1E1E1E1E1E1E1E1E1E1E1E1E1E1E1E1E1E1E1E1E1E1E1E1E1E1E1E1E1E1E1E1E128E1BEE1E1E1E1E1E1E1E1E1E1E1E1E1E1E1E1E1E1E1E1E1E1E1E1E1E1E1E1E1E1E1E1E1E1E1E1E1E1E1E1E1E1E1
310
E1E1E1E1E1E1E1E1E1E1E1E1E1E1E1E1E1E1E1E1E1E1E1E1E1E1E1E1E1E1E1E1E1E1E1E1E1E1E1E1E1E1E1E1E1E1E1E1E1E1E1E1E1E1E1E1E1E1E1E1E1E1E1E1E1E1E1E1E1E1E1E1E1E1E1E1E1E1E1E1E1E1E1E1E1E1E1E1E1E1E1E1E1E1E1E1E1E1E1E1E1E1E1E1E1E1E1E1E1E1E1E1E1BEE1E1E1E1E1E1E1BEBEE1E1E1E1
310
E1E1E1E1E1E1E1E1E1E1E1BEE1E1E1E1E1E1E1E1E1E1E1BEE1E1E1E1E1E1E1E1E1E1E1E1E1E1E1E1E1E1E1E1E1E1E1E1E1E1E1E1E1E1E1E1E1E1E1E1E1E1E1E1E1E1E1E1E1E1E1E1E1E1E1E1E1E1E1E1E1E1E128E1BEE1E1E1E1E1E1E1E1E1E1E1E1E1E1E1E1E1E1E1E1E1E1E1E1E1E1E1E1E1E1E1E1E1E1E1E1E1E1E1E1E1
310
E1E1E1E1E1E1E1E1E1E1E1E1E1E1E1E1E1E1E1E1E1E1E1E1E1E1E1E1E1E1E1E1E1E1E1E1E1E1E1E1E1E1E1E1E1E1E1E1E1E1E1E1E1E1E1E1E1E1E1E1E1E1E1E1E1E1E1E1E1E1E1E1E1E1E1E1E1E1E1E1E1E1E1E1E1E1E1E1E1E1E1E1E1E1E1E1E1E1E1E1E1E1E1E1E1E1E1E1E1E1E1E1E1E1E1BEE1E1E1E1E1E1E1BEBEE1E1
310
E1E1E1E1E1E1E1E1E1E1E1E1E1E2BEBEBE0F0F0F0F0FBEBEBEBEE1E1E1E1E1E1E1E1E1E1E1E1E1E1E1E1E1E1E1E1E1E1E1E1E1E1E1E1E1E1E1E1E1E1E1E1E1E1E1E1E1E1E1E1E1E1E1E1E1E1E1E1E1E1E1E1E1E1E128E1BEE1E1E1E1E1E1E1E1E1E1E1E1E1E1E1E1E1E1E1E1E1E1E1E1E1E1E1E1E1E1E1E1E1E1E1E1E1E1E1
310
E1E1E1E1E1E1E1E1E1E1E1E1E1E1E1E1E1E1E1E1E1E1E1E1E1E1E1E1E1E1E1E1E1E1E1E1E1E1E1E1E1E1E1E1E1E1E1E1E1E1E1E1E1E1E1E1E1E1E1E1E1E1E1E1E1E1E1E1E1E1E1E1E1E1E1E1E1E1E1E1E1E1E1E1E1E1E1E1E1E1E1E1E1E1E1E1E1E1E1E1E1E1E1E1E1E1E1E1E1E1E1E1E1E1E1E1E1BEE1E1E1E1E1E1E1BEBE
310
E1E1E1E1E1E1E1E1E1E1E1E1E1E1E1BEE1E1E10F0F0F0FE1E1E1E1BEE1E1E1E10FBEBEBEBEBEBEBEBEBEE1E1E1E1E1E1E1E1E1E1E1E1E1E1E1E1E1E1E1E1E1E1E1E1E1E1E1E1E1E1E1E1E1E1E1E1E1E1E1E1E1E1E1E1E128E1BEE1E1E1E1E1E1E1E1E1E1E1E1E1E1E1E1E1E1E1E1E1E1E1E1E1E1E1E1E1E1E1E1E1E1E1E1E1
310
E1E1E1E1E1E1E1E1E1E1E1E1E1E1E1E1E1E1E1E1E1E1E1E1E1E1E1E1E1E1E1E1E1E1E1E1E1E1E1E1E1E1E1E1E1E1E1E1E1E1E1E1E1E1E1E1E1E1E1E1E1E1E1E1E1E1E1E1E1E1E1E1E1E1E1E1E1E1E1E1E1E1E1E1E1E1E1E1E1E1E1E1E1E1E1E1E1E1E1E1E1E1E1E1E1E1E1E1E1E1E1E1E1E1E1E1E1E1E1BEE1E1E1E1E1E1E1
310
BE28E1E1E1E1E1E1E1E1E1E1E1E1E1E1E1BEE1E1E1BEBEBE0F0F0FBEBEBEE1E1E1BE0F0F0F0F0F0F0FE1E1E1E1E1E1E1E1E1E1E1E1E1E1E1E1E1E1E1E1E1E1E1E1E1E1E1E1E1E1E1E1E1E1E1E1E1E1E1E1E1E1E1E1E1E1E1E128E1BEE1E1E1E1E1E1E1E1E1E1E1E1E1E1E1E1E1E1E1E1E1E1E1E1E1E1E1E1E1E1E1E1E1E1E1
310
E1E1E1E1E1E1E1E1E1E1E1E1E1E1E1E1E1E1E1E1E1E1E1E1E1E1E1E1E1E1E1E1E1E1E1E1E1E1E1E1E1E1E1E1E1E1E1E1E1E1E1E1E1E1E1E1E1E1E1E1E1E1E1E1E1E1E1E1E1E1E1E1E1E1E1E1E1E1E1E1E1E1E1E1E1E1E1E1E1E1E1E1E1E1E1E1E1E1E1E1E1E1E1E1E1E1E1E1E1E1E1E1E1E1E1E1E1E1E1E1E1BEE1E1E1E1E1
310
E1E1BEBEE1E1E1E1E1E1E1E1E1E1E1E1E1E1E1BEE1E1E1BEE10F0F0F0FE1E1BEE1E1E1BEE10FE10F0FE1E1E1E1E1E1E1E1E1E1E1E1E1E1E1E1E1E1E1E1E1E1E1E1E1E1E1E1E1E1E1E1E1E1E1E1E1E1E1E1E1E1E1E1E1E1E1E1E1E128E1BEE1E1E1E1E1E1E1E1E1E1E1E1E1E1E1E1E1E1E1E1E1E1E1E1E1E1E1E1E1E1E1E1E1
310
E1E1E1E1E1E1E1E1E1E1E1E1E1E1E1E1E1E1E1E1E1E1E1E1E1E1E1E1E1E1E1E1E1E1E1E1E1E1E1E1E1E1E1E1E1E1E1E1E1E1E1E1E1E1E1E1E1E1E1E1E1E1E1E1E1E1E1E1E1E1E1E1E1E1E1E1E1E1E1E1E1E1E1E1E1E1E1E1E1E1E1E1E1E1E1E1E1E1E1E1E1E1E1E1E1E1E1E1E1E1E1E1E1E1E1E1E1E1E1E1E1E1E1BEE1E1E1
310
E1E1E1E1BEBEE1E1E1E1E1E1E1E1E1E1E1E1E1E1E1BEE1E1E1BEE1BEBEBEBEBEBEBEE1E1BEE10F0F0F0F0F0F0F0F0F0FE1E1E1E1E1E1E1E1E1E1E1E1E1E1E1E1E1E1E1E1E1E1E1E1E1E1E1E1E1E1E1E1E1E1E1E1E1E1E1E1E1E1E1E1E128E1BEE1E1E1E1E1E1E1E1E1E1E1E1E1E1E1E1E1E1E1E1E1E1E1E1E1E1E1E1E1E1E1
310
E1E1E1E1E1E1E1E1E1E1E1E1E1E1E1E1E1E1E1E1E1E1E1E1E1E1E1E1E1E1E1E1E1E1E1E1E1E1E1E1E1E1E1E1E1E1E1E1E1E1E1E1E1E1E1E1E1E1E1E1E1E1E1E1E1E1E1E1E1E1E1E1E1E1E1E1E1E1E1E1E1E1E1E1E1E1E1E1E1E1E1E1E1E1E1E1E1E1E1E1E1E1E1E1E1E1E1E1E1E1E1E1E1E1E1E1E1E1E1E1E1E1E1E1E1BEE1
310
E1E1E1E1E1E1BEBEE1E1E1E1E1E1E1E1E1E1E1E1E1E1E1BEE1E1E1BEE1BEBE0F0F0FBEBEE1BEE1E10F0F0FE1E1E1E10F0FE10FE1E1E1E1E1E1E1E1E1E1E1E1E1E1E1E1E1E1E1E1E1E1E1E1E1E1E1E1E1E1E1E1E1E1E1E1E1E1E1E1E1E1E1E128E1BEE1E1E1E1E1E1E1E1E1E1E1E1E1E1E1E1E1E1E1E1E1E1E1E1E1E1E1E1E1
310
E1E1E1E1E1E1E1E1E1E1E1E1E1E1E1E1E1E1E1E1E1E1E1E1E1E1E1E1E1E1E1E1E1E1E1E1E1E1E1E1E1E1E1E1E1E1E1E1E1E1E1E1E1E1E1E1E1E1E1E1E1E1E1E1E1E1E1E1E1E1E1E1E1E1E1E1E1E1E1E1E1E1E1E1E1E1E1E1E1E1E1E1E1E1E1E1E1E1E1E1E1E1E1E1E1E1E1E1E1E1E1E1E1E1E1E1E1E1E1E1E1E1E1E1E1E1E1
310
BEE1E1E1E1E1E1E1BEBEE1E1E1E1E1E1E1E1E1E1E1E1E1E1E1BEE1E1E1BEE1BE0F0F0F0FE1BEE1BEE1E1E1E1E1E1E1E1E1E1E1E1E1E1E1E1E1E1E1E1E1E1E1E1E1E1E1E1E1E1E1E1E1E1E1E1E1E1E1E1E1E1E1E1E1E1E1E1E1E1E1E1E1E1E1E1E128E1BEE1E1E1E1E1E1E1E1E1E1E1E1E1E1E1E1E1E1E1E1E1E1E1E1E1E1E1
310
E1E1E1E1E1E1E1E1E1E1E1E1E1E1E1E1E1E1E1E1E1E1E1E1E1E1E1E1E1E1E1E1E1E1E1E1E1E1E1E1E1E1E1E1E1E1E1E1E1E1E1E1E1E1E1E1E1E1E1E1E1E1E1E1E1E1E1E1E1E1E1E1E1E1E1E1E1E1E1E1E1E1E1E1E1E1E1E1E1E1E1E1E1E1E1E1E1E1E1E1E1E1E1E1E1E1E1E1E1E1E1E1E1E1E1E1E1E1E1E1E1E1E1E1E1E1E1
310
E1E1BEE1E1E1E1E1E1E1BEBEE1E1E1E1E1E1E1E1E1E1E1E1E1E1E1BEE1E1E1BEE1BEBEBE0F0F0FBEBEE1E1E1E1E1E1E1E1E1E1E1E1E1E1E1E1E1E1E1E1E1E1E1E1E1E1E1E1E1E1E1E1E1E1E1E1E1E1E1E1E1E1E1E1E1E1E1E1E1E1E1E1E1E1E1E1E1E128E1BEE1E1E1E1E1E1E1E1E1E1E1E1E1E1E1E1E1E1E1E1E1E1E1E1E1
310
E1E1E1E1E1E1E1E1E1E1E1E1E1E1E1E1E1E1E1E1E1E1E1E1E1E1E1E1E1E1E1E1E1E1E1E1E1E1E1E1E1E1E1E1E1E1E1E1E1E1E1E1E1E1E1E1E1E1E1E1E1E1E1E1E1E1E1E1E1E1E1E1E1E1E1E1E1E1E1E1E1E1E1E1E1E1E1E1E1E1E1E1E1E1E1E1E1E1E1E1E1E1E1E1E1E1E1E1E1E1E1E1E1E1E1E1E1E1E1E1E1E1E1E1E1E1E1
310
E1E1E1E1BEE1E1E1E1E1E1E1BEBEE1E1E1E1E1E1E1E1E1E1E1E1E1E1E1BEE1E1E1BEE1BEBEE10F0FE1BEE1E1E1E1E1E1E1E1E1E1E1E1E1E1E1E1E1E1E1E1E1E1E1E1E1E1E1E1E1E1E1E1E1E1E1E1E1E1E1E1E1E1E1E1E1E1E1E1E1E1E1E1E1E1E1E1E1E1E128E1BEE1E1E1E1E1E1E1E1E1E1E1E1E1E1E1E1E1E1E1E1E1E1E1
310
E1E1E1E1E1E1E1E1E1E1E1E1E1E1E1E1E1E1E1E1E1E1E1E1E1E1E1E1E1E1E1E1E1E1E1E1E1E1E1E1E1E1E1E1E1E1E1E1E1E1E1E1E1E1E1E1E1E1E1E1E1E1E1E1E1E1E1E1E1E1E1E1E1E1E1E1E1E1E1E1E1E1E1E1E1E1E1E1E1E1E1E1E1E1E1E1E1E1E1E1E1E1E1E1E1E1E1E1E1E1E1E1E1E1E1E1E1E1E1E1E1E1E1E1E1E1E1
310
E1E1E1E1E1E1BEE1E1E1E1E1E1E1BEBEE1E1E1E1E1E1E1E1E1E1E1E1E1E1E1BEE1E1E1BEE1BEBEE1BEE1E1BEE1E1E1E1E1E1E1E1E1E1E1E1E1E1E1E1E1E1E1E1E1E1E1E1E1E1E1E1E1E1E1E1E1E1E1E1E1E1E1E1E1E1E1E1E1E1E1E1E1E1E1E1E1E1E1E1E1E1E128E1BEE1E1E1E1E1E1E1E1E1E1E1E1E1E1E1E1E1E1E1E1E1
310
E1E1E1E1E1E1E1E1E1E1E1E1E1E1E1E1E1E1E1E1E1E1E1E1E1E1E1E1E1E1E1E1E1E1E1E1E1E1E1E1E1E1E1E1E1E1E1E1E1E1E1E1E1E1E1E1E1E1E1E1E1E1E1E1E1E1E1E1E1E1E1E1E1E1E1E1E1E1E1E1E1E1E1E1E1E1E1E1E1E1E1E1E1E1E1E1E1E1E1E1E1E1E1E1E1E1E1E1E1E1E1E1E1E1E1E1E1E1E1E1E1E1E1E1E1E1E1
310
E1E1E1E1E1E1E1E1BEE1E1E1E1E1E1E1BEBEE1E1E1E1E1E1E1E1E1E1E1E1E1E1E1BEE2E2E2BEE2BEBEE2BEE2BEBEBEBEBEBEBEBEBEBEBEE2BEE1E1E1E1E1E1E1E1E1E1E1E1E1E1E1E1E1E1E1E1E1E1E1E1E1E1E1E1E1E1E1E1E1E1E1E1E1E1E1E1E1E1E1E1E1E1E1E128E1BEE1E1E1E1E1E1E1E1E1E1E1E1E1E1E1E1E1E1E1
310
E1E1E1E1E1E1E1E1E1E1E1E1E1E1E1E1E1E1E1E1E1E1E1E1E1E1E1E1E1E1E1E1E1E1E1E1E1E1E1E1E1E1E1E1E1E1E1E1E1E1E1E1E1E1E1E1E1E1E1E1E1E1E1E1E1E1E1E1E1E1E1E1E1E1E1E1E1E1E1E1E1E1E1E1E1E1E1E1E1E1E1E1E1E1E1E1E1E1E1E1E1E1E1E1E1E1E1E1E1E1E1E1E1E1E1E1E1E1E1E1E1E1E1E1E1E1E1
310
E1E1E1E1E1E1E1E1E1E1BEE1E1E1E1E1E1E1BEBEE1E1E1E1E1BEE2BEBEBEBEBEBEBEBEBEBEE2E2E2E2E2E2E2BEE2BEE2E1E1E1E1E1E1E1E1E1BEE1E1E1E1E1E1E1E1E1E1E1E1E1E1E1E1E1E1E1E1E1E1E1E1E1E1E1E1E1E1E1E1E1E1E1E1E1E1E1E1E1E1E1E1E1E1E1E1E128E1BEE1E1E1E1E1E1E1E1E1E1E1E1E1E1E1E1E1
310
E1E1E1E1E1E1E1E1E1E1E1E1E1E1E1E1E1E1E1E1E1E1E1E1E1E1E1E1E1E1E1E1E1E1E1E1E1E1E1E1E1E1E1E1E1E1E1E1E1E1E1E1E1E1E1E1E1E1E1E1E1E1E1E1E1E1E1E1E1E1E1E1E1E1E1E1E1E1E1E1E1E1E1E1E1E1E1E1E1E1E1E1E1E1E1E1E1E1E1E1E1E1E1E1E1E1E1E1E1E1E1E1E1E1E1E1E1E1E1E1E1E1E1E1E1E1E1
310
E1E1E1E1E1E1E1E1E1E1E1E1BEE1E1E1E1E1E1E1BEBEE1E1E1E1E1E1BEE1E1E1E1E1E1E1E2BEE2E2E2E2E2E2BEBEBEBEBEE2BEBEBEBEBEBEBEE2BEBEE1E1E1E1E1E1E1E1E1E1E1E1E1E1E1E1E1E1E1E1E1E1E1E1E1E1E1E1E1E1E1E1E1E1E1E1E1E1E1E1E1E1E1E1E1E1E1E1E128E1BEE1E1E1E1E1E1E1E1E1E1E1E1E1E1E1
310
E1E1E1E1E1E1E1E1E1E1E1E1E1E1E1E1E1E1E1E1E1E1E1E1E1E1E1E1E1E1E1E1E1E1E1E1E1E1E1E1E1E1E1E1E1E1E1E1E1E1E1E1E1E1E1E1E1E1E1E1E1E1E1E1E1E1E1E1E1E1E1E1E1E1E1E1E1E1E1E1E1E1E1E1E1E1E1E1E1E1E1E1E1E1E1E1E1E1E1E1E1E1E1E1E1E1E1E1E1E1E1E1E1E1E1E1E1E1E1E1E1E1E1E1E1E1E1
310
E1E1E1E1E1E1E1E1E1E1E1E1E1E1BEE1E1E1E1E1E1E1BEBEE1E1E1E1E1E1BEE1E1E1E1E1E1E1E2BEE2E2E2E1BEBEE1E2BEE2BEBEBEBEBEBEE2BEE1BEE1BEE1E1E1E1E1E1E1E1E1E1E1E1E1E1E1E1E1E1E1E1E1E1E1E1E1E1E1E1E1E1E1E1E1E1E1E1E1E1E1E1E1E1E1E1E1E1E1E1E128E1BEE1E1E1E1E1E1E1E1E1E1E1E1E1
310
E1E1E1E1E1E1E1E1E1E1E1E1E1E1E1E1E1E1E1E1E1E1E1E1E1E1E1E1E1E1E1E1E1E1E1E1E1E1E1E1E1E1E1E1E1E1E1E1E1E1E1E1E1E1E1E1E1E1E1E1E1E1E1E1E1E1E1E1E1E1E1E1E1E1E1E1E1E1E1E1E1E1E1E1E1E1E1E1E1E1E1E1E1E1E1E1E1E1E1E1E1E1E1E1E1E1E1E1E1E1E1E1E1E1E1E1E1E1E1E1E1E1E1E1E1E1E1
310
E1E1E1E1E1E1E1E1E1E1E1E1E1E1E1E1BEE1E1E1E1E1E1E1BEBEE1E1E1E1E1E1BEE1E2BEBEBEBEE2BEBEBEBEBEBEBEBEE1E1BEE1BEBEE1E1E1E1BEBEE1BEE1BEE1E1E1E1E1E1E1E1E1E1E1E1E1E1E1E1E1E1E1E1E1E1E1E1E1E1E1E1E1E1E1E1E1E1E1E1E1E1E1E1E1E1E1E1E1E1E1E1E128E1BEE1E1E1E1E1E1E1E1E1E1E1
310
E1E1E1E1E1E1E1E1E1E1E1E1E1E1E1E1E1E1E1E1E1E1E1E1E1E1E1E1E1E1E1E1E1E1E1E1E1E1E1E1E1E1E1E1E1E1E1E1E1E1E1E1E1E1E1E1E1E1E1E1E1E1E1E1E1E1E1E1E1E1E1E1E1E1E1E1E1E1E1E1E1E1E1E1E1E1E1E1E1E1E1E1E1E1E1E1E1E1E1E1E1E1E1E1E1E1E1E1E1E1E1E1E1E1E1E1E1E1E1E1E1E1E1E1E1E1E1
310
E1E1E1E1E1E1E1E1E1E1E1E1E1E1E1E1E1E1BEE1E1E1E1E1E1E1BEBEE1E1E1E1E1E1BEE1BEBEE1E1E1E1E2BEE2E2E2E1BEBEE1E1E1E1BEBEE1E1E1E1BEE1E1BEE1BEE1E1E1E1E1E1E1E1E1E1E1E1E1E1E1E1E1E1E1E1E1E1E1E1E1E1E1E1E1E1E1E1E1E1E1E1E1E1E1E1E1E1E1E1E1E1E1E1E128E1BEE1E1E1E1E1E1E1E1E1
310
E1E1E1E1E1E1E1E1E1E1E1E1E1E1E1E1E1E1E1E1E1E1E1E1E1E1E1E1E1E1E1E1E1E1E1E1E1E1E1E1E1E1E1E1E1E1E1E1E1E1E1E1E1E1E1E1E1E1E1E1E1E1E1E1E1E1E1E1E1E1E1E1E1E1E1E1E1E1E1E1E1E1E1E1E1E1E1E1E1E1E1E1E1E1E1E1E1E1E1E1E1E1E1E1E1E1E1E1E1E1E1E1E1E1E1E1E1E1E1E1E1E1E1E1E1E1E1
310
E1E1E1E1E1E1E1E1E1E1E1E1E1E1E1E1E1E1E1E1BEE1E1E1E1E1E1E1BEBEE1E1E1E1E1E1BEE1BEBEE1E1E1E1E1BEBEBEBEBEBEE2BEBEBEE1BEBEE1E1E1E1BEE1E1BEE1BEE1E1E1E1E1E1E1E1E1E1E1E1E1E1E1E1E1E1E1E1E1E1E1E1E1E1E1E1E1E1E1E1E1E1E1E1E1E1E1E1E1E1E1E1E1E1E1E1E128E1BEE1E1E1E1E1E1E1
310
E1E1E1E1E1E1E1E1E1E1E1E1E1E1E1E1E1E1E1E1E1E1E1E1E1E1E1E1E1E1E1E1E1E1E1E1E1E1E1E1E1E1E1E1E1E1E1E1E1E1E1E1E1E1E1E1E1E1E1E1E1E1E1E1E1E1E1E1E1E1E1E1E1E1E1E1E1E1E1E1E1E1E1E1E1E1E1E1E1E1E1E1E1E1E1E1E1E1E1E1E1E1E1E1E1E1E1E1E1E1E1E1E1E1E1E1E1E1E1E1E1E1E1E1E1E1E1
310
E1E1E1E1E1E1E1E1E1E1E1E1E1E1E1E1E1E1E1E1E1E1BEE1E1E1E1E1E1E1BEBEE1E1E1E1E1E1BEE1BEE1E1E1E1E1E1BEE2E2BEBEBEBEBEBE0FE1BEBEE1E1E1E1BEE1E1BEE1BEE1E1E1E1E1E1E1E1E1E1E1E1E1E1E1E1E1E1E1E1E1E1E1E1E1E1E1E1E1E1E1E1E1E1E1E1E1E1E1E1E1E1E1E1E1E1E1E1E128E1BEE1E1E1E1E1
310
E1E1E1E1E1E1E1E1E1E1E1E1E1E1E1E1E1E1E1E1E1E1E1E1E1E1E1E1E1E1E1E1E1E1E1E1E1E1E1E1E1E1E1E1E1E1E1E1E1E1E1E1E1E1E1E1E1E1E1E1E1E1E1E1E1E1E1E1E1E1E1E1E1E1E1E1E1E1E1E1E1E1E1E1E1E1E1E1E1E1E1E1E1E1E1E1E1E1E1E1E1E1E1E1E1E1E1E1E1E1E1E1E1E1E1E1E1E1E1E1E1E1E1E1E1E1E1
310
E1E1E1E1E1E1E1E1E1E1E1E1E1E1E1E1E1E1E1E1E1E1E1E1BEE1E1E1E1E1E1E1BEBEE1E1E1E1E1E1BEE1BEE1E1E1E1BEBEBEE2E2E1E1E1E10F0F0FE1BEBEE1E1E1E1BEE1E1BEE1BEE1E1E1E1E1E1E1E1E1E1E1E1E1E1E1E1E1E1E1E1E1E1E1E1E1E1E1E1E1E1E1E1E1E1E1E1E1E1E1E1E1E1E1E1E1E1E1E1E128E1BEE1E1E1
310
E1E1E1E1E1E1E1E1E1E1E1E1E1E1E1E1E1E1E1E1E1E1E1E1E1E1E1E1E1E1E1E1E1E1E1E1E1E1E1E1E1E1E1E1E1E1E1E1E1E1E1E1E1E1E1E1E1E1E1E1E1E1E1E1E1E1E1E1E1E1E1E1E1E1E1E1E1E1E1E1E1E1E1E1E1E1E1E1E1E1E1E1E1E1E1E1E1E1E1E1E1E1E1E1E1E1E1E1E1E1E1E1E1E1E1E1E1E1E1E1E1E1E1E1E1E1E1
310
E1E1E1E1E1E1E1E1E1E1E1E1E1E1E1E1E1E1E1E1E1E1E1E1E1E1BEE1E1E1E1E1E1E1BEBEE1E1E1E1E1E1BEE1BEE1E1E1E1BEE2BEE2E2E1E1E1E1E1E1E1E1BEBEE1E1E1E1BEE1E1BEE1BEE1E1E1E1E1E1E1E1E1E1E1E1E1E1E1E1E1E1E1E1E1E1E1E1E1E1E1E1E1E1E1E1E1E1E1E1E1E1E1E1E1E1E1E1E1E1E1E1E128E1BEE1
310
E1E1E1E1E1E1E1E1E1E1E1E1E1E1E1E1E1E1E1E1E1E1E1E1E1E1E1E1E1E1E1E1E1E1E1E1E1E1E1E1E1E1E1E1E1E1E1E1E1E1E1E1E1E1E1E1E1E1E1E1E1E1E1E1E1E1E1E1E1E1E1E1E1E1E1E1E1E1E1E1E1E1E1E1E1E1E1E1E1E1E1E1E1E1E1E1E1E1E1E1E1E1E1E1E1E1E1E1E1E1E1E1E1E1E1E1E1E1E1E1E1E1E1E1E1E1E1
310
E1E1E1E1E1E1E1E1E1E1E1E1E1E1E1E1E1E1E1E1E1E1E1E1E1E1E1E1BEE1E1E1E1E1E1E1BEBEE1E1E1E1E1E1BEE1BEE1E1E1E1BEE2BEE2E2E1E1E1E1E1E1E1E1BEBEE1E1E1E1BEE1E1BEE1BEE1E1E1E1E1E1E1E1E1E1E1E1E1E1E1E1E1E1E1E1E1E1E1E1E1E1E1E1E1E1E1E1E1E1E1E1E1E1E1E1E1E1E1E1E1E1E1E1E128E1
310
BEE1E1E1E1E1E1E1E1E1E1E1E1E1E1E1E1E1E1E1E1E1E1E1E1E1E1E1E1E1E1E1E1E1E1E1E1E1E1E1E1E1E1E1E1E1E1E1E1E1E1E1E1E1E1E1E1E1E1E1E1E1E1E1E1E1E1E1E1E1E1E1E1E1E1E1E1E1E1E1E1E1E1E1E1E1E1E1E1E1E1E1E1E1E1E1E1E1E1E1E1E1E1E1E1E1E1E1E1E1E1E1E1E1E1E1E1E1E1E1E1E1E1E1E1E1E1
310
E1E1E1E1E1E1E1E1E1E1E1E1E1E1E1E1E1E1E1E1E1E1E1E1E1E1E1E1E1E1BEE1E1E1E1E1E1E1BEBEE1E1E1E1E1E1BEE1BEE1E1E1BEBEE2BEE2E2E1E1E1E1E1E1E1E1BEBEE1E1E1E1BEE1E1BEE1BEE1E1E1E1E1E1E1E1E1E1E1E1E1E1E1E1E1E1E1E1E1E1E1E1E1E1E1E1E1E1E1E1E1E1E1E1E1E1E1E1E1E1E1E1E1E1E1E1E1
310
28E1BEE1E1E1E1E1E1E1E1E1E1E1E1E1E1E1E1E1E1E1E1E1E1E1E1E1E1E1E1E1E1E1E1E1E1E1E1E1E1E1E1E1E1E1E1E1E1E1E1E1E1E1E1E1E1E1E1E1E1E1E1E1E1E1E1E1E1E1E1E1E1E1E1E1E1E1E1E1E1E1E1E1E1E1E1E1E1E1E1E1E1E1E1E1E1E1E1E1E1E1E1E1E1E1E1E1E1E1E1E1E1E1E1E1E1E1E1E1E1E1E1E1E1E1E1
310
E1E1E1E1E1E1E1E1E1E1E1E1E1E1E1E1E1E1E1E1E1E1E1E1E1E1E1E1E1E1E1E1BEE1E1E1E1E1E1E1BEBEE1E1E1E1E1E1BEE1BEE1E1E1BEBEBEBEBEBEBEE1E1E1E1E1E1E1BEBEE1E1E1E1BEE1E1BEE1BEE1E1E1E1E1E1E1E1E1E1E1E1E1E1E1E1E1E1E1E1E1E1E1E1E1E1E1E1E1E1E1E1E1E1E1E1E1E1E1E1E1E1E1E1E1E1E1
310
E1E128E1BEE1E1E1E1E1E1E1E1E1E1E1E1E1E1E1E1E1E1E1E1E1E1E1E1E1E1E1E1E1E1E1E1E1E1E1E1E1E1E1E1E1E1E1E1E1E1E1E1E1E1E1E1E1E1E1E1E1E1E1E1E1E1E1E1E1E1E1E1E1E1E1E1E1E1E1E1E1E1E1E1E1E1E1E1E1E1E1E1E1E1E1E1E1E1E1E1E1E1E1E1E1E1E1E1E1E1E1E1E1E1E1E1E1E1E1E1E1E1E1E1E1E1
310
E1E1E1E1E1E1E1E1E1E1E1E1E1E1E1E1E1E1E1E1E1E1E1E1E1E1E1E1E1E1E1E1E1E1BEE1E1E1E1E1E1E1BEBEE1E1E1E1E1E1BEE1BEE1E1E1BEE2E2BEE2E2E1E1E1E1E1E1E1E1BEBEE1E1E1E1BEE1E1BEE1BEE1E1E1E1E1E1E1E1E1E1E1E1E1E1E1E1E1E1E1E1E1E1E1E1E1E1E1E1E1E1E1E1E1E1E1E1E1E1E1E1E1E1E1E1E1
310
E1E1E1E128E1BEE1E1E1E1E1E1E1E1E1E1E1E1E1E1E1E1E1E1E1E1E1E1E1E1E1E1E1E1E1E1E1E1E1E1E1E1E1E1E1E1E1E1E1E1E1E1E1E1E1E1E1E1E1E1E1E1E1E1E1E1E1E1E1E1E1E1E1E1E1E1E1E1E1E1E1E1E1E1E1E1E1E1E1E1E1E1E1E1E1E1E1E1E1E1E1E1E1E1E1E1E1E1E1E1E1E1E1E1E1E1E1E1E1E1E1E1E1E1E1E1
310
E1E1E1E1E1E1E1E1E1E1E1E1E1E1E1E1E1E1E1E1E1E1E1E1E1E1E1E1E1E1E1E1E1E1E1E1BEE1E1E1E1E1E1E1BEBEE1E1E1E1E1E1BEE1BEE1E1E1BEE2E2BEE2E2E1E1E1E1E1E1E1E1BEBEE1E1E1E1BEE1E1BEE1BEE1E1E1E1E1E1E1E1E1E1E1E1E1E1E1E1E1E1E1E1E1E1E1E1E1E1E1E1E1E1E1E1E1E1E1E1E1E1E1E1E1E1E1
310
E1E1E1E1E1E128E1BEE1E1E1E1E1E1E1E1E1E1E1E1E1E1E1E1E1E1E1E1E1E1E1E1E1E1E1E1E1E1E1E1E1E1E1E1E1E1E1E1E1E1E1E1E1E1E1E1E1E1E1E1E1E1E1E1E1E1E1E1E1E1E1E1E1E1E1E1E1E1E1E1E1E1E1E1E1E1E1E1E1E1E1E1E1E1E1E1E1E1E1E1E1E1E1E1E1E1E1E1E1E1E1E1E1E1E1E1E1E1E1E1E1E1E1E1E1E1
310
E1E1E1E1E1E1E1E1E1E1E1E1E1E1E1E1E1E1E1E1E1E1E1E1E1E1E1E1E1E1E1E1E1E1E1E1E1E1BEE1E1E1E1E1E1E1BEBEE1E1E1E1E1E1BEE1BEE1E1E1BEE2E2BEE2E2E1E1E1E1E1E1E1E1BEBEE1E1E1E1BEE1E1BEE1BEE1E1E1E1E1E1E1E1E1E1E1E1E1E1E1E1E1E1E1E1E1E1E1E1E1E1E1E1E1E1E1E1E1E1E1E1E1E1E1E1E1
310
E1E1E1E1E1E1E1E128E1BEE1E1E1E1E1E1E1E1E1E1E1E1E1E1E1E1E1E1E1E1E1E1E1E1E1E1E1E1E1E1E1E1E1E1E1E1E1E1E1E1E1E1E1E1E1E1E1E1E1E1E1E1E1E1E1E1E1E1E1E1E1E1E1E1E1E1E1E1E1E1E1E1E1E1E1E1E1E1E1E1E1E1E1E1E1E1E1E1E1E1E1E1E1E1E1E1E1E1E1E1E1E1E1E1E1E1E1E1E1E1E1E1E1E1E1E1
310
E1E1E1E1E1E1E1E1E1E1E1E1E1E1E1E1E1E1E1E1E1E1E1E1E1E1E1E1E1E1E1E1E1E1E1E1E1E1E1E1BEE1E1E1E1E1E1E1BEBEE1E1E1E1E1E1BEE1BEE1E1E1BEE1BEBEE2E2E1E1E1E1E1E1E1E1BEBEE1E1E1E1BEE1E1BEE1BEE1E1E1E1E1E1E1E1E1E1E1E1E1E1E1E1E1E1E1E1E1E1E1E1E1E1E1E1E1E1E1E1E1E1E1E1E1E1E1
310
E1E1E1E1E1E1E1E1E1E128E1BEE1E1E1E1E1E1E1E1E1E1E1E1E1E1E1E1E1E1E1E1E1E1E1E1E1E1E1E1E1E1E1E1E1E1E1E1E1E1E1E1E1E1E1E1E1E1E1E1E1E1E1E1E1E1E1E1E1E1E1E1E1E1E1E1E1E1E1E1E1E1E1E1E1E1E1E1E1E1E1E1E1E1E1E1E1E1E1E1E1E1E1E1E1E1E1E1E1E1E1E1E1E1E1E1E1E1E1E1E1E1E1E1E1E1
310
E1E1E1E1E1E1E1E1E1E1E1E1E1E1E1E1E1E1E1E1E1E1E1E1E1E1E1E1E1E1E1E1E1E1E1E1E1E1E1E1E1E1BEE1E1E1E1E1E1E1BEBEE1E1E1E1E1E1BEE1BEE1E1E1E1BEBEBEBEE1E1E1E1E1E1E1E1E1BEBEE1E1E1E1BEE1E1BEE1BEE1E1E1E1E1E1E1E1E1E1E1E1E1E1E1E1E1E1E1E1E1E1E1E1E1E1E1E1E1E1E1E1E1E1E1E1E1
310
E1E1E1E1E1E1E1E1E1E1E1E128E1BEE1E1E1E1E1E1E1E1E1E1E1E1E1E1E1E1E1E1E1E1E1E1E1E1E1E1E1E1E1E1E1E1E1E1E1E1E1E1E1E1E1E1E1E1E1E1E1E1E1E1E1E1E1E1E1E1E1E1E1E1E1E1E1E1E1E1E1E1E1E1E1E1E1E1E1E1E1E1E1E1E1E1E1E1E1E1E1E1E1E1E1E1E1E1E1E1E1E1E1E1E1E1E1E1E1E1E1E1E1E1E1E1
310
E1E1E1E1E1E1E1E1E1E1E1E1E1E1E1E1E1E1E1E1E1E1E1E1E1E1E1E1E1E1E1E1E1E1E1E1E1E1E1E1E1E1E1E1BEE1E1E1E1E1E1E1BEBEE1E1E1E1E1E1BEE1BEE1E1E1BEBEBEBEE2E1E1E1E1E1E1E1E1E1BEBEE1E1E1E1BEE1E1BEE1BEE1E1E1E1E1E1E1E1E1E1E1E1E1E1E1E1E1E1E1E1E1E1E1E1E1E1E1E1E1E1E1E1E1E1E1
310
E1E1E1E1E1E1E1E1E1E1E1E1E1E128E1BEE1E1E1E1E1E1E1E1E1E1E1E1E1E1E1E1E1E1E1E1E1E1E1E1E1E1E1E1E1E1E1E1E1E1E1E1E1E1E1E1E1E1E1E1E1E1E1E1E1E1E1E1E1E1E1E1E1E1E1E1E1E1E1E1E1E1E1E1E1E1E1E1E1E1E1E1E1E1E1E1E1E1E1E1E1E1E1E1E1E1E1E1E1E1E1E1E1E1E1E1E1E1E1E1E1E1E1E1E1E1
310
E1E1E1E1E1E1E1E1E1E1E1E1E1E1E1E1E1E1E1E1E1E1E1E1E1E1E1E1E1E1E1E1E1E1E1E1E1E1E1E1E1E1E1E1E1E1BEE1E1E1E1E1E1E1BEBEE1E1E1E1E1E1BEE1BEE1E1E1BEBEBEE2E2E1E1E1E1E1E1E1E1E1BEBEE1E1E1E1BEE1E1BEE1BEE1E1E1E1E1E1E1E1E1E1BEBEBEBEBEBEBEBEBEBEBEBEBEBEBEBEBEBEBEBEBEBEBE
310
BEBEBEBEBEBEBEBEBEBEBEBEBEE1E1E128E1BEE1E1E1E1E1E1E1E1E1E1E1E1E1E1E1E1E1E1E1E1E1E1E1E1E1E1E1E1E1E1E1E1E1E1E1E1E1E1E1E1E1E1E1E1E1E1E1E1E1E1E1E1E1E1E1E1E1E1E1E1E1E1E1E1E1E1E1E1E1E1E1E1E1E1E1E1E1E1E1E1E1E1E1E1E1E1E1E1E1E1E1E1E1E1E1E1E1E1E1E1E1E1E1E1E1E1E1E1
310
E1E1E1E1E1E1E1E1E1E1E1E1E1E1E1E1E1E1E1E1E1E1E1E1E1E1E1E1E1E1E1E1E1E1E1E1E1E1E1E1E1E1E1E1E1E1E1E1BEE1E1E1E1E1E1E1BEBEE1E1E1E1E1E1BEE1BEE1E1E1BEE1E1E2E1E2E1E1E1E1E1E1E1E1BEBEE1E1E1E1BEE1E1BEE1BEE1E1E1E1E1E1E1E1E1E1E10F0F0F0F0F0F0F0F0F0F0F0F0F0F0FBEE1E1E1E1
310
E1E1E10F0F0F0FE1E1E1E1E1E1E1BEE1E1E128E1BEE1E1E1E1E1E1E1E1E1E1E1E1E1E1E1E1E1E1E1E1E1E1E1E1E1E1E1E1E1E1E1E1E1E1E1E1E1E1E1E1E1E1E1E1E1E1E1E1E1E1E1E1E1E1E1E1E1E1E1E1E1E1E1E1E1E1E1E1E1E1E1E1E1E1E1E1E1E1E1E1E1E1E1E1E1E1E1E1E1E1E1E1E1E1E1E1E1E1E1E1E1E1E1E1E1E1
310
E1E1E1E1E1E1E1E1E1E1E1E1E1E1E1E1E1E1E1E1E1E1E1E1E1E1E1E1E1E1E1E1E1E1E1E1E1E1E1E1E1E1E1E1E1E1E1E1E1E1BEE1E1E1E1E1E1E1BEBEE1E1E1E1E1E1BEE1BEE1E1E1BEE1E1E2E2E2E1E1E1E1E1E1E1E1BEBEE1E1E1E1BEE1E1BEE1BEE1E1E1E1E1E1E1E1E1E1BEBEBEBEBEBEBEBEBEBEBEBEBEBEBEBEBEBEBE
310
BEBEBEBE0F0F0F0F0FBEBEBEBEBEBEBEBEE1E1E128E1BEE1E1E1E1E1E1E1E1E1E1E1E1E1E1E1E1E1E1E1E1E1E1E1E1E1E1E1E1E1E1E1E1E1E1E1E1E1E1E1E1E1E1E1E1E1E1E1E1E1E1E1E1E1E1E1E1E1E1E1E1E1E1E1E1E1E1E1E1E1E1E1E1E1E1E1E1E1E1E1E1E1E1E1E1E1E1E1E1E1E1E1E1E1E1E1E1E1E1E1E1E1E1E1E1
310
E1E1E1E1E1E1E1E1E1E1E1E1E1E1E1E1E1E1E1E1E1E1E1E1E1E1E1E1E1E1E1E1E1E1E1E1E1E1E1E1E1E1E1E1E1E1E1E1E1E1E1E1BEE1E1E1E1E1E1E1BEBEE1E1E1E1E1E1BEE1BEE1E1E1BEE1E1E1E2E2E1E1E1E1E1E1E1E1BEBEE1E1E1E1BEE1E1BEE1BEE1E1E1E1E1E1E1E1E1E1E10F0F0F0F0F0F0F0F0F0F0F0F0F0FE1BE
310
E1E1E1E1E1E10F0F0F0F0FE1E1E1E1E1E1E1BEE1E1E128E1BEE1E1E1E1E1E1E1E1E1E1E1E1E1E1E1E1E1E1E1E1E1E1E1E1E1E1E1E1E1E1E1E1E1E1E1E1E1E1E1E1E1E1E1E1E1E1E1E1E1E1E1E1E1E1E1E1E1E1E1E1E1E1E1E1E1E1E1E1E1E1E1E1E1E1E1E1E1E1E1E1E1E1E1E1E1E1E1E1E1E1E1E1E1E1E1E1E1E1E1E1E1E1
310
E1E1E1E1E1E1E1E1E1E1E1E1E1E1E1E1E1E1E1E1E1E1E1E1E1E1E1E1E1E1E1E1E1E1E1E1E1E1E1E1E1E1E1E1E1E1E1E1E1E1E1E1E1E1BEE1E1E1E1E1E1E1BEBEE1E1E1E1E10F0F0F0FE1E1E1BEE1E1E1E2E2E1E1E1E1E1E1E1E1BEBEE1E1E10F0FE1E1BEE1BEE1E1E1E1E1E1E1E1E1E1BEBEBEBEBEBEBEBEBEBEBEBEBEBEBE
310
BEBEBEBEBEBEBEBE0F0F0F0F0FBEBEBEBEBEBEBEBEE1E1E128E1BEE1E1E1E1E1E1E1E1E1E1E1E1E1E1E1E1E1E1E1E1E1E1E1E1E1E1E1E1E1E1E1E1E1E1E1E1E1E1E1E1E1E1E1E1E1E1E1E1E1E1E1E1E1E1E1E1E1E1E1E1E1E1E1E1E1E1E1E1E1E1E1E1E1E1E1E1E1E1E1E1E1E1E1E1E1E1E1E1E1E1E1E1E1E1E1E1E1E1E1E1
310
E1E1E1E1E1E1E1E1E1E1E1E1E1E1E1E1E1E1E1E1E1E1E1E1E1E1E1E1E1E1E1E1E1E1E1E1E1E1E1E1E1E1E1E1E1E1E1E1E1E1E1E1E1E1E1E1BEE1E1E1E1E1E1E1BEBEE1E1E1E1E10F0F0F0FE1E1E1BEE1E1E1E2E2E1E1E1E1E1E1E1E1BEBEE1E1E10F0FE10F0F0F0FE1E1E1E1E1E1E1E1E1E1E10F0F0F0F0F0F0F0F0F0F0F0F
310
0F0FE1BEE1E1E1E1E1E10F0F0F0F0FE1E1E1E1E1E1E1BEE1E1E128E1BEE1E1E1E1E1E1E1E1E1E1E1E1E1E1E1E1E1E1E1E1E1E1E1E1E1E1E1E1E1E1E1E1E1E1E1E1E1E1E1E1E1E1E1E1E1E1E1E1E1E1E1E1E1E1E1E1E1E1E1E1E1E1E1E1E1E1E1E1E1E1E1E1E1E1E1E1E1E1E1E1E1E1E1E1E1E1E1E1E1E1E1E1E1E1E1E1E1E1
310
E1E1E1E1E1E1E1E1E1E1E1E1E1E1E1E1E1E1E1E1E1E1E1E1E1E1E1E1E1E1E1E1E1E1E1E1E1E1E1E1E1E1E1E1E1E1E1E1E1E1E1E1E1E1E1E1E1E1BEE1E1E1E1E1E1E1BEBEE1E1E1E1E10F0F0F0FE1E1BEBEBEBEBEE2E2BEBEE1BEBEBEBEBEBEBEBEE1E10F0FE10F0F0F0FE1E1E1E1E1E1E1E1E1E1BEBEBEBEBEBEBEBEBEBEBE
310
BEBEBEBEBEBEBEBEBEBEBEBE0F0F0F0F0FBEBEBEBEBEBEBEBEE1E1E128E1BEE1E1E1E1E1E1E1E1E1E1E1E1E1E1E1E1E1E1E1E1E1E1E1E1E1E1E1E1E1E1E1E1E1E1E1E1E1E1E1E1E1E1E1E1E1E1E1E1E1E1E1E1E1E1E1E1E1E1E1E1E1E1E1E1E1E1E1E1E1E1E1E1E1E1E1E1E1E1E1E1E1E1E1E1E1E1E1E1E1E1E1E1E1E1E1E1
310
E1E1E1E1E1E1E1E1E1E1E1E1E1E1E1E1E1E1E1E1E1E1E1E1E1E1E1E1E1E1E1E1E1E1E1E1E1E1E1E1E1E1E1E1E1E1E1E1E1E1E1E1E1E1E1E1E1E1E1E1BEE1E1E1E1E1E1E1BEBEE1E1E1E1E10F0F0F0FE1E1E1BEE1E1E1E2E2E1E1E1E1E1E1E1E1BEBEE1E1E10F0FE10FBE0F0FE1E1E1E1E1E1E1E1E1E1E10F0F0F0F0F0F0F0F
310
0F0F0F0F0F0FE1BEE1E1E1E1E1E1E10F0F0F0FE1E1E1E1E1E1E1BEE1E1E128E1BEE1E1E1E1E1E1E1E1E1E1E1E1E1E1E1E1E1E1E1E1E1E1E1E1E1E1E1E1E1E1E1E1E1E1E1E1E1E1E1E1E1E1E1E1E1E1E1E1E1E1E1E1E1E1E1E1E1E1E1E1E1E1E1E1E1E1E1E1E1E1E1E1E1E1E1E1E1E1E1E1E1E1E1E1E1E1E1E1E1E1E1E1E1E1
310
E1E1E1E1E1E1E1E1E1E1E1E1E1E1E1E1E1E1E1E1E1E1E1E1E1E1E1E1E1E1E1E1E1E1E1E1E1E1E1E1E1E1E1E1E1E1E1E1E1E1E1E1E1E1E1E1E1E1E1E1E1E1BEE1E1E1E1E1E1E1BEBEE1E1E1E1E10F0FE1BEE1E1E1BEE1E1E1E2E2E1E1E1E1E1E1E1E1BEBEE1E1E1E1BEE1E1BEE1BEE1E1E1E1E1E1E1E1E1E1BEBEBEBEBEBEBE
310
BEBEBEBEBEBEBEBEBEBEBEBEBEBEBEBE0F0F0F0F0FBEBEBEBEBEBEBEBEE1E1E128E1BEE1E1E1E1E1E1E1E1E1E1E1E1E1E1E1E1E1E1E1E1E1E1E1E1E1E1E1E1E1E1E1E1E1E1E1E1E1E1E1E1E1E1E1E1E1E1E1E1E1E1E1E1E1E1E1E1E1E1E1E1E1E1E1E1E1E1E1E1E1E1E1E1E1E1E1E1E1E1E1E1E1E1E1E1E1E1E1E1E1E1E1E1
310
E1E1E1E1E1E1E1E1E1E1E1E1E1E1E1E1E1E1E1E1E1E1E1E1E1E1E1E1E1E1E1E1E1E1E1E1E1E1E1E1E1E1E1E1E1E1E1E1E1E1E1E1E1E1E1E1E1E1E1E1E1E1E1E1BEE1E1E1E1E1E1E1BE28E1E1E1E1E1E1BEE1BEE1E1E1BEE1E1E1E2E2E1E1E1E1E1E1E1E1BEBEE1E1E1E1BEE1E1BEE1BEE1E1E1E1E1E1E1E1E1E1E10F0F0F0F
310
0F0F0F0F0F0F0F0F0F0FE1BEE1E1E1E1E1E1E10F0F0F0FE1E1E1E1E1E1E1BEE1E1E128E1BEE1E1E1E1E1E1E1E1E1E1E1E1E1E1E1E1E1E1E1E1E1E1E1E1E1E1E1E1E1E1E1E1E1E1E1E1E1E1E1E1E1E1E1E1E1E1E1E1E1E1E1E1E1E1E1E1E1E1E1E1E1E1E1E1E1E1E1E1E1E1E1E1E1E1E1E1E1E1E1E1E1E1E1E1E1E1E1E1E1E1
310
E1E1E1E1E1E1E1E1E1E1E1E1E1E1E1E1E1E1E1E1E1E1E1E1E1E1E1E1E1E1E1E1E1E1E1E1E1E1E1E1E1E1E1E1E1E1E1E1E1E1E1E1E1E1E1E1E1E1E1E1E1E1E1E1E1E1BEE1E1E1E1E1E1E1BEBEE1E1E1E1E1E1BEE1BEE1E1E1BEE1E1E2E2E2E1E1E1E1E1E1E1E1E2BEE1E1E1E1BEE1E1BEE1BEE1E1E1E1E1E1E1E1E1E1BEBEBE
310
BEBEBEBEBEBEBEBEBEBEBEBEBEBEBEBEBEBEBEBE0F0F0F0F0FBEBEBEBEBEBEBEBEE1E1E128E1BEE1E1E1E1E1E1E1E1E1E1E1E1E1E1E1E1E1E1E1E1E1E1E1E1E1E1E1E1E1E1E1E1E1E1E1E1E1E1E1E1E1E1E1E1E1E1E1E1E1E1E1E1E1E1E1E1E1E1E1E1E1E1E1E1E1E1E1E1E1E1E1E1E1E1E1E1E1E1E1E1E1E1E1E1E1E1E1E1
310
E1E1E1E1E1E1E1E1E1E1E1E1E1E1E1E1E1E1E1E1E1E1E1E1E1E1E1E1E1E1E1E1E1E1E1E1E1E1E1E1E1E1E1E1E1E1E1E1E1E1E1E1E1E1E1E1E1E1E1E1E1E1E1E1E1E1E1E1BEE1E1E1E1E1E1E1BEBEE1E1E1E1E1E1BEE1BEE1E1E1E2E1E1E2E2E2E1E1E1E1E1E1E1E1BEBEE1E1E1E1BEE1E1BEE1BEE1E1E1E1E1E1E1E1E1E1E1
310
0F0F0F0F0F0F0F0F0F0F0F0F0F0FE1BEE1E1E1E1E1E1E10F0F0F0FE1E1E1E1E1E1E1BEE1E1E128E1BEE1E1E1E1E1E1E1E1E1E1E1E1E1E1E1E1E1E1E1E1E1E1E1E1E1E1E1E1E1E1E1E1E1E1E1E1E1E1E1E1E1E1E1E1E1E1E1E1E1E1E1E1E1E1E1E1E1E1E1E1E1E1E1E1E1E1E1E1E1E1E1E1E1E1E1E1E1E1E1E1E1E1E1E1E1E1
310
E1E1E1E1E1E1E1E1E1E1E1E1E1E1E1E1E1E1E1E1E1E1E1E1E1E1E1E1E1E1E1E1E1E1E1E1E1E1E1E1E1E1E1E1E1E1E1E1E1E1E1E1E1E1E1E1E1E1E1E1E1E1E1E1E1E1E1E1E1E1BEE1E1E1E1E1E1E1BEBEE1E1E1E1E1E1BEE1BEE1E1E1BEBEBEE2E2E2BEBE0F0F0FBEBEBEBEBEE1E1E1E1BEE1E1BEE1BEE1E1E1E1E1E1E1E1E1
310
E1BEBEBEBEBEBEBEBEBEBEBEBEBEBEBEBEBEBEBEBEBEBEBEBE0F0F0F0FBEBEBEBEBEBEBEBEE1E1E128E1BEE1E1E1E1E1E1E1E1E1E1E1E1E1E1E1E1E1E1E1E1E1E1E1E1E1E1E1E1E1E1E1E1E1E1E1E1E1E1E1E1E1E1E1E1E1E1E1E1E1E1E1E1E1E1E1E1E1E1E1E1E1E1E1E1E1E1E1E1E1E1E1E1E1E1E1E1E1E1E1E1E1E1E1E1
310
E1E1E1E1E1E1E1E1E1E1E1E1E1E1E1E1E1E1E1E1E1E1E1E1E1E1E1E1E1E1E1E1E1E1E1E1E1E1E1E1E1E1E1E1E1E1E1E1E1E1E1E1E1E1E1E1E1E1E1E1E1E1E1E1E1E1E1E1E1E1E1E1BEE1E1E1E1E1E1E1BEBEE1E1E1E1E1E1BEE1BEE1E1E1BEE1E1E2E2BEE1E10F0F0F0FE1E1BEBEE1E1E1E1BEE1E1BEE1BEE1E1E1E1E1E1E1
310
E1E1E1E10F0F0F0F0F0F0F0F0F0F0F0F0FE1E1BEE1E1E1E1E1E1E10F0F0F0FE1E1E1E1E1E1E1BEE1E1E128E1BEE1E1E1E1E1E1E1E1E1E1E1E1E1E1E1E1E1E1E1E1E1E1E1E1E1E1E1E1E1E1E1E1E1E1E1E1E1E1E1E1E1E1E1E1E1E1E1E1E1E1E1E1E1E1E1E1E1E1E1E1E1E1E1E1E1E1E1E1E1E1E1E1E1E1E1E1E1E1E1E1E1E1
310
E1E1E1E1E1E1E1E1E1E1E1E1E1E1E1E1E1E1E1E1E1E1E1E1E1E1E1E1E1E1E1E1E1E1E1E1E1E1E1E1E1E1E1E1E1E1E1E1E1E1E1E1E1E1E1E1E1E1E1E1E1E1E1E1E1E1E1E1E1E1E1E1E1E1BEE1E1E1E1E1E1E1BE28E1E1E1E1E1E1BEE1BEE1E1E1BEE1E2E2E2E1E1E1E1BEBEBEBEBEBEE2BEBEBEE1BEE1E1BEE1BEE1E1E1E1E1
310
E1E1E1E1E1BEBEBEBEBEBEBEBEBEBEBEBEBEBEBEBEBEBEBEBEBEBEBEBE0F0FBE0FBEBEBEBEBEBEBEBEE1E1E128E1BEE1E1E1E1E1E1E1E1E1E1E1E1E1E1E1E1E1E1E1E1E1E1E1E1E1E1E1E1E1E1E1E1E1E1E1E1E1E1E1E1E1E1E1E1E1E1E1E1E1E1E1E1E1E1E1E1E1E1E1E1E1E1E1E1E1E1E1E1E1E1E1E1E1E1E1E1E1E1E1E1
310
E1E1E1E1E1E1E1E1E1E1E1E1E1E1E1E1E1E1E1E1E1E1E1E1E1E1E1E1E1E1E1E1E1E1E1E1E1E1E1E1E1E1E1E1E1E1E1E1E1E1E1E1E1E1E1E1E1E1E1E1E1E1E1E1E1E1E1E1E1E1E1E1E1E1E1E1BEE1E1E1E1E1E1E1E128E1E1E1E1E1E1BEE1BEE1E1E1BEE1E2E1E2E2E1E1E10F0FE1BEBEE2E2BEBEE1E1BEE1E1BEE1BEE1E1E1
310
E1E1E1E1E1E1E1E10F0F0F0F0F0F0F0F0F0F0F0F0F0FE1BEE1E1E1E1E1E1E10F0F0F0FE1E1E1E1E1E1E1BEE1E1E128E1BEE1E1E1E1E1E1E1E1E1E1E1E1E1E1E1E1E1E1E1E1E1E1E1E1E1E1E1E1E1E1E1E1E1E1E1E1E1E1E1E1E1E1E1E1E1E1E1E1E1E1E1E1E1E1E1E1E1E1E1E1E1E1E1E1E1E1E1E1E1E1E1E1E1E1E1E1E1E1
310
E1E1E1E1E1E1E1E1E1E1E1E1E1E1E1E1E1E1E1E1E1E1E1E1E1E1E1E1E1E1E1E1E1E1E1E1E1E1E1E1E1E1E1E1E1E1E1E1E1E1E1E1E1E1E1E1E1E1E1E1E1E1E1E1E1E1E1E1E1E1E1E1E1E1E1E1E1E1BEE1E1E1E1E1E1E1E128E1E1E1E1E1E1BEE1BEE1E1E1BEE1E1BEE2E2E1E1E10F0FE1E1E1BEBEE1E1E1E1BEE1E1BEE1BEE1
310
E1E1E1E1E1E1E1E1E1BEBEBEBEBEBEBEBEBEBEBEBEBEBEBEBEBEBEBEBEBEBEBE0F0F0F0F0FBEBEBEBEBEBEBEBEE1E1E128E1BEE1E1E1E1E1E1E1E1E1E1E1E1E1E1E1E1E1E1E1E1E1E1E1E1E1E1E1E1E1E1E1E1E1E1E1E1E1E1E1E1E1E1E1E1E1E1E1E1E1E1E1E1E1E1E1E1E1E1E1E1E1E1E1E1E1E1E1E1E1E1E1E1E1E1E1E1
310
E1E1E1E1E1E1E1E1E1E1E1E1E1E1E1E1E1E1E1E1E1E1E1E1E1E1E1E1E1E1E1E1E1E1E1E1E1E1E1E1E1E1E1E1E1E1E1E1E1E1E1E1E1E1E1E1E1E1E1E1E1E1E1E1E1E1E1E1E1E1E1E1E1E1E1E1E1E1E1E1BEE1E1E1E1E1E1E1E128E1E1E1E1E1E1BEE1BEE1E1E1BEE1E1BEE2E2E10F0FBEE1E1E1E1BEBEE1E1E1E1BEE1E1BEE1
310
BEE1E1E1E1E1E1E1E1E1E1E10F0F0F0F0F0F0F0F0F0F0F0FE1E1E1BEE1E1E10F0F0F0F0F0FE1E1E1E1E1E1E1E1E1BEE1E1E128E1BEE1E1E1E1E1E1E1E1E1E1E1E1E1E1E1E1E1E1E1E1E1E1E1E1E1E1E1E1E1E1E1E1E1E1E1E1E1E1E1E1E1E1E1E1E1E1E1E1E1E1E1E1E1E1E1E1E1E1E1E1E1E1E1E1E1E1E1E1E1E1E1E1E1E1
310
E1E1E1E1E1E1E1E1E1E1E1E1E1E1E1E1E1E1E1E1E1E1E1E1E1E1E1E1E1E1E1E1E1E1E1E1E1E1E1E1E1E1E1E1E1E1E1E1E1E1E1E1E1E1E1E1E1E1E1E1E1E1E1E1E1E1E1E1E1E1E1E1E1E1E1E1E1E1E1E1E1E1BEE1E1E1E1E1E1E1E128E1E1E1E1E1E1BEE1BEE1E1E1BEE1E2BEE2E2E10F0FBEE1E1E1E1BEBEE1E1E1E1BEE1E1
310
BEE1BEE1E1E1E1E1E1E1E1E1E1E10F0FE10F0F0F0FE1E1E10F0FE1E1E1BEE1E1E10FE1E1E10F0FE1E1E1E1E1E1E1E1E1BEE1E1E128E1BEE1E1E1E1E1E1E1E1E1E1E1E1E1E1E1E1E1E1E1E1E1E1E1E1E1E1E1E1E1E1E1E1E1E1E1E1E1E1E1E1E1E1E1E1E1E1E1E1E1E1E1E1E1E1E1E1E1E1E1E1E1E1E1E1E1E1E1E1E1E1E1E1
310
E1E1E1E1E1E1E1E1E1E1E1E1E1E1E1E1E1E1E1E1E1E1E1E1E1E1E1E1E1E1E1E1E1E1E1E1E1E1E1E1E1E1E1E1E1E1E1E1E1E1E1E1E1E1E1E1E1E1E1E1E1E1E1E1E1E1E1E1E1E1E1E1E1E1E1E1E1E1E1E1E1E1E1E1BEE1E1E1E1E1E1E1E128E1E1E1E1E1E1BEE1BEE1E1E1BEBEBEBEBEBEBE0F0FBEE1E1E1E1BEBEE1E1E1E1BE
310
E1E1BEE1BEE1E1E1E1E1E1E1E1E1E1E1E1E1E1E1E1E1E1E1E1E1E1E1E1E1E1BE0F0F0F0F0F0F0F0F0F0F0F0F0F0FE1E1E1E1BEE1E1E128E1BEE1E1E1E1E1E1E1E1E1E1E1E1E1E1E1E1E1E1E1E1E1E1E1E1E1E1E1E1E1E1E1E1E1E1E1E1E1E1E1E1E1E1E1E1E1E1E1E1E1E1E1E1E1E1E1E1E1E1E1E1E1E1E1E1E1E1E1E1E1E1
310
E1E1E1E1E1E1E1E1E1E1E1E1E1E1E1E1E1E1E1E1E1E1E1E1E1E1E1E1E1E1E1E1E1E1E1E1E1E1E1E1E1E1E1E1E1E1E1E1E1E1E1E1E1E1E1E1E1E1E1E1E1E1E1E1E1E1E1E1E1E1E1E1E1E1E1E1E1E1E1E1E1E1E1E1E1E1BEE1E1E1E1E1E1E1E128E1E1E1E1E1E1BEE1BEE1E1E1BEE1E2BEE2E2E1E10FBEE1E1E1E1BEBEE1E1E1
310
E1BEE1E1BEE1BEE1E1E1E1E1E1E1E1E1E1E1E1E1E1E1E1E1E1E1E1E1E1E1E1E1E1BE0F0F0F0F0F0F0F0F0F0F0F0F0F0F0F0F0F0FBEE1E1E128E1BEE1E1E1E1E1E1E1E1E1E1E1E1E1E1E1E1E1E1E1E1E1E1E1E1E1E1E1E1E1E1E1E1E1E1E1E1E1E1E1E1E1E1E1E1E1E1E1E1E1E1E1E1E1E1E1E1E1E1E1E1E1E1E1E1E1E1E1E1
310
E1E1E1E1E1E1E1E1E1E1E1E1E1E1E1E1E1E1E1E1E1E1E1E1E1E1E1E1E1E1E1E1E1E1E1E1E1E1E1E1E1E1E1E1E1E1E1E1E1E1E1E1E1E1E1E1E1E1E1E1E1E1E1E1E1E1E1E1E1E1E1E1E1E1E1E1E1E1E1E1E1E1E1E1E1E1E1E1BEE1E1E1E1E1E1E1E128E1E1E1E1E1E1BEE1BEE1E1E1BEE1E2BEE2E2E10F0FBEE1E1E1E1BEBEE1
310
E1E1E1BEE1E1BEE1BEE1E1E1E1E1E1E1E1E1E1E1E1E1E1E1E1E1E1E1E1E1E1E1E1E1E1BE0F0F0F0F0F0F0F0F0F0F0F0F0F0F0F0F0F0FBEE1E1E128E1BEE1E1E1E1E1E1E1E1E1E1E1E1E1E1E1E1E1E1E1E1E1E1E1E1E1E1E1E1E1E1E1E1E1E1E1E1E1E1E1E1E1E1E1E1E1E1E1E1E1E1E1E1E1E1E1E1E1E1E1E1E1E1E1E1E1E1
310
E1E1E1E1E1E1E1E1E1E1E1E1E1E1E1E1E1E1E1E1E1E1E1E1E1E1E1E1E1E1E1E1E1E1E1E1E1E1E1E1E1E1E1E1E1E1E1E1E1E1E1E1E1E1E1E1E1E1E1E1E1E1E1E1E1E1E1E1E1E1E1E1E1E1E1E1E1E1E1E1E1E1E1E1E1E1E1E1E1E1BEE1E1E1E1E1E1E1E128E1E1E1E1E1E1BEE1BEE1E1E1BEE1E2E2E2E2E10F0FBEE1E1E1E1BE
310
BEE1E1E1E1BEE1E1BEE1BEE1E1E1E1E1E1E1E1E1E1E1E1E1E1E1E1E1E1E1E1E1E1E1E1E1E1BE0F0F0F0F0FE1E1E10FE1E10F0F0F0FE1E1E1BEE1E1E128E1BEE1E1E1E1E1E1E1E1E1E1E1E1E1E1E1E1E1E1E1E1E1E1E1E1E1E1E1E1E1E1E1E1E1E1E1E1E1E1E1E1E1E1E1E1E1E1E1E1E1E1E1E1E1E1E1E1E1E1E1E1E1E1E1E1
310
E1E1E1E1E1E1E1E1E1E1E1E1E1E1E1E1E1E1E1E1E1E1E1E1E1E1E1E1E1E1E1E1E1E1E1E1E1E1E1E1E1E1E1E1E1E1E1E1E1E1E1E1E1E1E1E1E1E1E1E1E1E1E1E1E1E1E1E1E1E1E1E1E1E1E1E1E1E1E1E1E1E1E1E1E1E1E1E1E1E1E1E1BEE1E1E1E1E1E1E1E128E1E1E1E1E1E1BEE1BEE1E1E1BEE1E1E1E2E2E10F0FBEE1E1E1
310
E1BEBEE1E1E1E1BEE1E1BEE1BEE1E1E1E1E1E1E1E1E1E1E1E1E1E1E1E1E1E1E1E1E1E1E1E1E1E1E1E1E1E1E1E1E1E1E1E1E1E1E1E1E1E1E1E1E1E1E1E1E128E1BEE1E1E1E1E1E1E1E1E1E1E1E1E1E1E1E1E1E1E1E1E1E1E1E1E1E1E1E1E1E1E1E1E1E1E1E1E1E1E1E1E1E1E1E1E1E1E1E1E1E1E1E1E1E1E1E1E1E1E1E1E1E1
310
E1E1E1E1E1E1E1E1E1E1E1E1E1E1E1E1E1E1E1E1E1E1E1E1E1E1E1E1E1E1E1E1E1E1E1E1E1E1E1E1E1E1E1E1E1E1E1E1E1E1E1E1E1E1E1E1E1E1E1E1E1E1E1E1E1E1E1E1E1E1E1E1E1E1E1E1E1E1E1E1E1E1E1E1E1E1E1E1E1E1E1E1E1E1BEE1E1E1E1E1E1E1E128E1E1E1E1E1E1BEE1BEE1E1E1BEE1E1E1E2E2E10F0FBEE1
310
E1E1E1BEBEE1E1E1E1BEE1E1BEE1BEE1E1E1E1E1E1E1E1E1E1E1E1E1E1E1E1E1E1E1E1E1E1E1E1E1E1E1E1E1E1E1E1E1E1E1E1E1E1E1E1E1E1E1E1E1E1E1E1E128E1BEE1E1E1E1E1E1E1E1E1E1E1E1E1E1E1E1E1E1E1E1E1E1E1E1E1E1E1E1E1E1E1E1E1E1E1E1E1E1E1E1E1E1E1E1E1E1E1E1E1E1E1E1E1E1E1E1E1E1E1E1
310
E1E1E1E1E1E1E1E1E1E1E1E1E1E1E1E1E1E1E1E1E1E1E1E1E1E1E1E1E1E1E1E1E1E1E1E1E1E1E1E1E1E1E1E1E1E1E1E1E1E1E1E1E1E1E1E1E1E1E1E1E1E1E1E1E1E1E1E1E1E1E1E1E1E1E1E1E1E1E1E1E1E1E1E1E1E1E1E1E1E1E1E1E1E1E1E1BEE1E1E1E1E1E1E1E128E1E1E1E1E1E1BEE1BEBEE1E1BEE1E2E2E2E2E2E1E1
310
BEE1E1E1E1BEBEE1E1E1E1BEE1E1BEE1BEE1E1E1E1E1E1E1E1E1E1E1E1E1E1E1E1E1E1E1E1E1E1E1E1E1E1E1E1E1E1E1E1E1E1E1E1E1E1E1E1E1E1E1E1E1E1E1E1E128E1BEE1E1E1E1E1E1E1E1E1E1E1E1E1E1E1E1E1E1E1E1E1E1E1E1E1E1E1E1E1E1E1E1E1E1E1E1E1E1E1E1E1E1E1E1E1E1E1E1E1E1E1E1E1E1E1E1E1E1
310
E1E1E1E1E1E1E1E1E1E1E1E1E1E1E1E1E1E1E1E1E1E1E1E1E1E1E1E1E1E1E1E1E1E1E1E1E1E1E1E1E1E1E1E1E1E1E1E1E1E1E1E1E1E1E1E1E1E1E1E1E1E1E1E1E1E1E1E1E1E1E1E1E1E1E1E1E1E1E1E1E1E1E1E1E1E1E1E1E1E1E1E1E1E1E1E1E1E1BEE1E1E1E1E1E1E1E128E1E1E1E1E1E1BEE1BEBEE1E1BEE1E2E2E2E2E2
310
BEBEE1E1E1E1E1BEBEE1E1E1E1BEBEE1BEE1BEE1E1E1E1E1E1E1E1E1E1E1E1E1E1E1E1E1E1E1E1E1E1E1E1E1E1E1E1E1E1E1E1E1E1E1E1E1E1E1E1E1E1E1E1E1E1E1E1E128E1BEE1E1E1E1E1E1E1E1E1E1E1E1E1E1E1E1E1E1E1E1E1E1E1E1E1E1E1E1E1E1E1E1E1E1E1E1E1E1E1E1E1E1E1E1E1E1E1E1E1E1E1E1E1E1E1E1
310
E1E1E1E1E1E1E1E1E1E1E1E1E1E1E1E1E1E1E1E1E1E1E1E1E1E1E1E1E1E1E1E1E1E1E1E1E1E1E1E1E1E1E1E1E1E1E1E1E1E1E1E1E1E1E1E1E1E1E1E1E1E1E1E1E1E1E1E1E1E1E1E1E1E1E1E1E1E1E1E1E1E1E1E1E1E1E1E1E1E1E1E1E1E1E1E1E1E1E1E1BEE1E1E1E1E1E1E1E128E1E1E1E1E1E1BEE1BEBEBEBEBEE2BEBEBE
310
BEE2BEE1E1E1E1BEE1BEBEE1E1E1E1BEBEE1BEE1BEE1E1E1E1E1E1E1E1E1E1E1E1E1E1E1E1E1E1E1E1E1E1E1E1E1E1E1E1E1E1E1E1E1E1E1E1E1E1E1E1E1E1E1E1E1E1E1E1E128E1BEE1E1E1E1E1E1E1E1E1E1E1E1E1E1E1E1E1E1E1E1E1E1E1E1E1E1E1E1E1E1E1E1E1E1E1E1E1E1E1E1E1E1E1E1E1E1E1E1E1E1E1E1E1E1
310
E1E1E1E1E1E1E1E1E1E1E1E1E1E1E1E1E1E1E1E1E1E1E1E1E1E1E1E1E1E1E1E1E1E1E1E1E1E1E1E1E1E1E1E1E1E1E1E1E1E1E1E1E1E1E1E1E1E1E1E1E1E1E1E1E1E1E1E1E1E1E1E1E1E1E1E1E1E1E1E1E1E1E1E1E1E1E1E1E1E1E1E1E1E1E1E1E1E1E1E1E1E1BEE1E1E1E1E1E1E1E128E1E1E1E1E1E1BEE1E1E1E1E1BEE1E2
310
E2E22828E1E1E1E1E2E2BEBEBEBEBEBEBEBEBEE1BEE1BEE1E1E1E1E1E1E1E1E1E1E1E1E1E1E1E1E1E1E1E1E1E1E1E1E1E1E1E1E1E1E1E1E1E1E1E1E1E1E1E1E1E1E1E1E1E1E1E1E128E1BEE1E1E1E1E1E1E1E1E1E1E1E1E1E1E1E1E1E1E1E1E1E1E1E1E1E1E1E1E1E1E1E1E1E1E1E1E1E1E1E1E1E1E1E1E1E1E1E1E1E1E1E1
310
E1E1E1E1E1E1E1E1E1E1E1E1E1E1E1E1E1E1E1E1E1E1E1E1E1E1E1E1E1E1E1E1E1E1E1E1E1E1E1E1E1E1E1E1E1E1E1E1E1E1E1E1E1E1E1E1E1E1E1E1E1E1E1E1E1E1E1E1E1E1E1E1E1E1E1E1E1E1E1E1E1E1E1E1E1E1E1E1E1E1E1E1E1E1E1E1E1E1E1E1E1E1E1E1BEE1E1E1E1E1E1E1E128E1E1E1E1E1E1BEE1E1E1E1E1BE
310
E1E1E2E2E2E2E2E2E2BEE2BEE2BEE2BEBEBEBEBEBEBEBEBEBEE1E1E1E1E1E1E1E1E1E1E1E1E1E1E1E1E1E1E1E1E1E1E1E1E1E1E1E1E1E1E1E1E1E1E1E1E1E1E1E1E1E1E1E1E1E1E1E1E128E1BEE1E1E1E1E1E1E1E1E1E1E1E1E1E1E1E1E1E1E1E1E1E1E1E1E1E1E1E1E1E1E1E1E1E1E1E1E1E1E1E1E1E1E1E1E1E1E1E1E1E1
310
E1E1E1E1E1E1E1E1E1E1E1E1E1E1E1E1E1E1E1E1E1E1E1E1E1E1E1E1E1E1E1E1E1E1E1E1E1E1E1E1E1E1E1E1E1E1E1E1E1E1E1E1E1E1E1E1E1E1E1E1E1E1E1E1E1E1E1E1E1E1E1E1E1E1E1E1E1E1E1E1E1E1E1E1E1E1E1E1E1E1E1E1E1E1E1E1E1E1E1E1E1E1E1E1E1E1BEE1E1E1E1E1E1E1E128E1E1E1E1E1BEBEBEBEBEBE
310
BEBEBEBEBEBE28E2E2E2E2E2E2BEE2BEE2E1E1E1E1E1E1E1E1E1BEE1E1E1E1E1E1E1E1E1E1E1E1E1E1E1E1E1E1E1E1E1E1E1E1E1E1E1E1E1E1E1E1E1E1E1E1E1E1E1E1E1E1E1E1E1E1E1E1E128E1BEE1E1E1E1E1E1E1E1E1E1E1E1E1E1E1E1E1E1E1E1E1E1E1E1E1E1E1E1E1E1E1E1E1E1E1E1E1E1E1E1E1E1E1E1E1E1E1E1
310
E1E1E1E1E1E1E1E1E1E1E1E1E1E1E1E1E1E1E1E1E1E1E1E1E1E1E1E1E1E1E1E1E1E1E1E1E1E1E1E1E1E1E1E1E1E1E1E1E1E1E1E1E1E1E1E1E1E1E1E1E1E1E1E1E1E1E1E1E1E1E1E1E1E1E1E1E1E1E1E1E1E1E1E1E1E1E1E1E1E1E1E1E1E1E1E1E1E1E1E1E1E1E1E1E1E1E1E1BEE1E1E1E1E1E1E1E128E1E1E1E1E1E1E1E1E1
310
E1E1E1BEE1E1E2BEE2E2E2E2BEE2E2BEE2E2E2BEBEBEBEBEBEBEBEBEBEBEE1E1E1E1E1E1E1E1E1E1E1E1E1E1E1E1E1E1E1E1E1E1E1E1E1E1E1E1E1E1E1E1E1E1E1E1E1E1E1E1E1E1E1E1E1E1E1E128E1BEE1E1E1E1E1E1E1E1E1E1E1E1E1E1E1E1E1E1E1E1E1E1E1E1E1E1E1E1E1E1E1E1E1E1E1E1E1E1E1E1E1E1E1E1E1E1
310
E1E1E1E1E1E1E1E1E1E1E1E1E1E1E1E1E1E1E1E1E1E1E1E1E1E1E1E1E1E1E1E1E1E1E1E1E1E1E1E1E1E1E1E1E1E1E1E1E1E1E1E1E1E1E1E1E1E1E1E1E1E1E1E1E1E1E1E1E1E1E1E1E1E1E1E1E1E1E1E1E1E1E1E1E1E1E1E1E1E1E1E1E1E1E1E1E1E1E1E1E1E1E1E1E1E1E1E1E1E1BEE1E1E1E1E1E1E1E128E1E1E1E1E1E1E1
310
E1E1E1E1E1BEE1E1E1BEE1E1E1E1E1BEBEBEE1E1BEE1E1E1E1E1E1E1E1E1E1E1E1E1E1E1E1E1E1E1E1E1E1E1E1E1E1E1E1E1E1E1E1E1E1E1E1E1E1E1E1E1E1E1E1E1E1E1E1E1E1E1E1E1E1E1E1E1E1E128E1BEE1E1E1E1E1E1E1E1E1E1E1E1E1E1E1E1E1E1E1E1E1E1E1E1E1E1E1E1E1E1E1E1E1E1E1E1E1E1E1E1E1E1E1E1
310
E1E1E1E1E1E1E1E1E1E1E1E1E1E1E1E1E1E1E1E1E1E1E1E1E1E1E1E1E1E1E1E1E1E1E1E1E1E1E1E1E1E1E1E1E1E1E1E1E1E1E1E1E1E1E1E1E1E1E1E1E1E1E1E1E1E1E1E1E1E1E1E1E1E1E1E1E1E1E1E1E1E1E1E1E1E1E1E1E1E1E1E1E1E1E1E1E1E1E1E1E1E1E1E1E1E1E1E1E1E1E1E1BEE1E1E1E1E1E1E1E128E1E1E1E1E1
310
E1E1E1E1E1E1E1BEE1E1BEE1E1E1E1E1E1E1E1BEE1E1BEE1E1E1E1E1E1E1E1E1E1E1E1E1E1E1E1E1E1E1E1E1E1E1E1E1E1E1E1E1E1E1E1E1E1E1E1E1E1E1E1E1E1E1E1E1E1E1E1E1E1E1E1E1E1E1E1E1E1E128E1BEE1E1E1E1E1E1E1E1E1E1E1E1E1E1E1E1E1E1E1E1E1E1E1E1E1E1E1E1E1E1E1E1E1E1E1E1E1E1E1E1E1E1
310
E1E1E1E1E1E1E1E1E1E1E1E1E1E1E1E1E1E1E1E1E1E1E1E1E1E1E1E1E1E1E1E1E1E1E1E1E1E1E1E1E1E1E1E1E1E1E1E1E1E1E1E1E1E1E1E1E1E1E1E1E1E1E1E1E1E1E1E1E1E1E1E1E1E1E1E1E1E1E1E1E1E1E1E1E1E1E1E1E1E1E1E1E1E1E1E1E1E1E1E1E1E1E1E1E1E1E1E1E1E1E1E1E1E1BEE1E1E1E1E1E1E1E128E1E1E1
310
E1E1E1E1E1E1E1E1E1BEE1BEE1E1E1E1E1E1E1E1BEBEBEBEBEBEBEBE0F0FBEE1E1E1E1E1E1E1E1E1E1E1E1E1E1E1E1E1E1E1E1E1E1E1E1E1E1E1E1E1E1E1E1E1E1E1E1E1E1E1E1E1E1E1E1E1E1E1E1E1E1E1E1E128E1BEE1E1E1E1E1E1E1E1E1E1E1E1E1E1E1E1E1E1E1E1E1E1E1E1E1E1E1E1E1E1E1E1E1E1E1E1E1E1E1E1
310
E1E1E1E1E1E1E1E1E1E1E1E1E1E1E1E1E1E1E1E1E1E1E1E1E1E1E1E1E1E1E1E1E1E1E1E1E1E1E1E1E1E1E1E1E1E1E1E1E1E1E1E1E1E1E1E1E1E1E1E1E1E1E1E1E1E1E1E1E1E1E1E1E1E1E1E1E1E1E1E1E1E1E1E1E1E1E1E1E1E1E1E1E1E1E1E1E1E1E1E1E1E1E1E1E1E1E1E1E1E1E1E1E1E1E1E1BEE1E1E1E1E1E1E1E128E1
310
E1E1E1E1E1E1E1E1E1E1E1BEE1BEE1E1E1E1E1E1E1E1E1E1E1BEBEE1E1E10F0FE1E1E1E1E1E1E1E1E1E1E1E1E1E1E1E1E1E1E1E1E1E1E1E1E1E1E1E1E1E1E1E1E1E1E1E1E1E1E1E1E1E1E1E1E1E1E1E1E1E1E1E1E1E128E1BEE1E1E1E1E1E1E1E1E1E1E1E1E1E1E1E1E1E1E1E1E1E1E1E1E1E1E1E1E1E1E1E1E1E1E1E1E1E1
310
E1E1E1E1E1E1E1E1E1E1E1E1E1E1E1E1E1E1E1E1E1E1E1E1E1E1E1E1E1E1E1E1E1E1E1E1E1E1E1E1E1E1E1E1E1E1E1E1E1E1E1E1E1E1E1E1E1E1E1E1E1E1E1E1E1E1E1E1E1E1E1E1E1E1E1E1E1E1E1E1E1E1E1E1E1E1E1E1E1E1E1E1E1E1E1E1E1E1E1E1E1E1E1E1E1E1E1E1E1E1E1E1E1E1E1E1E1E1BEE1E1E1E1E1E1E1E1
310
28E1E1E1E1E1E1E1E1E1E1E1E1E2BEBEBEBEBEBE0F0FBEBEBEBEBEBEBEBEE1E1E1E1E1E1E1E1E1E1E1E1E1E1E1E1E1E1E1E1E1E1E1E1E1E1E1E1E1E1E1E1E1E1E1E1E1E1E1E1E1E1E1E1E1E1E1E1E1E1E1E1E1E1E1E1E1E128E1BEE1E1E1E1E1E1E1E1E1E1E1E1E1E1E1E1E1E1E1E1E1E1E1E1E1E1E1E1E1E1E1E1E1E1E1E1
310
E1E1E1E1E1E1E1E1E1E1E1E1E1E1E1E1E1E1E1E1E1E1E1E1E1E1E1E1E1E1E1E1E1E1E1E1E1E1E1E1E1E1E1E1E1E1E1E1E1E1E1E1E1E1E1E1E1E1E1E1E1E1E1E1E1E1E1E1E1E1E1E1E1E1E1E1E1E1E1E1E1E1E1E1E1E1E1E1E1E1E1E1E1E1E1E1E1E1E1E1E1E1E1E1E1E1E1E1E1E1E1E1E1E1E1E1E1E1E1E1BEE1E1E1E1E1E1
310
E1E128E1E1E1E1E1E1E1E1E1E1E1E1BEE1E1E1E1E1E10F0FE1E1E1E1E1E1BEE1BEE1E1E1E1E1E1E1E1E1E1E1E1E1E1E1E1E1E1E1E1E1E1E1E1E1E1E1E1E1E1E1E1E1E1E1E1E1E1E1E1E1E1E1E1E1E1E1E1E1E1E1E1E1E1E1E1E128E1BEE1E1E1E1E1E1E1E1E1E1E1E1E1E1E1E1E1E1E1E1E1E1E1E1E1E1E1E1E1E1E1E1E1E1
310
E1E1E1E1E1E1E1E1E1E1E1E1E1E1E1E1E1E1E1E1E1E1E1E1E1E1E1E1E1E1E1E1E1E1E1E1E1E1E1E1E1E1E1E1E1E1E1E1E1E1E1E1E1E1E1E1E1E1E1E1E1E1E1E1E1E1E1E1E1E1E1E1E1E1E1E1E1E1E1E1E1E1E1E1E1E1E1E1E1E1E1E1E1E1E1E1E1E1E1E1E1E1E1E1E1E1E1E1E1E1E1E1E1E1E1E1E1E1E1E1E1E1BEE1E1E1E1
310
E1E1E1E128E1E1E1E1E1E1E1E1E1E1E1E1BEE1E1E1E1E1E10F0FE1E1E1E1E1E1E1E1E1BEBEE1E1E1E1E1E1E1E1E1E1E1E1E1E1E1E1E1E1E1E1E1E1E1E1E1E1E1E1E1E1E1E1E1E1E1E1E1E1E1E1E1E1E1E1E1E1E1E1E1E1E1E1E1E1E128E1BEE1E1E1E1E1E1E1E1E1E1E1E1E1E1E1E1E1E1E1E1E1E1E1E1E1E1E1E1E1E1E1E1
310
E1E1E1E1E1E1E1E1E1E1E1E1E1E1E1E1E1E1E1E1E1E1E1E1E1E1E1E1E1E1E1E1E1E1E1E1E1E1E1E1E1E1E1E1E1E1E1E1E1E1E1E1E1E1E1E1E1E1E1E1E1E1E1E1E1E1E1E1E1E1E1E1E1E1E1E1E1E1E1E1E1E1E1E1E1E1E1E1E1E1E1E1E1E1E1E1E1E1E1E1E1E1E1E1E1E1E1E1E1E1E1E1E1E1E1E1E1E1E1E1E1E1E1E1BEE1E1
310
E1E1E1E1E1E128E1E1E1E1E1E1E1E1E1E1E1BEE1E1E1E1E1E1E1E1E1E1E1E1E1E1E1E1E1E1E1E10FBEBEBEBEBEBEBEBEE1E1E1E1E1E1E1E1E1E1E1E1E1E1E1E1E1E1E1E1E1E1E1E1E1E1E1E1E1E1E1E1E1E1E1E1E1E1E1E1E1E1E1E1E1E128E1BEE1E1E1E1E1E1E1E1E1E1E1E1E1E1E1E1E1E1E1E1E1E1E1E1E1E1E1E1E1E1
310
E1E1E1E1E1E1E1E1E1E1E1E1E1E1E1E1E1E1E1E1E1E1E1E1E1E1E1E1E1E1E1E1E1E1E1E1E1E1E1E1E1E1E1E1E1E1E1E1E1E1E1E1E1E1E1E1E1E1E1E1E1E1E1E1E1E1E1E1E1E1E1E1E1E1E1E1E1E1E1E1E1E1E1E1E1E1E1E1E1E1E1E1E1E1E1E1E1E1E1E1E1E1E1E1E1E1E1E1E1E1E1E1E1E1E1E1E1E1E1E1E1E1E1E1E1E1BE
310
E1E1E1E1E1E1E1E128E1E1E1E1E1E1E1E1E1E1E1BEE1E1E1E1E1E1E1E1E1E1E1E1E1E1E1E1E1E1E1E10F0F0F0F0F0F0F0FE1E1E1E1E1E1E1E1E1E1E1E1E1E1E1E1E1E1E1E1E1E1E1E1E1E1E1E1E1E1E1E1E1E1E1E1E1E1E1E1E1E1E1E1E1E1E128E1BEE1E1E1E1E1E1E1E1E1E1E1E1E1E1E1E1E1E1E1E1E1E1E1E1E1E1E1E1
310
E1E1E1E1E1E1E1E1E1E1E1E1E1E1E1E1E1E1E1E1E1E1E1E1E1E1E1E1E1E1E1E1E1E1E1E1E1E1E1E1E1E1E1E1E1E1E1E1E1E1E1E1E1E1E1E1E1E1E1E1E1E1E1E1E1E1E1E1E1E1E1E1E1E1E1E1E1E1E1E1E1E1E1E1E1E1E1E1E1E1E1E1E1E1E1E1E1E1E1E1E1E1E1E1E1E1E1E1E1E1E1E1E1E1E1E1E1E1E1E1E1E1E1E1E1E1E1
310
E1BEE1E1E1E1E1E1E1E128E1E1E1E1E1E1E1E1E1E1BEE1E1E1E1E1E1E1E1E1E1E1E1E1E1E1E1E1E1E1E1E10F0F0F0F0F0F0F0FE1E1E1E1E1E1E1E1E1E1E1E1E1E1E1E1E1E1E1E1E1E1E1E1E1E1E1E1E1E1E1E1E1E1E1E1E1E1E1E1E1E1E1E1E1E1E128E1BEE1E1E1E1E1E1E1E1E1E1E1E1E1E1E1E1E1E1E1E1E1E1E1E1E1E1
310
E1E1E1E1E1E1E1E1E1E1E1E1E1E1E1E1E1E1E1E1E1E1E1E1E1E1E1E1E1E1E1E1E1E1E1E1E1E1E1E1E1E1E1E1E1E1E1E1E1E1E1E1E1E1E1E1E1E1E1E1E1E1E1E1E1E1E1E1E1E1E1E1E1E1E1E1E1E1E1E1E1E1E1E1E1E1E1E1E1E1E1E1E1E1E1E1E1E1E1E1E1E1E1E1E1E1E1E1E1E1E1E1E1E1E1E1E1E1E1E1E1E1E1E1E1E1E1
310
E1E1E1BEE1E1E1E1E1E1E1E128E1E1E1E1E1E1E1E1E1BEE1E1E1E1E1E1E1E1E1E1E1E1E1E1E1E1E1E1E1E1E1E10F0F0F0F0F0F0F0F0FE1E1E1E1E1E1E1E1E1E1E1E1E1E1E1E1E1E1E1E1E1E1E1E1E1E1E1E1E1E1E1E1E1E1E1E1E1E1E1E1E1E1E1E1E1E128E1BEE1E1E1E1E1E1E1E1E1E1E1E1E1E1E1E1E1E1E1E1E1E1E1E1
310
E1E1E1E1E1E1E1E1E1E1E1E1E1E1E1E1E1E1E1E1E1E1E1E1E1E1E1E1E1E1E1E1E1E1E1E1E1E1E1E1E1E1E1E1E1E1E1E1E1E1E1E1E1E1E1E1E1E1E1E1E1E1E1E1E1E1E1E1E1E1E1E1E1E1E1E1E1E1E1E1E1E1E1E1E1E1E1E1E1E1E1E1E1E1E1E1E1E1E1E1E1E1E1E1E1E1E1E1E1E1E1E1E1E1E1E1E1E1E1E1E1E1E1E1E1E1E1
310
E1E1E1E1E1BEE1E1E1E1E1E1E1E128E1E1E1E1E1E1E1E1E1BEE1E1E1E1E1E1E1E1E1E1E1E1E1E1E1E1E1E1E1E1E1E10F0F0F0F0F0F0F0F0F0FE1E1E1E1E1E1E1E1E1E1E1E1E1E1E1E1E1E1E1E1E1E1E1E1E1E1E1E1E1E1E1E1E1E1E1E1E1E1E1E1E1E1E1E1E128E1BEE1E1E1E1E1E1E1E1E1E1E1E1E1E1E1E1E1E1E1E1E1E1
310
E1E1E1E1E1E1E1E1E1E1E1E1E1E1E1E1E1E1E1E1E1E1E1E1E1E1E1E1E1E1E1E1E1E1E1E1E1E1E1E1E1E1E1E1E1E1E1E1E1E1E1E1E1E1E1E1E1E1E1E1E1E1E1E1E1E1E1E1E1E1E1E1E1E1E1E1E1E1E1E1E1E1E1E1E1E1E1E1E1E1E1E1E1E1E1E1E1E1E1E1E1E1E1E1E1E1E1E1E1E1E1E1E1E1E1E1E1E1E1E1E1E1E1E1E1E1E1
310
E1E1E1E1E1E1E1BEE1E1E1E1E1E1E1E128E1E1E1E1E1E1E1E1BEBEBEBEBEBEBEBEBEBEBEBEBEBEBEBEBEBEBEBEBEBEBEBEBEE1E1E1E1E1E1E1E1E1E1E1E1E1E1E1E1E1E1E1E1E1E1E1E1E1E1E1E1E1E1E1E1E1E1E1E1E1E1E1E1E1E1E1E1E1E1E1E1E1E1E1E1E1E128E1BEE1E1E1E1E1E1E1E1E1E1E1E1E1E1E1E1E1E1E1E1
310
E1E1E1E1E1E1E1E1E1E1E1E1E1E1E1E1E1E1E1E1E1E1E1E1E1E1E1E1E1E1E1E1E1E1E1E1E1E1E1E1E1E1E1E1E1E1E1E1E1E1E1E1E1E1E1E1E1E1E1E1E1E1E1E1E1E1E1E1E1E1E1E1E1E1E1E1E1E1E1E1E1E1E1E1E1E1E1E1E1E1E1E1E1E1E1E1E1E1E1E1E1E1E1E1E1E1E1E1E1E1E1E1E1E1E1E1E1E1E1E1E1E1E1E1E1E1E1
310
E1E1E1E1E1E1E1E1E1BEE1E1E1E1E1E1E1E128E1E1E1E1E1E1E1E1E10F0F0F0F0F0F0F0F0F0F0FE10F0F0F0F0F0FE10F0FE1E1E1E1E1E1E1E1E1E1E1E1E1E1E1E1E1E1E1E1E1E1E1E1E1E1E1E1E1E1E1E1E1E1E1E1E1E1E1E1E1E1E1E1E1E1E1E1E1E1E1E1E1E1E1E1E128E1BEE1E1E1E1E1E1E1E1E1E1E1E1E1E1E1E1E1E1
310
E1E1E1E1E1E1E1E1E1E1E1E1E1E1E1E1E1E1E1E1E1E1E1E1E1E1E1E1E1E1E1E1E1E1E1E1E1E1E1E1E1E1E1E1E1E1E1E1E1E1E1E1E1E1E1E1E1E1E1E1E1E1E1E1E1E1E1E1E1E1E1E1E1E1E1E1E1E1E1E1E1E1E1E1E1E1E1E1E1E1E1E1E1E1E1E1E1E1E1E1E1E1E1E1E1E1E1E1E1E1E1E1E1E1E1E1E1E1E1E1E1E1E1E1E1E1E1
310
E1E1E1E1E1E1E1E1E1E1E1BEE1E1E1E1E1E1E1E128E1E1E1E1E1E1E1E1E10F0F0F0F0F0F0F0F0F0F0F0F0F0F0F0F0F0F0F0F0F0F0FE1E1E1E1E1E1E1E1E1E1E1E1E1E1E1E1E1E1E1E1E1E1E1E1E1E1E1E1E1E1E1E1E1E1E1E1E1E1E1E1E1E1E1E1E1E1E1E1E1E1E1E1E1E1E128E1BEE1E1E1E1E1E1E1E1E1E1E1E1E1E1E1E1
310
E1E1E1E1E1E1E1E1E1E1E1E1E1E1E1E1E1E1E1E1E1E1E1E1E1E1E1E1E1E1E1E1E1E1E1E1E1E1E1E1E1E1E1E1E1E1E1E1E1E1E1E1E1E1E1E1E1E1E1E1E1E1E1E1E1E1E1E1E1E1E1E1E1E1E1E1E1E1E1E1E1E1E1E1E1E1E1E1E1E1E1E1E1E1E1E1E1E1E1E1E1E1E1E1E1E1E1E1E1E1E1E1E1E1E1E1E1E1E1E1E1E1E1E1E1E1E1
310
E1E1E1E1E1E1E1E1E1E1E1E1E1BEE1E1E1E1E1E1E1E128E1E1E1E1E1E1E1E1E10F0F0F0F0F0F0F0F0F0F0F0F0F0F0F0F0F0F0F0FE1E10FE1E1E1E1E1E1E1E1E1E1E1E1E1E1E1E1E1E1E1E1E1E1E1E1E1E1E1E1E1E1E1E1E1E1E1E1E1E1E1E1E1E1E1E1E1E1E1E1E1E1E1E1E1E1E128E1BEE1E1E1E1E1E1E1E1E1E1E1E1E1E1
310
E1E1E1E1E1E1E1E1E1E1E1E1E1E1E1E1E1E1E1E1E1E1E1E1E1E1E1E1E1E1E1E1E1E1E1E1E1E1E1E1E1E1E1E1E1E1E1E1E1E1E1E1E1E1E1E1E1E1E1E1E1E1E1E1E1E1E1E1E1E1E1E1E1E1E1E1E1E1E1E1E1E1E1E1E1E1E1E1E1E1E1E1E1E1E1E1E1E1E1E1E1E1E1E1E1E1E1E1E1E1E1E1E1E1E1E1E1E1E1E1E1E1E1E1E1E1E1
310
E1E1E1E1E1E1E1E1E1E1E1E1E1E1E1BEE1E1E1E1E1E1E1E128E1E1E1E1E1E1E1E1E1E1E1E1E1E1E1E1E1E1E1E1E1E1E1E1E1E1E1E1E1E1E1E1E1E1E1E1E1E1E1E1E1E1E1E1E1E1E1E1E1E1E1E1E1E1E1E1E1E1E1E1E1E1E1E1E1E1E1E1E1E1E1E1E1E1E1E1E1E1E1E1E1E1E1E1E1E1E128E1BEE1E1E1E1E1E1E1E1E1E1E1E1
310
E1E1E1E1E1E1E1E1E1E1E1E1E1E1E1E1E1E1E1E1E1E1E1E1E1E1E1E1E1E1E1E1E1E1E1E1E1E1E1E1E1E1E1E1E1E1E1E1E1E1E1E1E1E1E1E1E1E1E1E1E1E1E1E1E1E1E1E1E1E1E1E1E1E1E1E1E1E1E1E1E1E1E1E1E1E1E1E1E1E1E1E1E1E1E1E1E1E1E1E1E1E1E1E1E1E1E1E1E1E1E1E1E1E1E1E1E1E1E1E1E1E1E1E1E1E1E1
310
E1E1E1E1E1E1E1E1E1E1E1E1E1E1E1E1E1BEE1E1E1E1E1E1E1E128E1E1E1E1E1E1E1E1E1E1E1E1E1E1E1E1E1E1E1E1E1E1E1E1E1E1E1E1E1E1E1E1E1E1E1E1E1E1E1E1E1E1E1E1E1E1E1E1E1E1E1E1E1E1E1E1E1E1E1E1E1E1E1E1E1E1E1E1E1E1E1E1E1E1E1E1E1E1E1E1E1E1E1E1E1E1E128E1BEE1E1E1E1E1E1E1E1E1E1
310
E1E1E1E1E1E1E1E1E1E1E1E1E1E1E1E1E1E1E1E1E1E1E1E1E1E1E1E1E1E1E1E1E1E1E1E1E1E1E1E1E1E1E1E1E1E1E1E1E1E1E1E1E1E1E1E1E1E1E1E1E1E1E1E1E1E1E1E1E1E1E1E1E1E1E1E1E1E1E1E1E1E1E1E1E1E1E1E1E1E1E1E1E1E1E1E1E1E1E1E1E1E1E1E1E1E1E1E1E1E1E1E1E1E1E1E1E1E1E1E1E1E1E1E1E1E1E1
310
E1E1E1E1E1E1E1E1E1E1E1E1E1E1E1E1E1E1E1BEE1E1E1E1E1E1E1E128E1E1E1E1E1E1E1E1E1E1E1E1E1E1E1E1E1E1E1E1E1E1E1E1E1E1E1E1E1E1E1E1E1E1E1E1E1E1E1E1E1E1E1E1E1E1E1E1E1E1E1E1E1E1E1E1E1E1E1E1E1E1E1E1E1E1E1E1E1E1E1E1E1E1E1E1E1E1E1E1E1E1E1E1E1E1E128E1BEE1E1E1E1E1E1E1E1
310
E1E1E1E1E1E1E1E1E1E1E1E1E1E1E1E1E1E1E1E1E1E1E1E1E1E1E1E1E1E1E1E1E1E1E1E1E1E1E1E1E1E1E1E1E1E1E1E1E1E1E1E1E1E1E1E1E1E1E1E1E1E1E1E1E1E1E1E1E1E1E1E1E1E1E1E1E1E1E1E1E1E1E1E1E1E1E1E1E1E1E1E1E1E1E1E1E1E1E1E1E1E1E1E1E1E1E1E1E1E1E1E1E1E1E1E1E1E1E1E1E1E1E1E1E1E1E1
310
E1E1E1E1E1E1E1E1E1E1E1E1E1E1E1E1E1E1E1E1E1BEE1E1E1E1E1E1E1E12828282828282828282828282828282828282828282828282828282828282828282828282828282828282828282828282828282828282828282828282828282828282828282828282828282828282828282828282828282828E1BEE1E1E1E1E1E1
310
E1E1E1E1E1E1E1E1E1E1E1E1E1E1E1E1E1E1E1E1E1E1E1E1E1E1E1E1E1E1E1E1E1E1E1E1E1E1E1E1E1E1E1E1E1E1E1E1E1E1E1E1E1E1E1E1E1E1E1E1E1E1E1E1E1E1E1E1E1E1E1E1E1E1E1E1E1E1E1E1E1E1E1E1E1E1E1E1E1E1E1E1E1E1E1E1E1E1E1E1E1E1E1E1E1E1E1E1E1E1E1E1E1E1E1E1E1E1E1E1E1E1E1E1E1E1E1
310
E1E1E1E1E1E1E1E1E1E1E1E1E1E1E1E1E1E1E1E1E1E1E1BEBEBEBEBEBEBEBEBEBEBEBEBEBEBEBEBEBEBEBEBEBEBEBEBEBEBEBEBEBEBEBEBEBEBEBEBEBEBEBEBEBEBEBEBEBEBEBEBEBEBEBEBEBEBEBEBEBEBEBEBEBEBEBEBEBEBEBEBEBEBEBEBEBEBEBEBEBEBEBEBEBEBEBEBEBEBEBEBEBEBEBEBEBEBEBEBEBEBEBEE1E1E1E1
310
E1E1E1E1E1E1E1E1E1E1E1E1E1E1E1E1E1E1E1E1E1E1E1E1E1E1E1E1E1E1E1E1E1E1E1E1E1E1E1E1E1E1E1E1E1E1E1E1E1E1E1E1E1E1E1E1E1E1E1E1E1E1E1E1E1E1E1E1E1E1E1E1E1E1E1E1E1E1E1E1E1E1E1E1E1E1E1E1E1E1E1E1E1E1E1E1E1E1E1E1E1E1E1E1E1E1E1E1E1E1E1E1E1E1E1E1E1E1E1E1E1E1E1E1E1E1E1
310
E1E1E1E1E1E1E1E1E1E1E1E1E1E1E1E1E1E1E1E1E1E1E1E1E1E1E1E1E1E1E1E1E1E1E1E1E1E1E1E1E1E1E1E1E1E1E1E1E1E1E1E1E1E1E1E1E1E1E1E1E1E1E1E1E1E1E1E1E1E1E1E1E1E1E1E1E1E1E1E1E1E1E1E1E1E1E1E1E1E1E1E1E1E1E1E1E1E1E1E1E1E1E1E1E1E1E1E1E1E1E1E1E1E1E1E1E1E1E1E1E1E1E1E1E1E1E1
310
E1E1E1E1E1E1E1E1E1E1E1E1E1E1E1E1E1E1E1E1E1E1E1E1E1E1E1E1E1E1E1E1E1E1E1E1E1E1E1E1E1E1E1E1E1E1E1E1E1E1E1E1E1E1E1E1E1E1E1E1E1E1E1E1E1E1E1E1E1E1E1E1E1E1E1E1
  0
XRECORD
  5
15096
102
{ACAD_REACTORS
330
14F91
102
}
330
14F91
100
AcDbXrecord
280
     1
102
MATERIAL
148
0.0
149
0.0
149
0.0
 93
        0
 94
      127
282
     0
 72
     0
 77
     0
171
     0
175
     0
179
     0
273
     0
  0
XRECORD
  5
14F93
102
{ACAD_REACTORS
330
14F91
102
}
330
14F91
100
AcDbXrecord
280
     1
270
     1
271
     1
  0
XRECORD
  5
14F92
102
{ACAD_REACTORS
330
14F91
102
}
330
14F91
100
AcDbXrecord
280
     1
270
     1
271
     1
  0
XRECORD
  5
14F96
102
{ACAD_REACTORS
330
14F91
102
}
330
14F91
100
AcDbXrecord
280
     1
270
     1
271
     1
  0
XRECORD
  5
14F95
102
{ACAD_REACTORS
330
14F91
102
}
330
14F91
100
AcDbXrecord
280
     1
270
     1
271
     1
  0
XRECORD
  5
14F97
102
{ACAD_REACTORS
330
14F91
102
}
330
14F91
100
AcDbXrecord
280
     1
270
     1
271
     1
  0
XRECORD
  5
14F94
102
{ACAD_REACTORS
330
14F91
102
}
330
14F91
100
AcDbXrecord
280
     1
270
     1
271
     1
  0
XRECORD
  5
15095
102
{ACAD_REACTORS
330
14F89
102
}
330
14F89
100
AcDbXrecord
280
     1
102
MATERIAL
148
0.0
149
0.0
149
0.0
 93
        0
 94
      127
282
     0
 72
     0
 77
     0
171
     0
175
     0
179
     0
273
     0
  0
XRECORD
  5
14F8B
102
{ACAD_REACTORS
330
14F89
102
}
330
14F89
100
AcDbXrecord
280
     1
270
     1
271
     1
  0
XRECORD
  5
14F8A
102
{ACAD_REACTORS
330
14F89
102
}
330
14F89
100
AcDbXrecord
280
     1
270
     1
271
     1
  0
XRECORD
  5
14F8E
102
{ACAD_REACTORS
330
14F89
102
}
330
14F89
100
AcDbXrecord
280
     1
270
     1
271
     1
  0
XRECORD
  5
14F8D
102
{ACAD_REACTORS
330
14F89
102
}
330
14F89
100
AcDbXrecord
280
     1
270
     1
271
     1
  0
XRECORD
  5
14F8F
102
{ACAD_REACTORS
330
14F89
102
}
330
14F89
100
AcDbXrecord
280
     1
270
     1
271
     1
  0
XRECORD
  5
14F8C
102
{ACAD_REACTORS
330
14F89
102
}
330
14F89
100
AcDbXrecord
280
     1
270
     1
271
     1
  0
XRECORD
  5
15097
102
{ACAD_REACTORS
330
14F99
102
}
330
14F99
100
AcDbXrecord
280
     1
102
MATERIAL
148
0.0
149
0.0
149
0.0
 93
        0
 94
      127
282
     0
 72
     0
 77
     0
171
     0
175
     0
179
     0
273
     0
  0
XRECORD
  5
14F9B
102
{ACAD_REACTORS
330
14F99
102
}
330
14F99
100
AcDbXrecord
280
     1
270
     1
271
     1
  0
XRECORD
  5
14F9A
102
{ACAD_REACTORS
330
14F99
102
}
330
14F99
100
AcDbXrecord
280
     1
270
     1
271
     1
  0
XRECORD
  5
14F9E
102
{ACAD_REACTORS
330
14F99
102
}
330
14F99
100
AcDbXrecord
280
     1
270
     1
271
     1
  0
XRECORD
  5
14F9D
102
{ACAD_REACTORS
330
14F99
102
}
330
14F99
100
AcDbXrecord
280
     1
270
     1
271
     1
  0
XRECORD
  5
14F9F
102
{ACAD_REACTORS
330
14F99
102
}
330
14F99
100
AcDbXrecord
280
     1
270
     1
271
     1
  0
XRECORD
  5
14F9C
102
{ACAD_REACTORS
330
14F99
102
}
330
14F99
100
AcDbXrecord
280
     1
270
     1
271
     1
  0
CELLSTYLEMAP
  5
1508B
102
{ACAD_REACTORS
330
1508A
102
}
330
1508A
100
AcDbCellStyleMap
 90
        3
300
CELLSTYLE
  1
TABLEFORMAT_BEGIN
 90
        5
170
     1
 91
        0
 92
    32768
 62
   257
 93
        1
300
CONTENTFORMAT
  1
CONTENTFORMAT_BEGIN
 90
        0
 91
        0
 92
      512
 93
        0
300

 40
0.0
140
1.0
 94
        5
 62
     0
340
11
144
6.0
309
CONTENTFORMAT_END
171
     1
301
MARGIN
  1
CELLMARGIN_BEGIN
 40
1.5
 40
1.5
 40
1.5
 40
1.5
 40
4.5
 40
4.5
309
CELLMARGIN_END
 94
        6
 95
        1
302
GRIDFORMAT
  1
GRIDFORMAT_BEGIN
 90
        0
 91
        1
 62
     0
 92
       -2
340
0
 93
        0
 40
1.125
309
GRIDFORMAT_END
 95
        2
302
GRIDFORMAT
  1
GRIDFORMAT_BEGIN
 90
        0
 91
        1
 62
     0
 92
       -2
340
0
 93
        0
 40
1.125
309
GRIDFORMAT_END
 95
        4
302
GRIDFORMAT
  1
GRIDFORMAT_BEGIN
 90
        0
 91
        1
 62
     0
 92
       -2
340
0
 93
        0
 40
1.125
309
GRIDFORMAT_END
 95
        8
302
GRIDFORMAT
  1
GRIDFORMAT_BEGIN
 90
        0
 91
        1
 62
     0
 92
       -2
340
0
 93
        0
 40
1.125
309
GRIDFORMAT_END
 95
       16
302
GRIDFORMAT
  1
GRIDFORMAT_BEGIN
 90
        0
 91
        1
 62
     0
 92
       -2
340
0
 93
        0
 40
1.125
309
GRIDFORMAT_END
 95
       32
302
GRIDFORMAT
  1
GRIDFORMAT_BEGIN
 90
        0
 91
        1
 62
     0
 92
       -2
340
0
 93
        0
 40
1.125
309
GRIDFORMAT_END
309
TABLEFORMAT_END
  1
CELLSTYLE_BEGIN
 90
        1
 91
        1
300
_TITLE
309
CELLSTYLE_END
300
CELLSTYLE
  1
TABLEFORMAT_BEGIN
 90
        5
170
     1
 91
        0
 92
        0
 62
   257
 93
        1
300
CONTENTFORMAT
  1
CONTENTFORMAT_BEGIN
 90
        0
 91
        0
 92
      512
 93
        0
300

 40
0.0
140
1.0
 94
        5
 62
     0
340
11
144
4.5
309
CONTENTFORMAT_END
171
     1
301
MARGIN
  1
CELLMARGIN_BEGIN
 40
1.5
 40
1.5
 40
1.5
 40
1.5
 40
4.5
 40
4.5
309
CELLMARGIN_END
 94
        6
 95
        1
302
GRIDFORMAT
  1
GRIDFORMAT_BEGIN
 90
        0
 91
        1
 62
     0
 92
       -2
340
0
 93
        0
 40
1.125
309
GRIDFORMAT_END
 95
        2
302
GRIDFORMAT
  1
GRIDFORMAT_BEGIN
 90
        0
 91
        1
 62
     0
 92
       -2
340
0
 93
        0
 40
1.125
309
GRIDFORMAT_END
 95
        4
302
GRIDFORMAT
  1
GRIDFORMAT_BEGIN
 90
        0
 91
        1
 62
     0
 92
       -2
340
0
 93
        0
 40
1.125
309
GRIDFORMAT_END
 95
        8
302
GRIDFORMAT
  1
GRIDFORMAT_BEGIN
 90
        0
 91
        1
 62
     0
 92
       -2
340
0
 93
        0
 40
1.125
309
GRIDFORMAT_END
 95
       16
302
GRIDFORMAT
  1
GRIDFORMAT_BEGIN
 90
        0
 91
        1
 62
     0
 92
       -2
340
0
 93
        0
 40
1.125
309
GRIDFORMAT_END
 95
       32
302
GRIDFORMAT
  1
GRIDFORMAT_BEGIN
 90
        0
 91
        1
 62
     0
 92
       -2
340
0
 93
        0
 40
1.125
309
GRIDFORMAT_END
309
TABLEFORMAT_END
  1
CELLSTYLE_BEGIN
 90
        2
 91
        1
300
_HEADER
309
CELLSTYLE_END
300
CELLSTYLE
  1
TABLEFORMAT_BEGIN
 90
        5
170
     1
 91
        0
 92
        0
 62
   257
 93
        1
300
CONTENTFORMAT
  1
CONTENTFORMAT_BEGIN
 90
        0
 91
        0
 92
      512
 93
        0
300

 40
0.0
140
1.0
 94
        2
 62
     0
340
11
144
4.5
309
CONTENTFORMAT_END
171
     1
301
MARGIN
  1
CELLMARGIN_BEGIN
 40
1.5
 40
1.5
 40
1.5
 40
1.5
 40
4.5
 40
4.5
309
CELLMARGIN_END
 94
        6
 95
        1
302
GRIDFORMAT
  1
GRIDFORMAT_BEGIN
 90
        0
 91
        1
 62
     0
 92
       -2
340
0
 93
        0
 40
1.125
309
GRIDFORMAT_END
 95
        2
302
GRIDFORMAT
  1
GRIDFORMAT_BEGIN
 90
        0
 91
        1
 62
     0
 92
       -2
340
0
 93
        0
 40
1.125
309
GRIDFORMAT_END
 95
        4
302
GRIDFORMAT
  1
GRIDFORMAT_BEGIN
 90
        0
 91
        1
 62
     0
 92
       -2
340
0
 93
        0
 40
1.125
309
GRIDFORMAT_END
 95
        8
302
GRIDFORMAT
  1
GRIDFORMAT_BEGIN
 90
        0
 91
        1
 62
     0
 92
       -2
340
0
 93
        0
 40
1.125
309
GRIDFORMAT_END
 95
       16
302
GRIDFORMAT
  1
GRIDFORMAT_BEGIN
 90
        0
 91
        1
 62
     0
 92
       -2
340
0
 93
        0
 40
1.125
309
GRIDFORMAT_END
 95
       32
302
GRIDFORMAT
  1
GRIDFORMAT_BEGIN
 90
        0
 91
        1
 62
     0
 92
       -2
340
0
 93
        0
 40
1.125
309
GRIDFORMAT_END
309
TABLEFORMAT_END
  1
CELLSTYLE_BEGIN
 90
        3
 91
        2
300
_DATA
309
CELLSTYLE_END
  0
XRECORD
  5
150BE
102
{ACAD_REACTORS
330
1508A
102
}
330
1508A
100
AcDbXrecord
280
     1
102
ACAD_ROUNDTRIP_PRE2007_TABLESTYLE
 90
      512
 91
        0
  1

 92
      512
 93
        0
  2

 94
      512
 95
        0
  3

  0
XRECORD
  5
150A3
102
{ACAD_REACTORS
330
150A2
102
}
330
150A2
100
AcDbXrecord
280
     1
102
RTVSPropertyOp0
 70
     1
102
RTVSPropertyOp1
 70
     1
102
RTVSPropertyOp2
 70
     1
102
RTVSPropertyOp3
 70
     1
102
RTVSPropertyOp4
 70
     1
102
RTVSPropertyOp5
 70
     1
102
RTVSPropertyOp6
 70
     1
102
RTVSPropertyOp7
 70
     1
102
RTVSPropertyOp8
 70
     1
102
RTVSPropertyOp9
 70
     1
102
RTVSPropertyOp10
 70
     1
102
RTVSPropertyOp11
 70
     1
102
RTVSPropertyOp12
 70
     1
102
RTVSPropertyOp13
 70
     1
102
RTVSPropertyOp14
 70
     1
102
RTVSPropertyOp15
 70
     1
102
RTVSPropertyOp16
 70
     1
102
RTVSPropertyOp17
 70
     1
102
RTVSPropertyOp18
 70
     1
102
RTVSPropertyOp19
 70
     1
102
RTVSPropertyOp20
 70
     1
102
RTVSPropertyOp21
 70
     1
102
RTVSPropertyOp22
 70
     1
102
RTVSPropertyOp23
 70
     1
102
RTVSPropertyOp24
 70
     1
102
RTVSPropertyOp25
 70
     1
102
RTVSPropertyOp26
 70
     1
102
RTVSPropertyOp27
 70
     1
  0
XRECORD
  5
150A7
102
{ACAD_REACTORS
330
150A6
102
}
330
150A6
100
AcDbXrecord
280
     1
102
RTVSPropertyOp0
 70
     1
102
RTVSPropertyOp1
 70
     1
102
RTVSPropertyOp2
 70
     1
102
RTVSPropertyOp3
 70
     1
102
RTVSPropertyOp4
 70
     1
102
RTVSPropertyOp5
 70
     1
102
RTVSPropertyOp6
 70
     1
102
RTVSPropertyOp7
 70
     1
102
RTVSPropertyOp8
 70
     1
102
RTVSPropertyOp9
 70
     1
102
RTVSPropertyOp10
 70
     1
102
RTVSPropertyOp11
 70
     1
102
RTVSPropertyOp12
 70
     1
102
RTVSPropertyOp13
 70
     1
102
RTVSPropertyOp14
 70
     1
102
RTVSPropertyOp15
 70
     1
102
RTVSPropertyOp16
 70
     1
102
RTVSPropertyOp17
 70
     1
102
RTVSPropertyOp18
 70
     1
102
RTVSPropertyOp19
 70
     1
102
RTVSPropertyOp20
 70
     1
102
RTVSPropertyOp21
 70
     1
102
RTVSPropertyOp22
 70
     1
102
RTVSPropertyOp23
 70
     1
102
RTVSPropertyOp24
 70
     1
102
RTVSPropertyOp25
 70
     1
102
RTVSPropertyOp26
 70
     1
102
RTVSPropertyOp27
 70
     1
  0
XRECORD
  5
150A5
102
{ACAD_REACTORS
330
150A4
102
}
330
150A4
100
AcDbXrecord
280
     1
102
RTVSPropertyOp0
 70
     1
102
RTVSPropertyOp1
 70
     1
102
RTVSPropertyOp2
 70
     1
102
RTVSPropertyOp3
 70
     1
102
RTVSPropertyOp4
 70
     1
102
RTVSPropertyOp5
 70
     1
102
RTVSPropertyOp6
 70
     1
102
RTVSPropertyOp7
 70
     1
102
RTVSPropertyOp8
 70
     1
102
RTVSPropertyOp9
 70
     1
102
RTVSPropertyOp10
 70
     1
102
RTVSPropertyOp11
 70
     1
102
RTVSPropertyOp12
 70
     1
102
RTVSPropertyOp13
 70
     1
102
RTVSPropertyOp14
 70
     1
102
RTVSPropertyOp15
 70
     1
102
RTVSPropertyOp16
 70
     1
102
RTVSPropertyOp17
 70
     1
102
RTVSPropertyOp18
 70
     1
102
RTVSPropertyOp19
 70
     1
102
RTVSPropertyOp20
 70
     1
102
RTVSPropertyOp21
 70
     1
102
RTVSPropertyOp22
 70
     1
102
RTVSPropertyOp23
 70
     1
102
RTVSPropertyOp24
 70
     1
102
RTVSPropertyOp25
 70
     1
102
RTVSPropertyOp26
 70
     1
102
RTVSPropertyOp27
 70
     1
  0
XRECORD
  5
150A1
102
{ACAD_REACTORS
330
150A0
102
}
330
150A0
100
AcDbXrecord
280
     1
102
RTVSPropertyOp0
 70
     1
102
RTVSPropertyOp1
 70
     1
102
RTVSPropertyOp2
 70
     1
102
RTVSPropertyOp3
 70
     1
102
RTVSPropertyOp4
 70
     1
102
RTVSPropertyOp5
 70
     1
102
RTVSPropertyOp6
 70
     1
102
RTVSPropertyOp7
 70
     1
102
RTVSPropertyOp8
 70
     1
102
RTVSPropertyOp9
 70
     1
102
RTVSPropertyOp10
 70
     1
102
RTVSPropertyOp11
 70
     1
102
RTVSPropertyOp12
 70
     1
102
RTVSPropertyOp13
 70
     1
102
RTVSPropertyOp14
 70
     1
102
RTVSPropertyOp15
 70
     1
102
RTVSPropertyOp16
 70
     1
102
RTVSPropertyOp17
 70
     1
102
RTVSPropertyOp18
 70
     1
102
RTVSPropertyOp19
 70
     1
102
RTVSPropertyOp20
 70
     1
102
RTVSPropertyOp21
 70
     1
102
RTVSPropertyOp22
 70
     1
102
RTVSPropertyOp23
 70
     1
102
RTVSPropertyOp24
 70
     1
102
RTVSPropertyOp25
 70
     1
102
RTVSPropertyOp26
 70
     1
102
RTVSPropertyOp27
 70
     1
  0
XRECORD
  5
150AF
102
{ACAD_REACTORS
330
150AE
102
}
330
150AE
100
AcDbXrecord
280
     1
102
RTVSPropertyOp0
 70
     1
102
RTVSPropertyOp1
 70
     1
102
RTVSPropertyOp2
 70
     1
102
RTVSPropertyOp3
 70
     1
102
RTVSPropertyOp4
 70
     1
102
RTVSPropertyOp5
 70
     1
102
RTVSPropertyOp6
 70
     1
102
RTVSPropertyOp7
 70
     1
102
RTVSPropertyOp8
 70
     1
102
RTVSPropertyOp9
 70
     1
102
RTVSPropertyOp10
 70
     1
102
RTVSPropertyOp11
 70
     1
102
RTVSPropertyOp12
 70
     1
102
RTVSPropertyOp13
 70
     1
102
RTVSPropertyOp14
 70
     1
102
RTVSPropertyOp15
 70
     1
102
RTVSPropertyOp16
 70
     1
102
RTVSPropertyOp17
 70
     1
102
RTVSPropertyOp18
 70
     1
102
RTVSPropertyOp19
 70
     1
102
RTVSPropertyOp20
 70
     1
102
RTVSPropertyOp21
 70
     1
102
RTVSPropertyOp22
 70
     1
102
RTVSPropertyOp23
 70
     1
102
RTVSPropertyOp24
 70
     1
102
RTVSPropertyOp25
 70
     1
102
RTVSPropertyOp26
 70
     1
102
RTVSPropertyOp27
 70
     1
  0
XRECORD
  5
150B7
102
{ACAD_REACTORS
330
150B6
102
}
330
150B6
100
AcDbXrecord
280
     1
102
RTVSPropertyOp0
 70
     1
102
RTVSPropertyOp1
 70
     1
102
RTVSPropertyOp2
 70
     1
102
RTVSPropertyOp3
 70
     1
102
RTVSPropertyOp4
 70
     1
102
RTVSPropertyOp5
 70
     1
102
RTVSPropertyOp6
 70
     1
102
RTVSPropertyOp7
 70
     1
102
RTVSPropertyOp8
 70
     1
102
RTVSPropertyOp9
 70
     1
102
RTVSPropertyOp10
 70
     1
102
RTVSPropertyOp11
 70
     1
102
RTVSPropertyOp12
 70
     1
102
RTVSPropertyOp13
 70
     1
102
RTVSPropertyOp14
 70
     1
102
RTVSPropertyOp15
 70
     1
102
RTVSPropertyOp16
 70
     1
102
RTVSPropertyOp17
 70
     1
102
RTVSPropertyOp18
 70
     1
102
RTVSPropertyOp19
 70
     1
102
RTVSPropertyOp20
 70
     1
102
RTVSPropertyOp21
 70
     1
102
RTVSPropertyOp22
 70
     1
102
RTVSPropertyOp23
 70
     1
102
RTVSPropertyOp24
 70
     1
102
RTVSPropertyOp25
 70
     1
102
RTVSPropertyOp26
 70
     1
102
RTVSPropertyOp27
 70
     1
  0
XRECORD
  5
150A9
102
{ACAD_REACTORS
330
150A8
102
}
330
150A8
100
AcDbXrecord
280
     1
102
RTVSPropertyOp0
 70
     1
102
RTVSPropertyOp1
 70
     1
102
RTVSPropertyOp2
 70
     1
102
RTVSPropertyOp3
 70
     1
102
RTVSPropertyOp4
 70
     1
102
RTVSPropertyOp5
 70
     1
102
RTVSPropertyOp6
 70
     1
102
RTVSPropertyOp7
 70
     1
102
RTVSPropertyOp8
 70
     1
102
RTVSPropertyOp9
 70
     1
102
RTVSPropertyOp10
 70
     1
102
RTVSPropertyOp11
 70
     1
102
RTVSPropertyOp12
 70
     1
102
RTVSPropertyOp13
 70
     1
102
RTVSPropertyOp14
 70
     1
102
RTVSPropertyOp15
 70
     1
102
RTVSPropertyOp16
 70
     1
102
RTVSPropertyOp17
 70
     1
102
RTVSPropertyOp18
 70
     1
102
RTVSPropertyOp19
 70
     1
102
RTVSPropertyOp20
 70
     1
102
RTVSPropertyOp21
 70
     1
102
RTVSPropertyOp22
 70
     1
102
RTVSPropertyOp23
 70
     1
102
RTVSPropertyOp24
 70
     1
102
RTVSPropertyOp25
 70
     1
102
RTVSPropertyOp26
 70
     1
102
RTVSPropertyOp27
 70
     1
  0
XRECORD
  5
150AD
102
{ACAD_REACTORS
330
150AC
102
}
330
150AC
100
AcDbXrecord
280
     1
102
RTVSPropertyOp0
 70
     1
102
RTVSPropertyOp1
 70
     1
102
RTVSPropertyOp2
 70
     1
102
RTVSPropertyOp3
 70
     1
102
RTVSPropertyOp4
 70
     1
102
RTVSPropertyOp5
 70
     1
102
RTVSPropertyOp6
 70
     1
102
RTVSPropertyOp7
 70
     1
102
RTVSPropertyOp8
 70
     1
102
RTVSPropertyOp9
 70
     1
102
RTVSPropertyOp10
 70
     1
102
RTVSPropertyOp11
 70
     1
102
RTVSPropertyOp12
 70
     1
102
RTVSPropertyOp13
 70
     1
102
RTVSPropertyOp14
 70
     1
102
RTVSPropertyOp15
 70
     1
102
RTVSPropertyOp16
 70
     1
102
RTVSPropertyOp17
 70
     1
102
RTVSPropertyOp18
 70
     1
102
RTVSPropertyOp19
 70
     1
102
RTVSPropertyOp20
 70
     1
102
RTVSPropertyOp21
 70
     1
102
RTVSPropertyOp22
 70
     1
102
RTVSPropertyOp23
 70
     1
102
RTVSPropertyOp24
 70
     1
102
RTVSPropertyOp25
 70
     1
102
RTVSPropertyOp26
 70
     1
102
RTVSPropertyOp27
 70
     1
  0
XRECORD
  5
150BD
102
{ACAD_REACTORS
330
150BC
102
}
330
150BC
100
AcDbXrecord
280
     1
102
RTVSPropertyOp0
 70
     0
102
RTVSPropertyOp1
 70
     0
102
RTVSPropertyOp2
 70
     0
102
RTVSPropertyOp3
 70
     0
102
RTVSPropertyOp4
 70
     0
102
RTVSPropertyOp5
 70
     0
102
RTVSPropertyOp6
 70
     0
102
RTVSPropertyOp7
 70
     0
102
RTVSPropertyOp8
 70
     0
102
RTVSPropertyOp9
 70
     0
102
RTVSPropertyOp10
 70
     0
102
RTVSPropertyOp11
 70
     0
102
RTVSPropertyOp12
 70
     0
102
RTVSPropertyOp13
 70
     0
102
RTVSPropertyOp14
 70
     2
102
RTVSPropertyOp15
 70
     0
102
RTVSPropertyOp16
 70
     0
102
RTVSPropertyOp17
 70
     0
102
RTVSPropertyOp18
 70
     0
102
RTVSPropertyOp19
 70
     0
102
RTVSPropertyOp20
 70
     0
102
RTVSPropertyOp21
 70
     0
102
RTVSPropertyOp22
 70
     0
102
RTVSPropertyOp23
 70
     0
102
RTVSPropertyOp24
 70
     0
102
RTVSPropertyOp25
 70
     0
102
RTVSPropertyOp26
 70
     0
102
RTVSPropertyOp27
 70
     0
  0
XRECORD
  5
150B5
102
{ACAD_REACTORS
330
150B4
102
}
330
150B4
100
AcDbXrecord
280
     1
102
RTVSPropertyOp0
 70
     1
102
RTVSPropertyOp1
 70
     1
102
RTVSPropertyOp2
 70
     1
102
RTVSPropertyOp3
 70
     1
102
RTVSPropertyOp4
 70
     1
102
RTVSPropertyOp5
 70
     1
102
RTVSPropertyOp6
 70
     1
102
RTVSPropertyOp7
 70
     1
102
RTVSPropertyOp8
 70
     1
102
RTVSPropertyOp9
 70
     1
102
RTVSPropertyOp10
 70
     1
102
RTVSPropertyOp11
 70
     1
102
RTVSPropertyOp12
 70
     1
102
RTVSPropertyOp13
 70
     1
102
RTVSPropertyOp14
 70
     1
102
RTVSPropertyOp15
 70
     1
102
RTVSPropertyOp16
 70
     1
102
RTVSPropertyOp17
 70
     1
102
RTVSPropertyOp18
 70
     1
102
RTVSPropertyOp19
 70
     1
102
RTVSPropertyOp20
 70
     1
102
RTVSPropertyOp21
 70
     1
102
RTVSPropertyOp22
 70
     1
102
RTVSPropertyOp23
 70
     1
102
RTVSPropertyOp24
 70
     1
102
RTVSPropertyOp25
 70
     1
102
RTVSPropertyOp26
 70
     1
102
RTVSPropertyOp27
 70
     1
  0
XRECORD
  5
15099
102
{ACAD_REACTORS
330
15098
102
}
330
15098
100
AcDbXrecord
280
     1
102
RTVSPropertyOp0
 70
     1
102
RTVSPropertyOp1
 70
     1
102
RTVSPropertyOp2
 70
     1
102
RTVSPropertyOp3
 70
     1
102
RTVSPropertyOp4
 70
     1
102
RTVSPropertyOp5
 70
     1
102
RTVSPropertyOp6
 70
     1
102
RTVSPropertyOp7
 70
     1
102
RTVSPropertyOp8
 70
     1
102
RTVSPropertyOp9
 70
     1
102
RTVSPropertyOp10
 70
     1
102
RTVSPropertyOp11
 70
     1
102
RTVSPropertyOp12
 70
     1
102
RTVSPropertyOp13
 70
     1
102
RTVSPropertyOp14
 70
     1
102
RTVSPropertyOp15
 70
     1
102
RTVSPropertyOp16
 70
     1
102
RTVSPropertyOp17
 70
     1
102
RTVSPropertyOp18
 70
     1
102
RTVSPropertyOp19
 70
     1
102
RTVSPropertyOp20
 70
     1
102
RTVSPropertyOp21
 70
     1
102
RTVSPropertyOp22
 70
     1
102
RTVSPropertyOp23
 70
     1
102
RTVSPropertyOp24
 70
     1
102
RTVSPropertyOp25
 70
     1
102
RTVSPropertyOp26
 70
     1
102
RTVSPropertyOp27
 70
     1
  0
XRECORD
  5
1509B
102
{ACAD_REACTORS
330
1509A
102
}
330
1509A
100
AcDbXrecord
280
     1
102
RTVSPropertyOp0
 70
     1
102
RTVSPropertyOp1
 70
     1
102
RTVSPropertyOp2
 70
     1
102
RTVSPropertyOp3
 70
     1
102
RTVSPropertyOp4
 70
     1
102
RTVSPropertyOp5
 70
     1
102
RTVSPropertyOp6
 70
     1
102
RTVSPropertyOp7
 70
     1
102
RTVSPropertyOp8
 70
     1
102
RTVSPropertyOp9
 70
     1
102
RTVSPropertyOp10
 70
     1
102
RTVSPropertyOp11
 70
     1
102
RTVSPropertyOp12
 70
     1
102
RTVSPropertyOp13
 70
     1
102
RTVSPropertyOp14
 70
     1
102
RTVSPropertyOp15
 70
     1
102
RTVSPropertyOp16
 70
     1
102
RTVSPropertyOp17
 70
     1
102
RTVSPropertyOp18
 70
     1
102
RTVSPropertyOp19
 70
     1
102
RTVSPropertyOp20
 70
     1
102
RTVSPropertyOp21
 70
     1
102
RTVSPropertyOp22
 70
     1
102
RTVSPropertyOp23
 70
     1
102
RTVSPropertyOp24
 70
     1
102
RTVSPropertyOp25
 70
     1
102
RTVSPropertyOp26
 70
     1
102
RTVSPropertyOp27
 70
     1
  0
XRECORD
  5
1509D
102
{ACAD_REACTORS
330
1509C
102
}
330
1509C
100
AcDbXrecord
280
     1
102
RTVSPropertyOp0
 70
     1
102
RTVSPropertyOp1
 70
     1
102
RTVSPropertyOp2
 70
     1
102
RTVSPropertyOp3
 70
     1
102
RTVSPropertyOp4
 70
     1
102
RTVSPropertyOp5
 70
     1
102
RTVSPropertyOp6
 70
     1
102
RTVSPropertyOp7
 70
     1
102
RTVSPropertyOp8
 70
     1
102
RTVSPropertyOp9
 70
     1
102
RTVSPropertyOp10
 70
     1
102
RTVSPropertyOp11
 70
     1
102
RTVSPropertyOp12
 70
     1
102
RTVSPropertyOp13
 70
     1
102
RTVSPropertyOp14
 70
     1
102
RTVSPropertyOp15
 70
     1
102
RTVSPropertyOp16
 70
     1
102
RTVSPropertyOp17
 70
     1
102
RTVSPropertyOp18
 70
     1
102
RTVSPropertyOp19
 70
     1
102
RTVSPropertyOp20
 70
     1
102
RTVSPropertyOp21
 70
     1
102
RTVSPropertyOp22
 70
     1
102
RTVSPropertyOp23
 70
     1
102
RTVSPropertyOp24
 70
     1
102
RTVSPropertyOp25
 70
     1
102
RTVSPropertyOp26
 70
     1
102
RTVSPropertyOp27
 70
     1
  0
XRECORD
  5
1509F
102
{ACAD_REACTORS
330
1509E
102
}
330
1509E
100
AcDbXrecord
280
     1
102
RTVSPropertyOp0
 70
     1
102
RTVSPropertyOp1
 70
     1
102
RTVSPropertyOp2
 70
     1
102
RTVSPropertyOp3
 70
     1
102
RTVSPropertyOp4
 70
     1
102
RTVSPropertyOp5
 70
     1
102
RTVSPropertyOp6
 70
     1
102
RTVSPropertyOp7
 70
     1
102
RTVSPropertyOp8
 70
     1
102
RTVSPropertyOp9
 70
     1
102
RTVSPropertyOp10
 70
     1
102
RTVSPropertyOp11
 70
     1
102
RTVSPropertyOp12
 70
     1
102
RTVSPropertyOp13
 70
     1
102
RTVSPropertyOp14
 70
     1
102
RTVSPropertyOp15
 70
     1
102
RTVSPropertyOp16
 70
     1
102
RTVSPropertyOp17
 70
     1
102
RTVSPropertyOp18
 70
     1
102
RTVSPropertyOp19
 70
     1
102
RTVSPropertyOp20
 70
     1
102
RTVSPropertyOp21
 70
     1
102
RTVSPropertyOp22
 70
     1
102
RTVSPropertyOp23
 70
     1
102
RTVSPropertyOp24
 70
     1
102
RTVSPropertyOp25
 70
     1
102
RTVSPropertyOp26
 70
     1
102
RTVSPropertyOp27
 70
     1
  0
XRECORD
  5
150B9
102
{ACAD_REACTORS
330
150B8
102
}
330
150B8
100
AcDbXrecord
280
     1
102
RTVSPropertyOp0
 70
     0
102
RTVSPropertyOp1
 70
     0
102
RTVSPropertyOp2
 70
     0
102
RTVSPropertyOp3
 70
     0
102
RTVSPropertyOp4
 70
     0
102
RTVSPropertyOp5
 70
     0
102
RTVSPropertyOp6
 70
     0
102
RTVSPropertyOp7
 70
     0
102
RTVSPropertyOp8
 70
     0
102
RTVSPropertyOp9
 70
     0
102
RTVSPropertyOp10
 70
     0
102
RTVSPropertyOp11
 70
     0
102
RTVSPropertyOp12
 70
     0
102
RTVSPropertyOp13
 70
     0
102
RTVSPropertyOp14
 70
     2
102
RTVSPropertyOp15
 70
     0
102
RTVSPropertyOp16
 70
     0
102
RTVSPropertyOp17
 70
     0
102
RTVSPropertyOp18
 70
     0
102
RTVSPropertyOp19
 70
     0
102
RTVSPropertyOp20
 70
     0
102
RTVSPropertyOp21
 70
     0
102
RTVSPropertyOp22
 70
     0
102
RTVSPropertyOp23
 70
     0
102
RTVSPropertyOp24
 70
     0
102
RTVSPropertyOp25
 70
     0
102
RTVSPropertyOp26
 70
     0
102
RTVSPropertyOp27
 70
     0
  0
XRECORD
  5
150B3
102
{ACAD_REACTORS
330
150B2
102
}
330
150B2
100
AcDbXrecord
280
     1
102
RTVSPropertyOp0
 70
     1
102
RTVSPropertyOp1
 70
     1
102
RTVSPropertyOp2
 70
     1
102
RTVSPropertyOp3
 70
     1
102
RTVSPropertyOp4
 70
     1
102
RTVSPropertyOp5
 70
     1
102
RTVSPropertyOp6
 70
     1
102
RTVSPropertyOp7
 70
     1
102
RTVSPropertyOp8
 70
     1
102
RTVSPropertyOp9
 70
     1
102
RTVSPropertyOp10
 70
     1
102
RTVSPropertyOp11
 70
     1
102
RTVSPropertyOp12
 70
     1
102
RTVSPropertyOp13
 70
     1
102
RTVSPropertyOp14
 70
     1
102
RTVSPropertyOp15
 70
     1
102
RTVSPropertyOp16
 70
     1
102
RTVSPropertyOp17
 70
     1
102
RTVSPropertyOp18
 70
     1
102
RTVSPropertyOp19
 70
     1
102
RTVSPropertyOp20
 70
     1
102
RTVSPropertyOp21
 70
     1
102
RTVSPropertyOp22
 70
     1
102
RTVSPropertyOp23
 70
     1
102
RTVSPropertyOp24
 70
     1
102
RTVSPropertyOp25
 70
     1
102
RTVSPropertyOp26
 70
     1
102
RTVSPropertyOp27
 70
     1
  0
XRECORD
  5
150BB
102
{ACAD_REACTORS
330
150BA
102
}
330
150BA
100
AcDbXrecord
280
     1
102
RTVSPropertyOp0
 70
     0
102
RTVSPropertyOp1
 70
     0
102
RTVSPropertyOp2
 70
     0
102
RTVSPropertyOp3
 70
     0
102
RTVSPropertyOp4
 70
     0
102
RTVSPropertyOp5
 70
     0
102
RTVSPropertyOp6
 70
     0
102
RTVSPropertyOp7
 70
     0
102
RTVSPropertyOp8
 70
     0
102
RTVSPropertyOp9
 70
     0
102
RTVSPropertyOp10
 70
     0
102
RTVSPropertyOp11
 70
     0
102
RTVSPropertyOp12
 70
     0
102
RTVSPropertyOp13
 70
     0
102
RTVSPropertyOp14
 70
     2
102
RTVSPropertyOp15
 70
     0
102
RTVSPropertyOp16
 70
     0
102
RTVSPropertyOp17
 70
     0
102
RTVSPropertyOp18
 70
     0
102
RTVSPropertyOp19
 70
     0
102
RTVSPropertyOp20
 70
     0
102
RTVSPropertyOp21
 70
     0
102
RTVSPropertyOp22
 70
     0
102
RTVSPropertyOp23
 70
     0
102
RTVSPropertyOp24
 70
     0
102
RTVSPropertyOp25
 70
     0
102
RTVSPropertyOp26
 70
     0
102
RTVSPropertyOp27
 70
     0
  0
XRECORD
  5
150AB
102
{ACAD_REACTORS
330
150AA
102
}
330
150AA
100
AcDbXrecord
280
     1
102
RTVSPropertyOp0
 70
     1
102
RTVSPropertyOp1
 70
     1
102
RTVSPropertyOp2
 70
     1
102
RTVSPropertyOp3
 70
     1
102
RTVSPropertyOp4
 70
     1
102
RTVSPropertyOp5
 70
     1
102
RTVSPropertyOp6
 70
     1
102
RTVSPropertyOp7
 70
     1
102
RTVSPropertyOp8
 70
     1
102
RTVSPropertyOp9
 70
     1
102
RTVSPropertyOp10
 70
     1
102
RTVSPropertyOp11
 70
     1
102
RTVSPropertyOp12
 70
     1
102
RTVSPropertyOp13
 70
     1
102
RTVSPropertyOp14
 70
     1
102
RTVSPropertyOp15
 70
     1
102
RTVSPropertyOp16
 70
     1
102
RTVSPropertyOp17
 70
     1
102
RTVSPropertyOp18
 70
     1
102
RTVSPropertyOp19
 70
     1
102
RTVSPropertyOp20
 70
     1
102
RTVSPropertyOp21
 70
     1
102
RTVSPropertyOp22
 70
     1
102
RTVSPropertyOp23
 70
     1
102
RTVSPropertyOp24
 70
     1
102
RTVSPropertyOp25
 70
     1
102
RTVSPropertyOp26
 70
     1
102
RTVSPropertyOp27
 70
     1
  0
XRECORD
  5
150B1
102
{ACAD_REACTORS
330
150B0
102
}
330
150B0
100
AcDbXrecord
280
     1
102
RTVSPropertyOp0
 70
     1
102
RTVSPropertyOp1
 70
     1
102
RTVSPropertyOp2
 70
     1
102
RTVSPropertyOp3
 70
     1
102
RTVSPropertyOp4
 70
     1
102
RTVSPropertyOp5
 70
     1
102
RTVSPropertyOp6
 70
     1
102
RTVSPropertyOp7
 70
     1
102
RTVSPropertyOp8
 70
     1
102
RTVSPropertyOp9
 70
     1
102
RTVSPropertyOp10
 70
     1
102
RTVSPropertyOp11
 70
     1
102
RTVSPropertyOp12
 70
     1
102
RTVSPropertyOp13
 70
     1
102
RTVSPropertyOp14
 70
     1
102
RTVSPropertyOp15
 70
     1
102
RTVSPropertyOp16
 70
     1
102
RTVSPropertyOp17
 70
     1
102
RTVSPropertyOp18
 70
     1
102
RTVSPropertyOp19
 70
     1
102
RTVSPropertyOp20
 70
     1
102
RTVSPropertyOp21
 70
     1
102
RTVSPropertyOp22
 70
     1
102
RTVSPropertyOp23
 70
     1
102
RTVSPropertyOp24
 70
     1
102
RTVSPropertyOp25
 70
     1
102
RTVSPropertyOp26
 70
     1
102
RTVSPropertyOp27
 70
     1
  0
PH_GROUP
  5
14DFE
102
{ACAD_REACTORS
330
14DFD
102
}
330
14DFD
  0
DICTIONARY
  5
1503C
102
{ACAD_REACTORS
330
1503B
102
}
330
1503B
100
AcDbDictionary
281
     1
  3
PH_GRPMEMBERS
350
1503D
  0
PH_GROUP
  5
1503E
102
{ACAD_REACTORS
330
1503B
102
}
330
1503B
  0
PH_GROUP
  5
1503D
102
{ACAD_REACTORS
330
1503C
102
}
330
1503C
  0
ENDSEC
  0
EOF
